<?xml version="1.0" standalone="no"?>
<!DOCTYPE svg PUBLIC "-//W3C//DTD SVG 1.1//EN" "http://www.w3.org/Graphics/SVG/1.1/DTD/svg11.dtd" >
<svg xmlns="http://www.w3.org/2000/svg">
<metadata>
This is a custom SVG webfont generated by Font Squirrel.
Designer    : Johan Aakerlund - aajohan
Foundry     : Johan Aakerlund
</metadata>
<defs>
<font id="webfontReo2lGxG" horiz-adv-x="1014" >
<font-face units-per-em="2048" ascent="1638" descent="-410" />
<missing-glyph horiz-adv-x="508" />
<glyph unicode=" "  horiz-adv-x="508" />
<glyph unicode="&#x09;" horiz-adv-x="508" />
<glyph unicode="&#xa0;" horiz-adv-x="508" />
<glyph unicode="!" horiz-adv-x="511" d="M189 1417h12q39 0 48 -46v-950q-12 -50 -51 -50q-57 9 -57 44v959q9 43 48 43zM180 181h6q80 -12 80 -67v-22q0 -51 -73 -67h-9q-59 0 -74 78q16 78 70 78z" />
<glyph unicode="&#x22;" horiz-adv-x="557" d="M131 1534q54 -14 54 -42q-20 -288 -31 -288l-28 -8q-22 0 -27 101l-20 181q11 56 52 56zM384 1534q30 0 44 -53q-26 -269 -28 -269q-17 -16 -22 -16h-4q-31 0 -31 112l-20 184q0 32 61 42z" />
<glyph unicode="#" horiz-adv-x="1336" d="M968 1406q46 -13 46 -39v-11q0 -26 -82 -414h142l34 4q34 0 44 -51q-9 -50 -49 -50h-191l-46 -242h168q63 -6 63 -49q-10 -48 -72 -48v2l9 -2h-190q-86 -436 -98 -461q-17 -22 -39 -22h-5q-45 9 -45 43v1l89 439h-246q-31 0 -78 -266q-38 -189 -45 -193q-20 -28 -41 -28 q-53 11 -53 48l89 439h-135l-22 -4q-34 0 -45 56v2q0 31 53 43h173l47 242h-164q-52 10 -52 48q8 49 67 49v1l12 -1h158q82 438 86 438q28 22 48 22q39 0 46 -49l-80 -411h270q82 430 92 443q20 21 42 21zM543 845l-47 -242h270l46 242h-269z" />
<glyph unicode="$" d="M452 1627h20q29 0 40 -51v-148q107 -8 216 -107q36 -35 36 -48v-23q0 -29 -51 -37q-17 0 -77 66q-38 32 -124 59v-511q184 -68 255 -201q55 -103 55 -196q0 -262 -269 -379l-41 -7v-145q-13 -52 -46 -52q-54 11 -54 49v104q0 28 -108 43q-163 56 -231 167l-2 14 q9 49 49 49q28 0 91 -79q95 -62 201 -70v625q-142 44 -188 111q-95 98 -95 223v28q0 175 181 283q57 28 102 28v161q13 44 40 44zM226 1091v-31q0 -139 186 -240v496q-186 -91 -186 -225zM512 714v-581h35q174 102 174 257v39q0 157 -209 285z" />
<glyph unicode="%" horiz-adv-x="1610" d="M427 1411h19q155 0 264 -142q63 -93 63 -190q0 -217 -226 -320q-63 -18 -105 -18h-7q-195 0 -300 191q-35 71 -35 144q0 220 234 321q46 14 93 14zM1261 1411h8q46 -9 46 -44v-15q0 -13 -135 -186l-857 -1131q-18 -10 -28 -10h-1q-50 10 -50 39v16q0 22 101 143l892 1179 q13 9 24 9zM198 1081v-9q0 -168 186 -230l42 -3h20q165 0 226 190l4 46q0 173 -182 233l-53 9q-172 0 -235 -178zM1124 698q196 0 310 -204q25 -74 25 -130v-12q0 -196 -208 -302q-64 -25 -127 -25h-7q-171 0 -282 166q-46 80 -46 157v23q0 176 177 285q85 42 158 42z M883 365q0 -168 175 -234l57 -8h17q161 0 225 182l4 39v27q0 168 -194 226l-42 4q-179 0 -238 -198z" />
<glyph unicode="&#x26;" horiz-adv-x="1457" d="M465 1408h19q177 0 261 -195q10 -43 10 -75v-19q0 -134 -147 -252l-56 -60l347 -347h24l161 162q18 13 33 13q48 0 55 -60q0 -30 -126 -140l-58 -64l232 -233q9 -11 9 -24v-9q-10 -50 -47 -50h-11q-31 0 -123 106l-140 137q-226 -246 -288 -246q-66 -27 -128 -27 q-206 0 -327 206q-35 83 -35 160q0 182 204 349l64 69q-196 183 -196 282q-8 0 -8 43q0 171 185 261q48 13 86 13zM304 1152v-33q0 -89 160 -223h22q164 142 164 223v15q0 112 -133 165l-43 4q-109 0 -162 -116zM239 400v-21q0 -164 186 -236l61 -9q145 0 271 160l77 78 l-347 347h-23q-221 -196 -221 -288z" />
<glyph unicode="'" horiz-adv-x="346" d="M144 1521q54 -14 54 -42q-20 -288 -31 -288l-28 -8q-22 0 -27 101l-20 181q11 56 52 56z" />
<glyph unicode="(" horiz-adv-x="758" d="M578 1571h9q46 -9 46 -43v-7l-74 -199q-133 -358 -133 -733q0 -468 208 -923l2 -8q-9 -51 -47 -51h-7q-46 0 -80 121q-175 406 -175 865q0 492 218 962q17 16 33 16z" />
<glyph unicode=")" horiz-adv-x="758" d="M114 1575h15q35 0 73 -122q174 -415 174 -857q0 -521 -223 -976q-17 -11 -31 -11h-8q-38 0 -47 49l79 196q131 373 131 738q0 458 -208 924l-2 8q9 51 47 51z" />
<glyph unicode="*" horiz-adv-x="1024" d="M497 1533q51 -13 51 -50v-4l-52 -168v-33h36l162 101l15 3q51 -11 51 -51v-12q0 -25 -40 -43l-119 4h-142l201 -164l8 -22v-15q0 -38 -53 -47q-49 0 -62 93l-38 115h-41l-52 -178q-20 -30 -46 -30q-54 12 -54 43v16q0 33 81 79l130 110h-72l-191 -4q-40 16 -40 51v4 q0 40 57 51q19 0 121 -76l86 -43v48l-52 168v4q0 39 55 50z" />
<glyph unicode="+" d="M487 1092h12q38 0 47 -53v-247h236q68 -6 68 -53q-11 -53 -76 -53v1l7 -1h-235v-251q-10 -53 -51 -53h-2q-53 11 -53 43v261h-231l-24 -4q-37 0 -49 61v2q0 34 58 47h246v251q10 49 47 49z" />
<glyph unicode="," horiz-adv-x="557" d="M229 257h13q114 -23 114 -121l-6 6l6 6v-16l8 -56v-14q0 -169 -171 -254q-32 -21 -48 -21q-21 0 -27 37q0 25 68 38q50 29 97 92l32 88l-86 -15q-123 21 -123 119v4q0 65 89 101q12 6 34 6z" />
<glyph unicode="-" horiz-adv-x="670" d="M119 623h400q38 0 50 -55q-12 -51 -50 -51h-400q-44 0 -51 57q14 49 51 49z" />
<glyph unicode="&#xad;" horiz-adv-x="670" d="M119 623h400q38 0 50 -55q-12 -51 -50 -51h-400q-44 0 -51 57q14 49 51 49z" />
<glyph unicode="." horiz-adv-x="557" d="M244 249q85 0 110 -103v-21q0 -59 -82 -95q-9 -5 -28 -5h-4q-91 0 -110 116q0 69 85 103q10 5 29 5z" />
<glyph unicode="/" horiz-adv-x="770" d="M601 1492q53 -9 53 -47v-16q-503 -1384 -553 -1506q-19 -21 -38 -21h-8q-41 0 -51 55q3 21 552 1510q24 25 45 25z" />
<glyph unicode="0" horiz-adv-x="989" d="M421 1412q231 0 355 -249q70 -216 70 -399v-87q0 -226 -92 -453q-129 -199 -325 -199h-12q-213 0 -336 228q-81 207 -81 462v11q0 271 95 487q132 199 326 199zM86 737v-41q0 -267 99 -453q101 -124 229 -124h11q278 0 324 414q11 63 15 189q0 224 -78 431 q-103 165 -261 165q-192 0 -281 -209q-58 -194 -58 -372z" />
<glyph unicode="1" horiz-adv-x="568" d="M284 1412h5q46 -10 46 -40v-1298q-9 -49 -47 -49h-1q-50 10 -50 39v1233q-131 -44 -158 -44t-39 47v16q0 36 133 63z" />
<glyph unicode="2" horiz-adv-x="976" d="M406 1411q192 0 335 -172q74 -112 74 -234q0 -186 -186 -361l-456 -522h618q35 0 43 -48q-7 -49 -47 -49h-731q-48 9 -48 47v4q0 25 64 85l588 670q54 77 54 174q0 209 -217 292q-37 12 -84 12h-11q-201 0 -289 -213q-12 -45 -16 -99q-17 -35 -43 -35h-5q-49 9 -49 43 q0 213 203 349q108 57 203 57z" />
<glyph unicode="3" horiz-adv-x="955" d="M421 1407q155 0 269 -141q63 -85 63 -188v-15q0 -145 -151 -277q211 -153 211 -356q0 -210 -199 -349q-102 -56 -202 -56h-11q-237 0 -369 245q-32 90 -32 163q0 32 56 43q33 0 41 -52q0 -175 185 -277q68 -25 130 -25q185 0 279 192q21 59 21 101v30q0 175 -194 272 l-121 26q-24 18 -24 41v4q0 46 77 46q86 0 175 110q34 71 34 130q0 137 -133 210q-49 26 -110 26q-157 0 -224 -170q-10 -90 -13 -90q-27 -30 -39 -30q-53 12 -53 39v19q0 182 183 291q69 34 151 38z" />
<glyph unicode="4" horiz-adv-x="1103" d="M693 1400h23q23 0 39 -42l-4 -33v-778h143l34 3q32 0 45 -53q0 -31 -43 -47l-51 4h-128v-390q0 -29 -49 -39h1q-49 9 -49 46v383h-533l-85 -4q-36 15 -36 43v15q0 14 31 38q605 787 637 838q15 16 25 16zM153 547h501v652z" />
<glyph unicode="5" d="M135 1404l35 -4h576q39 0 50 -55q0 -36 -57 -48h-546v-429h240q237 0 372 -245q42 -101 42 -177q0 -218 -208 -362q-106 -59 -210 -59h-12q-246 0 -384 255q-33 97 -33 158q18 50 53 50q58 0 58 -112q54 -159 167 -215q85 -33 143 -33q213 0 301 215q18 44 18 103 q0 232 -247 311l-94 8h-263q-33 0 -46 42v555q0 25 45 42z" />
<glyph unicode="6" horiz-adv-x="951" d="M544 1411q31 0 43 -54q0 -20 -87 -157l-192 -334v-38l83 6h32q193 0 330 -195q60 -108 60 -209q0 -201 -185 -337q-104 -68 -216 -68h-19q-192 0 -333 192q-60 109 -60 213q0 137 102 272l404 697q20 12 38 12zM101 449v-38q0 -170 193 -268q54 -17 110 -21 q208 0 296 218l12 76v17q0 216 -235 297l-75 7q-203 0 -293 -222z" />
<glyph unicode="7" horiz-adv-x="964" d="M80 1404h725q46 -9 46 -35v-19q0 -12 -34 -63l-707 -1251q-17 -11 -30 -11h-1q-49 9 -49 47v8q8 29 658 1172l20 55h-614q-53 11 -53 47q11 50 39 50z" />
<glyph unicode="8" horiz-adv-x="972" d="M422 1414q159 0 271 -142q63 -86 63 -189v-19q0 -139 -151 -275q212 -153 212 -357q0 -202 -186 -339q-104 -68 -217 -68h-19q-193 0 -335 192q-60 110 -60 215q0 211 229 373q-105 81 -132 191q-10 25 -10 68v19q0 176 170 284q84 47 165 47zM185 1069q0 -162 190 -227 l46 -4q168 0 229 178l9 57q0 178 -187 235l-53 4q-164 0 -227 -174zM98 437q0 -219 224 -301q32 -13 92 -13q205 0 293 227l9 61v40q0 177 -202 272q-57 18 -104 18q-221 0 -300 -228z" />
<glyph unicode="9" horiz-adv-x="972" d="M406 1410q211 0 345 -202q57 -107 57 -200q0 -152 -126 -299l-500 -672q-17 -12 -29 -12q-52 10 -52 50q0 25 115 165l269 366h-55l-22 -4q-230 0 -362 219q-46 96 -46 187q0 224 219 356q95 46 187 46zM100 1023v-34q0 -164 179 -262q56 -25 127 -25q177 0 269 166 q33 63 33 136v4q0 208 -214 289q-32 13 -84 13h-23q-175 0 -270 -196q-17 -59 -17 -91z" />
<glyph unicode=":" horiz-adv-x="557" d="M267 927q71 0 99 -83v-28q0 -57 -83 -87h-14q-101 15 -101 97q20 101 99 101zM255 259h16q75 0 95 -90v-17q0 -67 -96 -90q-102 17 -102 99q21 98 87 98z" />
<glyph unicode=";" horiz-adv-x="557" d="M242 901q71 0 99 -83v-28q0 -57 -83 -87h-14q-101 15 -101 97q20 101 99 101zM266 233q103 0 103 -167v-4q0 -168 -203 -235h-13q-26 5 -26 23v13q7 26 29 26l30 -5q121 64 121 165l-39 -13q-105 16 -105 98q0 70 79 99h24z" />
<glyph unicode="&#x37e;" horiz-adv-x="557" d="M242 901q71 0 99 -83v-28q0 -57 -83 -87h-14q-101 15 -101 97q20 101 99 101zM266 233q103 0 103 -167v-4q0 -168 -203 -235h-13q-26 5 -26 23v13q7 26 29 26l30 -5q121 64 121 165l-39 -13q-105 16 -105 98q0 70 79 99h24z" />
<glyph unicode="&#x3c;" d="M802 1077q54 -14 54 -51v-8q0 -41 -125 -101q-6 -10 -450 -282q41 -42 560 -364q15 -18 15 -37v-4q0 -43 -57 -51q-21 0 -132 76l-534 330q-19 22 -19 41q0 43 99 86q566 365 584 365h5z" />
<glyph unicode="=" d="M187 808h612q39 0 50 -55q-12 -51 -50 -51h-612q-43 0 -51 57q14 49 51 49zM194 476h599q57 -11 57 -52q-11 -54 -51 -54h-620q-34 0 -43 61q0 32 58 45z" />
<glyph unicode="&#x3e;" d="M192 1095q22 0 223 -132q426 -263 455 -288q9 -12 9 -27v-8q0 -39 -83 -74q-578 -369 -592 -369h-14q-53 10 -53 51v4q0 42 115 98l467 298q-547 336 -568 356q-14 20 -14 34q11 57 55 57z" />
<glyph unicode="?" horiz-adv-x="980" d="M472 1408q169 0 307 -150q96 -121 96 -264q0 -178 -159 -316q-186 -102 -186 -300q-8 -52 -47 -52q-50 11 -50 39v30q0 222 241 370q103 103 103 240q0 176 -185 280q-82 25 -131 25q-182 0 -285 -194l-26 -127q-21 -27 -38 -27q-54 11 -54 47q0 192 190 335 q115 64 224 64zM471 173h13q48 0 69 -62v-20q-14 -72 -78 -72q-76 16 -76 73q0 67 72 81z" />
<glyph unicode="@" horiz-adv-x="2019" d="M911 1546h36q405 0 705 -347q206 -264 206 -580q0 -389 -261 -493q-66 -30 -134 -30h-28q-123 0 -140 35l-3 14l4 98v62q-211 -201 -405 -201h-32q-266 0 -442 268q-65 128 -65 259q0 292 287 462q122 57 236 57q297 0 470 -291q53 -117 53 -244v-406l51 -7 q166 0 257 162q42 103 42 223v52q0 336 -280 599q-245 202 -537 202q-431 0 -697 -379q-128 -207 -128 -442v-4q0 -390 322 -652q230 -169 503 -169q230 0 457 137l11 3q55 -11 55 -55q0 -79 -317 -168q-91 -23 -178 -23h-52q-337 0 -623 257q-288 290 -288 678 q0 394 320 693q272 230 595 230zM458 635v-12q0 -253 255 -383q82 -30 146 -30h32q213 0 350 213q51 100 51 192v16q0 245 -242 374q-85 39 -175 39h-4q-258 0 -387 -268q-26 -83 -26 -141z" />
<glyph unicode="A" horiz-adv-x="1191" d="M531 1403q49 0 78 -121q454 -1181 457 -1205v-9q0 -35 -48 -43h-2q-46 0 -70 110l-176 457h-474l-210 -553q-17 -14 -32 -14h-6q-48 9 -48 46l126 341q336 874 363 965q23 26 42 26zM514 1167l-177 -478h384v34l-169 444h-38z" />
<glyph unicode="B" horiz-adv-x="998" d="M127 1402l-9 2h234l15 3q158 0 272 -152q56 -83 56 -181v-11q0 -120 -116 -252q259 -143 259 -385q0 -243 -253 -373q-80 -28 -144 -28h-337q-49 9 -49 47v1283q7 49 72 49v-2zM152 1307v-473h164q202 0 261 148q17 42 17 85v11q0 164 -191 225l-82 4h-169zM152 737v-615 h221q230 0 311 135q53 75 53 169v7q0 221 -242 297l-110 7h-233z" />
<glyph unicode="C" horiz-adv-x="1363" d="M752 1411q215 0 397 -128q9 -18 9 -28v-8q0 -41 -55 -47h3l-128 66q-138 44 -226 44q-281 0 -486 -257q-102 -172 -102 -335q0 -329 308 -521q137 -71 273 -71h11q173 0 343 106h13q46 -10 46 -43v-11q0 -61 -235 -131q-76 -22 -159 -22h-19q-342 0 -573 318 q-109 183 -109 375q0 360 329 587q175 106 360 106z" />
<glyph unicode="D" horiz-adv-x="1195" d="M127 1410l-9 2h197l42 4q310 0 541 -272q146 -190 146 -431q0 -332 -293 -560q-185 -128 -391 -128h-256q-49 9 -49 47v1291q7 49 72 49v-2zM153 1318v-1195h188q376 0 558 364q47 124 47 237q0 273 -240 474q-150 120 -441 120h-112z" />
<glyph unicode="E" horiz-adv-x="1094" d="M135 1411l-9 2h750l15 4q40 0 48 -57q-10 -45 -58 -45h-720v-562h481l54 4q30 0 42 -54q0 -30 -40 -48l-71 4h-466v-536h738q31 0 39 -53q-13 -45 -42 -45h-784q-49 9 -49 47v1292q7 49 72 49v-2z" />
<glyph unicode="F" horiz-adv-x="1031" d="M127 1411l-9 2h750l15 4q40 0 48 -57q-10 -45 -58 -45h-720v-562h481l54 4q30 0 42 -54q0 -30 -40 -48l-71 4h-466v-566l3 -20q-11 -48 -46 -48h-6q-49 9 -49 47v1292q7 49 72 49v-2z" />
<glyph unicode="G" horiz-adv-x="1292" d="M720 1411q221 0 394 -121q12 -16 12 -31v-4q0 -37 -53 -47q-4 0 -135 62q-93 36 -180 36h-61q-222 0 -423 -213q-131 -179 -131 -367v-15q0 -307 284 -501q148 -84 297 -84h15q146 0 305 86v384h-296q-48 8 -48 47v1q8 49 46 49h352q35 0 43 -49v-417q0 -76 -32 -92 q-188 -110 -363 -110h-22q-342 0 -573 318q-109 179 -109 375q0 348 310 576q190 117 368 117z" />
<glyph unicode="H" horiz-adv-x="1186" d="M85 1408h12q46 -9 46 -35v-623h762v610q8 48 43 48h9q45 -9 45 -43v-1301q0 -29 -50 -39h1q-48 9 -48 47v585h-762v-589q0 -35 -48 -43h-2q-37 0 -47 53v1271q6 59 39 59z" />
<glyph unicode="I" horiz-adv-x="539" d="M109 1422l15 -2h146l13 2q51 -10 51 -48q-9 -53 -47 -53h-41v-1197h48q30 0 40 -51v1q-9 -49 -47 -49h-178q-49 9 -49 47v1q10 51 40 51h48v1197h-41q-41 0 -47 56v3q0 28 49 42z" />
<glyph unicode="J" horiz-adv-x="1022" d="M837 1414h12q34 0 43 -49v-921q0 -225 -212 -362q-99 -57 -203 -57h-19q-207 0 -348 202q-64 106 -64 218q11 50 40 50h15q47 0 47 -94q7 -92 107 -199q99 -79 214 -79q229 0 313 237q12 45 12 88v921q9 45 43 45z" />
<glyph unicode="K" horiz-adv-x="1112" d="M109 1409h1q49 -8 49 -43v-713q735 734 733 734l27 4h3q45 -9 45 -43v-12q0 -25 -71 -83l-482 -485l543 -672l2 -15v-9q0 -35 -48 -43h-2q-32 0 -105 107l-463 562l-182 -186v-444q0 -35 -49 -43h-1q-37 0 -47 52v1280q10 52 47 52z" />
<glyph unicode="L" horiz-adv-x="997" d="M85 1408h12q46 -9 46 -35v-1251h642q39 0 46 -52q-13 -45 -46 -45h-692q-37 0 -47 53v1271q6 59 39 59z" />
<glyph unicode="M" horiz-adv-x="1490" d="M99 1407h15q39 0 59 -81l497 -1111q47 55 366 784l184 396q12 12 28 12h15q33 0 39 -59v-1270q-10 -53 -47 -53h-2q-48 8 -48 43v966h-45q-429 -973 -441 -992q-20 -17 -38 -17q-48 0 -94 143l-385 862h-45v-962q0 -35 -48 -43h-2q-37 0 -47 53v1270q6 59 39 59z" />
<glyph unicode="N" horiz-adv-x="1321" d="M77 1406h15q32 0 62 -64q58 -65 830 -1062q-5 0 -5 6l16 -21h41v1096q9 45 43 45h11q35 0 43 -48v-1283q0 -41 -56 -50q-28 0 -110 122l-832 1062v-1137q0 -35 -49 -43h-1q-37 0 -47 52v1266q6 59 39 59z" />
<glyph unicode="O" horiz-adv-x="1595" d="M731 1410q350 0 586 -325q106 -184 106 -371q0 -346 -314 -576q-177 -113 -371 -113h-15q-357 0 -583 333q-102 167 -102 363q0 331 292 558q189 131 401 131zM135 710q0 -286 252 -481q158 -107 336 -107h19q280 0 473 248q111 160 111 348q0 323 -295 511 q-146 84 -300 84q-295 0 -489 -256q-107 -154 -107 -347z" />
<glyph unicode="P" horiz-adv-x="963" d="M85 1413h346q189 0 323 -197q50 -100 50 -180v-27q0 -177 -161 -306q-109 -75 -212 -75h-287v-560q0 -34 -49 -43h-2q-37 0 -47 53v1275q6 60 39 60zM144 1315v-589h260q207 0 285 198q17 42 17 100q0 183 -186 270q-47 21 -108 21h-268z" />
<glyph unicode="Q" horiz-adv-x="1599" d="M739 1410q350 0 587 -325q105 -183 105 -371q0 -225 -155 -434v-22q159 -156 159 -179v-7q0 -36 -54 -47q-29 0 -122 114q-28 22 -53 64q-228 -178 -460 -178h-15q-356 0 -583 333q-102 167 -102 363q0 331 292 558q190 131 401 131zM143 710q0 -286 252 -481 q158 -107 336 -107h19q197 0 381 147q-170 184 -182 203v17q9 45 43 45h11q26 0 106 -98l80 -80h28q117 180 117 362q0 323 -295 512q-145 83 -300 83q-295 0 -489 -256q-107 -154 -107 -347z" />
<glyph unicode="R" horiz-adv-x="976" d="M81 1410h315q187 0 307 -199q38 -76 38 -159v-15q0 -185 -181 -303l-59 -31q354 -610 354 -616v-19q0 -35 -49 -43h-2q-38 0 -91 116l-319 543h-254v-616q0 -35 -49 -43h-2q-37 0 -47 53v1272q6 60 39 60zM140 1316v-535h240q198 0 260 213l4 34v32q0 158 -175 239 q-50 17 -149 17h-180z" />
<glyph unicode="S" horiz-adv-x="926" d="M428 1412q174 0 287 -154l2 -8v-20q0 -28 -50 -36q-16 0 -84 75q-75 48 -143 48h-23q-141 0 -213 -148q-18 -37 -18 -76v-31q0 -162 196 -235q122 0 260 -112q132 -134 132 -295q0 -197 -169 -324q-103 -71 -230 -71q-204 0 -336 173l-5 21q8 46 47 46q28 0 86 -73 q104 -72 189 -72h34q167 0 269 188q16 62 16 93v38q0 166 -187 268l-195 54q-203 116 -203 305v27q0 185 200 290q74 29 138 29z" />
<glyph unicode="T" horiz-adv-x="1225" d="M77 1411h931q45 -9 45 -43v-15q0 -33 -59 -39h-400v-1246q0 -35 -49 -43h-1q-37 0 -47 53v1236h-406q-53 11 -53 47q11 50 39 50z" />
<glyph unicode="U" horiz-adv-x="1168" d="M79 1408h12q46 -9 46 -35v-806q0 -274 159 -369q98 -76 222 -76q237 0 356 243q25 76 25 157v838q8 48 43 48h9q45 -9 45 -43v-881q0 -213 -206 -373q-129 -86 -261 -86h-26q-223 0 -388 220q-75 117 -75 292v812q6 59 39 59z" />
<glyph unicode="V" horiz-adv-x="1246" d="M91 1416q41 0 76 -141l379 -1004h37l421 1126q20 19 40 19h4q37 0 46 -49l-476 -1284q-13 -58 -52 -58h-3q-48 0 -79 130q-450 1188 -450 1206v8q0 38 57 47z" />
<glyph unicode="W" horiz-adv-x="1777" d="M76 1411h16q43 0 59 -95l286 -992h45q296 1046 312 1070q16 17 33 17h11q46 0 63 -117q28 -76 282 -974h42l311 1070q16 21 30 21h13q45 -9 45 -35v-15l-380 -1318q-19 -18 -38 -18h-4q-49 0 -66 120q-247 838 -282 979h-41l-311 -1078q-17 -21 -39 -21h-15 q-40 0 -59 124q-325 1107 -351 1215q10 47 38 47z" />
<glyph unicode="X" horiz-adv-x="1300" d="M68 1412h16q29 0 51 -44l446 -571l475 610q9 5 21 5h12q34 0 43 -49v-1q0 -24 -96 -136l-396 -509l486 -622l6 -22v1q-9 -49 -47 -49h-4q-33 0 -62 60l-438 559l-477 -611q-10 -8 -24 -8h-2q-49 9 -49 47v11q0 16 158 208l334 433q-481 609 -489 627l-3 14q11 47 39 47z " />
<glyph unicode="Y" horiz-adv-x="1153" d="M81 1408h16q32 0 56 -59l354 -529h31q377 569 388 578q14 10 20 10h23q26 0 39 -50q0 -21 -125 -192l-311 -464v-618q-7 -59 -39 -59h-16q-31 0 -43 40v617q0 22 -164 265l-266 400l-2 13q11 48 39 48z" />
<glyph unicode="Z" horiz-adv-x="1271" d="M73 1412h1021q34 0 43 -49v-1q0 -20 -77 -110l-874 -1129h902q49 -7 49 -47v-2q-9 -49 -47 -49h-1009q-38 0 -47 57q0 17 177 237l771 996h-895q-53 11 -53 47q11 50 39 50z" />
<glyph unicode="[" horiz-adv-x="779" d="M319 1553l14 -1h294l40 4q50 -18 50 -47v-12q0 -33 -43 -51l-63 4h-258v-1742h314q50 -11 50 -43v-12q0 -44 -60 -51h-353q-57 11 -57 55v1831q5 64 72 64v1z" />
<glyph unicode="\" horiz-adv-x="691" d="M50 1523h4q57 0 92 -154l507 -1383q-10 -53 -51 -53h-16q-41 0 -80 150q-472 1273 -506 1387q8 53 50 53z" />
<glyph unicode="]" horiz-adv-x="758" d="M73 1556l55 -4h278l41 4q49 -14 49 -51v-1860q0 -32 -53 -43h-366q-44 0 -51 60v3q0 30 52 46l17 -3h295v1742h-246l-72 -4q-46 16 -46 55q0 38 47 55z" />
<glyph unicode="^" horiz-adv-x="942" d="M364 1409h11q38 0 90 -104q229 -346 229 -359v-24q0 -34 -61 -43q-33 0 -117 156l-150 220l-236 -365q-23 -11 -39 -11q-34 0 -47 58q0 21 76 131q204 323 218 331z" />
<glyph unicode="_" horiz-adv-x="958" d="M50 -54h882q52 -9 52 -45v-10q-10 -47 -45 -47h-889q-42 0 -49 55q13 47 49 47z" />
<glyph unicode="`" horiz-adv-x="752" d="M261 1386h9q27 0 90 -76q173 -163 173 -177l3 -18q-10 -51 -50 -51h-8q-33 0 -146 129q-121 104 -121 138v12q0 32 50 43z" />
<glyph unicode="a" horiz-adv-x="1199" d="M529 998q276 0 437 -271q49 -108 49 -227v-433q0 -34 -48 -42h-2q-31 0 -46 36v-2l4 93v63q-200 -190 -380 -190h-29q-247 0 -412 249q-60 119 -60 241q0 271 267 430q113 53 220 53zM138 519v-11q0 -238 239 -359q77 -28 137 -28h29q200 0 329 199q47 94 47 180v15 q0 230 -226 351q-80 36 -164 36h-4q-242 0 -363 -251q-24 -78 -24 -132z" />
<glyph unicode="b" horiz-adv-x="1230" d="M119 1407h5q46 -10 46 -40v-550q200 193 396 193q189 0 344 -144q148 -155 148 -348q0 -277 -263 -436q-113 -57 -218 -57h-30q-198 0 -370 187q-104 139 -104 332v823q0 30 46 40zM170 529v-19q0 -247 258 -367q70 -21 126 -21h23q241 0 364 258q20 79 20 122v23 q0 246 -263 368q-80 20 -125 20h-15q-241 0 -363 -253q-25 -73 -25 -131z" />
<glyph unicode="c" horiz-adv-x="1036" d="M522 1001q188 0 340 -140q6 -10 6 -22v-2q-9 -48 -46 -48h-4q-19 0 -107 67q-90 46 -178 46h-22q-234 0 -353 -244q-28 -83 -28 -149q0 -237 244 -360q74 -28 156 -28q138 0 266 107l21 5h9q34 0 42 -48v-1q0 -60 -222 -145q-76 -14 -113 -14h-30q-196 0 -365 186 q-104 146 -104 302q0 238 211 400q134 88 277 88z" />
<glyph unicode="d" horiz-adv-x="1200" d="M957 1407h12q46 -9 46 -36v-748l4 -128q0 -140 -115 -294q-163 -176 -366 -176h-30q-198 0 -369 187q-105 148 -105 306q0 239 213 403q135 89 280 89q187 0 395 -186v484l-4 56q14 43 39 43zM131 529v-19q0 -247 258 -367q70 -21 126 -21h23q241 0 364 258q20 79 20 122 v23q0 246 -263 368q-80 20 -125 20h-15q-241 0 -363 -253q-25 -73 -25 -131z" />
<glyph unicode="e" horiz-adv-x="1166" d="M518 1000q282 0 438 -268q53 -104 53 -227v-17q-9 -52 -46 -52h-822q56 -191 213 -276q91 -35 171 -35q93 0 205 56h14q44 -9 44 -43v-11q0 -70 -246 -102h-24q-262 0 -421 246q-63 115 -63 242q0 267 253 426q123 61 231 61zM134 532h772q0 110 -96 241 q-132 124 -262 124h-41q-193 0 -317 -188q-43 -75 -56 -177z" />
<glyph unicode="f" horiz-adv-x="866" d="M575 1412h89q30 0 39 -57q0 -29 -54 -41h-54q-157 0 -207 -173l-3 -83v-78h189l60 3q27 0 39 -50v-8q0 -28 -47 -40h-241v-776l3 -42q0 -30 -53 -42q-32 0 -48 42l4 42v776h-223q-30 0 -39 57q0 20 41 41l70 -3h147v93q0 237 205 324z" />
<glyph unicode="g" horiz-adv-x="1208" d="M523 996q216 0 374 -180q110 -150 110 -282l-4 -126v-449q0 -114 -182 -255q-142 -92 -298 -92q-266 0 -440 238q-29 48 -29 60v11q0 29 45 39h8q33 0 63 -81q144 -180 353 -180q252 0 381 233l8 54v226q-200 -184 -378 -184h-30q-194 0 -362 184q-103 145 -103 300 q0 236 209 396q133 88 275 88zM134 523v-18q0 -243 254 -361q69 -21 124 -21h22q238 0 359 254q19 77 19 120v23q0 242 -258 362q-80 19 -124 19h-14q-238 0 -358 -250q-24 -70 -24 -128z" />
<glyph unicode="h" horiz-adv-x="1125" d="M112 1405h12q46 -9 46 -35v-516q179 155 335 155q238 0 381 -226q54 -99 54 -187v-528q0 -35 -49 -43h-1q-35 0 -47 46v503q0 221 -228 318q-55 16 -110 16q-227 0 -319 -240q-16 -52 -16 -166v-434q0 -35 -49 -43h-1q-35 0 -47 46v1285q10 49 39 49z" />
<glyph unicode="i" horiz-adv-x="431" d="M149 1261q50 -13 50 -39v-22q0 -31 -56 -39q-29 0 -40 50q9 50 46 50zM149 1005q50 -13 50 -39v-898q0 -35 -49 -43h-2q-36 0 -46 52v866q7 62 47 62z" />
<glyph unicode="j" horiz-adv-x="656" d="M412 1251q48 -9 48 -48q0 -41 -51 -48q-43 12 -43 37v22q0 26 46 37zM415 1001q45 -9 45 -45v-928q0 -260 -247 -380q-86 -31 -139 -31l-4 4h-26l-3 -4h8q-41 0 -49 58q0 31 58 40q224 0 300 230l8 115v896q0 37 49 45z" />
<glyph unicode="k" horiz-adv-x="1056" d="M116 1410h12q47 -10 47 -36v-793q573 380 656 427h12q39 0 47 -56q0 -29 -109 -87q-290 -196 -319 -201v-33l425 -540l3 -14v1q-9 -49 -47 -49h-7q-31 0 -113 118l-349 434h-22l-177 -113v-400q0 -35 -49 -43h-2q-35 0 -47 46v1289q10 50 39 50z" />
<glyph unicode="l" horiz-adv-x="473" d="M104 1402h12q46 -9 46 -35v-1245h104q29 0 39 -50v2q-8 -49 -47 -49h-146q-37 0 -47 52v1267q6 58 39 58z" />
<glyph unicode="m" horiz-adv-x="1675" d="M109 981q48 -12 48 -37v-89q156 126 290 126q178 0 338 -196q72 133 243 185l81 11q214 0 340 -207q41 -86 41 -164v-548q0 -28 -47 -37h1q-47 8 -47 45v532q0 199 -210 274l-55 8h-39q-168 0 -256 -192q-12 -45 -12 -75v-542q-9 -50 -44 -50h-2q-47 8 -47 41v452 q0 199 -57 252q-85 114 -225 114h-11q-192 0 -270 -205q-12 -49 -12 -125v-488q0 -33 -47 -41h-1q-35 0 -45 50v846q6 60 45 60z" />
<glyph unicode="n" horiz-adv-x="1197" d="M125 998q49 -12 49 -39v-138q197 177 379 177q200 0 355 -167q113 -140 113 -293v-475q0 -28 -48 -38q-48 9 -48 46v418q0 298 -260 394q-63 16 -112 16h-11q-218 0 -336 -224q-32 -70 -32 -216v-392q0 -34 -48 -42h-2q-36 0 -46 52v859q7 62 47 62z" />
<glyph unicode="o" horiz-adv-x="1170" d="M522 993q187 0 339 -142q145 -152 145 -342q0 -272 -258 -428q-111 -56 -215 -56h-30q-194 0 -362 184q-103 145 -103 300q0 236 209 396q133 88 275 88zM137 520v-18q0 -219 210 -338q77 -40 164 -40h22q226 0 346 234q28 74 28 144v18q0 183 -166 306q-98 68 -223 68 q-247 0 -361 -257q-20 -64 -20 -117z" />
<glyph unicode="p" horiz-adv-x="1172" d="M542 995q185 0 336 -141q145 -152 145 -341q0 -271 -257 -426q-111 -56 -214 -56h-30q-166 0 -369 183v-567q0 -27 -52 -38q-30 0 -42 52v819q0 367 346 494q42 13 137 21zM157 524v-19q0 -217 209 -336q77 -40 164 -40h22q226 0 345 233q28 74 28 143v19q0 182 -165 305 q-99 68 -223 68q-246 0 -359 -257q-21 -64 -21 -116z" />
<glyph unicode="q" horiz-adv-x="1178" d="M525 985q185 0 337 -140q143 -140 143 -373v-815q-12 -52 -42 -52q-52 11 -52 38v565q-199 -183 -375 -183h-29q-193 0 -360 183q-102 144 -102 297q0 234 207 393q132 87 273 87zM142 516v-18q0 -217 209 -335q76 -40 163 -40h22q225 0 344 232q28 74 28 143v18 q0 181 -165 304q-98 68 -222 68q-245 0 -358 -256q-21 -63 -21 -116z" />
<glyph unicode="r" horiz-adv-x="925" d="M146 1006q50 -13 50 -39v-139q200 178 378 178q96 0 201 -45q19 -20 19 -39v-2q-8 -48 -46 -48q-103 33 -159 33h-22q-237 0 -347 -245q-24 -66 -24 -148v-444q0 -35 -49 -43h-2q-36 0 -46 52v866q7 63 47 63z" />
<glyph unicode="s" horiz-adv-x="968" d="M420 992q243 0 380 -216l2 -22v-3q0 -37 -51 -45q-33 0 -78 76q-113 109 -253 109q-185 0 -294 -179l-4 -26q0 -74 132 -86q423 -102 459 -115q93 -62 93 -156v-3q0 -139 -212 -260q-91 -41 -196 -41q-212 0 -361 200q-10 16 -10 27v22q0 32 58 38q21 0 80 -85 q108 -100 248 -100q169 0 282 162l9 29v8q0 70 -87 80q-489 109 -514 131q-83 63 -83 151q0 126 191 248q105 56 209 56z" />
<glyph unicode="t" horiz-adv-x="704" d="M245 1365h11q44 -9 44 -34v-355h178l33 4q29 0 42 -52q0 -30 -41 -45l-50 4h-162v-564q0 -159 112 -198l88 -7h42q28 0 37 -47v1q-8 -47 -45 -47h-77q-159 0 -237 175q-13 42 -13 101v586h-99l-55 -4q-40 15 -40 46q8 47 66 47v1l11 -1h117v332q6 57 38 57z" />
<glyph unicode="u" horiz-adv-x="1188" d="M117 1002q49 -12 49 -39v-401q0 -271 157 -366q99 -75 221 -75q234 0 352 241q25 78 25 155v433q10 52 47 52q49 -11 49 -46v-892q0 -29 -48 -39q-48 9 -48 46v96h-39q-156 -142 -327 -142h-26q-221 0 -384 218q-75 116 -75 289v408q7 62 47 62z" />
<glyph unicode="v" horiz-adv-x="1132" d="M72 1004h7q41 0 79 -109l345 -709q371 786 389 805q17 13 30 13q52 -10 52 -46v-4q0 -13 -162 -350l-276 -565q-18 -14 -33 -14h-3q-46 0 -90 128q-363 742 -381 794v12q9 45 43 45z" />
<glyph unicode="w" horiz-adv-x="1416" d="M82 984q47 0 71 -129l187 -574h40q211 672 220 685q19 15 40 18q43 0 62 -103l194 -600h40q204 647 219 681q21 22 36 22q51 -10 51 -45l-288 -896q-19 -18 -37 -18h-3q-47 0 -72 125q-176 534 -176 571h-50l-218 -676q-15 -20 -37 -20h-3q-34 0 -50 49l-274 862 q10 48 48 48z" />
<glyph unicode="x" horiz-adv-x="968" d="M86 981q31 0 94 -96q188 -225 235 -293h27q41 40 309 379q7 6 28 9q46 -11 46 -36v-22q0 -14 -126 -161l-208 -262q334 -402 334 -411v-22q0 -33 -47 -41h-1q-29 0 -76 74l-269 330q-311 -389 -323 -397q-11 -7 -23 -7h-3q-37 0 -45 54q0 18 134 169l200 255l-329 411 l-4 19q9 48 47 48z" />
<glyph unicode="y" horiz-adv-x="913" d="M724 987q46 -9 46 -41v-3q-2 -20 -343 -832q-160 -397 -176 -417q-11 -9 -28 -13q-44 9 -44 34v17q0 8 157 386v13l-332 810v-5q9 47 45 47q40 0 77 -122q227 -537 238 -582h40q279 681 290 694q17 14 30 14z" />
<glyph unicode="z" horiz-adv-x="1018" d="M104 984l11 -1h641l31 4q43 -14 43 -38v-22q0 -13 -79 -99l-565 -709h601q43 -9 43 -41v-12q0 -33 -47 -41h-700q-37 0 -45 55q0 18 145 185l499 628h-548l-55 -4q-41 15 -41 47q8 47 66 47v1z" />
<glyph unicode="{" d="M659 1565h139q48 0 59 -39v-20q0 -28 -46 -39h-142q-97 0 -97 -101v-579q0 -40 -52 -124q55 -62 55 -127v-586q0 -86 98 -86h138q46 -9 46 -43v-15q0 -30 -50 -40h-146q-132 0 -180 147l-4 46v573q0 70 -75 86h-85q-53 11 -53 48q11 51 40 51h61q108 0 108 78v574 q0 147 148 192z" />
<glyph unicode="|" d="M479 1594h6q46 -9 46 -44v-1908q0 -28 -55 -40q-34 0 -45 58v1880q9 54 48 54z" />
<glyph unicode="}" d="M152 1553h154q123 0 174 -138l3 -29v-579q0 -89 111 -89h56q39 -12 39 -42v-15q0 -29 -48 -39h-77q-85 0 -85 -119v-554q0 -109 -138 -162l-40 -4h-147q-48 7 -48 46v2q8 48 42 48h139q96 0 96 85v562q0 76 55 145q-51 74 -51 121v580q0 85 -96 85h-143q-34 0 -42 46 q8 50 46 50z" />
<glyph unicode="~" d="M348 826h24q84 0 202 -79l45 -12h31l93 28q70 -14 70 -70q0 -75 -159 -95h-32q-83 0 -201 80l-46 11h-30l-91 -24h-5q-63 13 -63 62v14q0 52 88 72q35 13 74 13z" />
<glyph unicode="&#xa1;" horiz-adv-x="672" d="M275 1302h14q45 0 63 -46l6 -23q0 -60 -78 -70q-53 0 -64 72q15 67 59 67zM287 1040q43 -7 43 -41v-927q-7 -43 -41 -43h-5q-40 8 -40 38v935q0 31 43 38z" />
<glyph unicode="&#xa2;" horiz-adv-x="1105" d="M747 1362h9q43 -8 43 -41v-7l-123 -360q185 -85 185 -134v-1q-8 -47 -44 -47h-4q-18 0 -105 67l-64 24l-251 -721q70 -23 138 -23q135 0 261 104l20 6h8q33 0 41 -47v-2q0 -57 -216 -140q-74 -14 -110 -14h-29q-46 0 -148 27q-98 -300 -109 -308l-38 -14q-46 11 -46 47 q0 10 111 316q-228 170 -228 408q0 257 247 417q122 59 232 59l59 -4q120 365 130 372q18 16 31 16zM141 499q0 -167 143 -296h31l237 679h-39q-228 0 -345 -239q-27 -81 -27 -144z" />
<glyph unicode="&#xa3;" horiz-adv-x="946" d="M463 1448h39q169 0 285 -155l3 -16q-13 -53 -52 -53q-25 0 -84 66q-75 57 -152 57h-23q-171 0 -241 -201l-4 -54q0 -86 150 -343h244q54 -11 54 -49q-12 -52 -41 -52h-234l8 -54v-48q0 -120 -106 -330l-33 -81h427q23 0 63 92q21 20 38 20q56 -11 56 -53q0 -21 -69 -146 q-16 -14 -34 -14h-568q-38 0 -48 54q0 11 148 333q26 74 26 138l-5 89h-181q-50 10 -50 47q11 54 52 54h114v35q-112 204 -112 310q0 216 227 333q71 21 103 21z" />
<glyph unicode="&#xa4;" d="M229 1022h20q25 0 103 -87q76 43 129 43h24q66 0 141 -43q75 87 95 87h24q43 -13 43 -47v-8q0 -27 -86 -107q42 -80 42 -145q0 -58 -41 -156q85 -68 85 -96v-12q-14 -47 -43 -47h-20q-16 0 -93 80h-22q-64 -36 -137 -36q-48 0 -148 41q-69 -85 -100 -85h-6q-49 10 -49 47 v12q0 30 86 101q-42 84 -42 135v20q0 63 42 147q-86 70 -86 97v16q13 43 39 43zM332 715q0 -118 137 -165h32q129 0 161 146v34q-34 146 -145 146l-14 5q-171 -29 -171 -166z" />
<glyph unicode="&#xa5;" horiz-adv-x="1262" d="M122 1205h166q40 0 49 -54q0 -26 -84 -50q241 -373 320 -482h34q314 455 314 500h-22q-23 14 -23 30v14q13 42 49 42h144q40 0 48 -54q0 -17 -51 -50l-136 -202h119q61 -6 61 -45v-7q0 -32 -47 -41h-199l-140 -212h332q54 -11 54 -45v-4q0 -38 -74 -48v2l-10 1h-380v-434 q0 -29 -52 -41q-45 0 -60 38l4 58v358l-24 21h-361l-30 -4q-53 11 -53 49q0 39 54 49h335q-137 212 -156 212h-188q-45 13 -45 45q0 42 61 48h126q-136 214 -153 215q-34 15 -34 50q0 29 52 41z" />
<glyph unicode="&#xa6;" horiz-adv-x="770" d="M334 1590h6q46 -9 46 -44v-681q0 -35 -50 -44h-2q-38 0 -48 54v661q9 54 48 54zM335 371q51 -13 51 -40v-693q0 -28 -55 -40q-34 0 -45 58v651q7 64 49 64z" />
<glyph unicode="&#xa7;" d="M486 1415h35q153 0 268 -137l2 -12q-6 -38 -29 -38h-19q-10 0 -79 65q-75 48 -158 48q-200 0 -266 -223v-50q0 -172 193 -253q183 -28 226 -76q117 -103 117 -215v-50q0 -105 -151 -234q178 -135 178 -302q0 -190 -181 -300q-81 -40 -155 -40h-12q-170 0 -282 141l-3 15 q0 28 47 35q12 0 67 -56q84 -61 171 -61q179 0 257 189l13 71q0 202 -222 275q-117 14 -162 43q-156 105 -156 247v19q0 145 157 251q-180 143 -180 301v15q0 190 185 296q70 36 139 36zM263 521v-16q0 -150 168 -208l43 -4h24q141 0 200 168l4 43q0 163 -183 216l-43 4 q-148 0 -208 -163z" />
<glyph unicode="&#xa8;" horiz-adv-x="1024" d="M264 1284q58 -14 58 -53q-11 -57 -53 -57q-57 11 -57 52q14 58 52 58zM716 1284q58 -14 58 -53q-11 -57 -53 -57q-57 11 -57 52q14 58 52 58z" />
<glyph unicode="&#xa9;" horiz-adv-x="1674" d="M808 1416q348 0 578 -313q116 -176 116 -385q0 -373 -346 -600q-165 -94 -356 -94q-313 0 -541 270q-149 198 -149 424q0 340 299 571q189 127 399 127zM169 729v-18q0 -337 321 -550q164 -82 318 -82q327 0 537 294q102 165 102 349q0 331 -306 544q-164 91 -314 91h-38 q-293 0 -502 -266q-118 -170 -118 -362zM819 1205q180 0 332 -135q8 -11 8 -24v-8q0 -41 -55 -46h-2q-7 0 -113 76q-102 40 -177 40q-242 0 -366 -248q-25 -71 -25 -134v-27q0 -196 197 -327q102 -52 194 -52q143 0 278 112l20 5q49 -7 49 -46v-8q0 -55 -201 -138 q-91 -21 -146 -21q-283 0 -441 275q-50 110 -50 219q0 254 237 416q116 71 261 71z" />
<glyph unicode="&#xaa;" horiz-adv-x="648" d="M289 1397h32q150 0 228 -168l16 -76l-4 -64v-140l4 -24q-7 -27 -28 -36h-12q-22 0 -36 24v48q-86 -72 -172 -72h-8q-184 0 -248 196q-8 20 -8 60q0 176 196 248zM129 1137q0 -130 156 -172h32q117 0 168 140l4 40q0 118 -132 172l-48 8q-121 0 -176 -136z" />
<glyph unicode="&#xab;" horiz-adv-x="944" d="M481 787l23 -7v-20q0 -11 -179 -220l-36 -49q219 -250 219 -265q-4 -21 -15 -21h-12q-26 19 -237 282l-2 11q0 11 114 142q113 143 131 143l4 4h-10zM737 782q15 -8 15 -18v-4q0 -12 -201 -247l-10 -31q203 -236 211 -252v-12q-3 -17 -15 -17h-4q-18 0 -84 95 q-159 178 -159 192v11q197 249 237 281z" />
<glyph unicode="&#xac;" d="M122 727h710q49 -10 49 -47v-348q0 -32 -53 -43q-53 10 -53 51v281h-639q-57 11 -57 52q12 54 43 54z" />
<glyph unicode="&#xae;" horiz-adv-x="1674" d="M776 1453q351 0 583 -314q117 -177 117 -386q0 -373 -348 -602q-167 -94 -359 -94q-316 0 -545 270q-151 200 -151 426q0 341 301 573q191 127 402 127zM91 775v-18q0 -338 324 -551q164 -82 319 -82q330 0 541 294q103 166 103 350q0 332 -308 546q-165 91 -317 91h-38 q-295 0 -505 -267q-119 -171 -119 -363zM591 1191h186q187 0 245 -191q7 -18 7 -56q0 -134 -166 -224q237 -409 245 -430v1q-9 -24 -20 -24h-15q-18 0 -58 85l-209 360h-187v-419q-4 -26 -17 -26h-19q-16 9 -16 20v874q5 30 24 30zM619 1139v-379h120q177 0 220 114 q17 39 17 81q0 123 -136 174q-21 10 -59 10h-162z" />
<glyph unicode="&#xaf;" horiz-adv-x="806" d="M-37 1751h841q48 -9 48 -45v-10q-9 -47 -42 -47h-847q-38 0 -45 55q13 47 45 47z" />
<glyph unicode="&#xb0;" horiz-adv-x="674" d="M315 1366q-84 0 -144.5 -60t-60.5 -145t60 -144t145 -59t144 59t59 144t-59.5 145t-143.5 60zM314 1417q105 0 178.5 -74t73.5 -179q0 -104 -74.5 -178.5t-179.5 -74.5q-107 0 -179.5 73.5t-72.5 179.5t74 179.5t180 73.5z" />
<glyph unicode="&#xb1;" d="M488 1163h24q26 0 43 -46l-4 -36v-218h247q57 -9 57 -51v-8q0 -37 -49 -51l-24 4h-231v-214l4 -44q0 -33 -58 -46q-35 0 -52 46l4 44v214h-231l-21 -3q-52 13 -52 50v8q0 40 57 51h247v218l-4 33q16 49 43 49zM192 343l43 -4h538l33 4q49 -14 49 -51v-8q0 -34 -43 -51 l-63 4h-498l-60 -4q-46 16 -46 51v8q0 33 47 51z" />
<glyph unicode="&#xb2;" d="M506 1537q95 0 166 -86q37 -56 37 -116q0 -93 -90 -177l-197 -225h264q26 0 32 -33v-2q-5 -34 -34 -34h-343q-33 6 -33 34v2q0 16 33 47l274 313q23 33 23 75q0 90 -93 125q-16 5 -36 5h-5q-86 0 -124 -91q-5 -20 -7 -46q-12 -25 -32 -25h-3q-34 6 -34 32q0 106 101 173 q54 29 101 29z" />
<glyph unicode="&#xb3;" d="M503 1543q80 0 138 -72q32 -44 32 -97v-7q0 -74 -64 -131q93 -67 93 -170q0 -106 -100 -176q-52 -29 -103 -29h-5q-120 0 -187 124q-16 46 -16 82q0 25 38 33q27 0 32 -36q0 -77 81 -122q30 -11 57 -11q81 0 122 84q9 26 9 44v14q0 76 -84 118l-59 13q-18 14 -18 30v2 q0 34 48 34q35 0 74 47q14 30 14 56q0 58 -57 89q-21 11 -47 11q-67 0 -95 -72q-6 -52 -13 -52q-12 -14 -25 -14q-36 8 -36 30v9q0 94 94 149q36 18 77 20z" />
<glyph unicode="&#xb4;" horiz-adv-x="889" d="M491 1389q46 0 55 -65q0 -27 -177 -185q-62 -76 -90 -76h-10q-49 10 -49 47v16q0 23 133 142q106 121 138 121z" />
<glyph unicode="&#xb5;" horiz-adv-x="1180" d="M166 994q48 -12 48 -38v-399q0 -271 157 -364q97 -75 219 -75q234 0 351 240q25 77 25 154v430q10 52 46 52q49 -11 49 -46v-887q0 -29 -49 -39h2q-48 9 -48 46v96h-39q-156 -142 -326 -142h-26q-165 0 -361 177v-564q0 -27 -52 -38q-32 0 -43 55v1281q6 61 47 61z" />
<glyph unicode="&#xb6;" horiz-adv-x="1024" d="M378 1410h459q46 -10 46 -36v-19q0 -35 -49 -43h-34v-1234q-10 -53 -47 -53h-2q-49 8 -49 43v1244h-190v-1238q-8 -49 -47 -49h-2q-49 9 -49 47v699h-36q-172 0 -277 182q-31 69 -31 141q0 186 190 288q57 28 118 28z" />
<glyph unicode="&#xb7;" horiz-adv-x="508" d="M250 721q70 0 91 -85v-18q0 -48 -68 -78q-7 -4 -23 -4h-3q-75 0 -91 96q0 57 71 85q8 4 23 4z" />
<glyph unicode="&#x2219;" horiz-adv-x="508" d="M250 721q70 0 91 -85v-18q0 -48 -68 -78q-7 -4 -23 -4h-3q-75 0 -91 96q0 57 71 85q8 4 23 4z" />
<glyph unicode="&#xb8;" horiz-adv-x="1024" d="M523 12q41 -9 41 -34v-69q104 -69 104 -157q0 -126 -147 -163l-46 3h-54l-52 -3q-37 13 -37 34v12q8 40 38 40h121q91 0 91 77v3q0 61 -79 76q-25 12 -25 29v111q0 32 45 41z" />
<glyph unicode="&#xb9;" d="M535 1564h5q32 -7 32 -31v-611q-6 -34 -34 -34h-1q-34 7 -34 30v564q-48 -16 -63 -16q-22 0 -30 32v9q0 26 72 41z" />
<glyph unicode="&#xba;" horiz-adv-x="718" d="M370 1543q107 0 164 -115q31 -96 31 -177v-38q0 -100 -41 -201q-59 -92 -150 -92h-6q-98 0 -155 105q-36 92 -36 205v5q0 119 42 216q62 92 151 92zM236 1239v-17q0 -114 41 -191q40 -49 90 -49h5q111 0 129 171q5 27 7 80q0 95 -33 182q-41 65 -103 65q-76 0 -111 -83 q-25 -82 -25 -158z" />
<glyph unicode="&#xbb;" horiz-adv-x="944" d="M474 778q18 0 88 -99q155 -174 155 -188v-11q-188 -241 -240 -284h-13q-6 3 -9 9v14q0 16 202 244l8 35q-210 241 -210 254q5 26 19 26zM232 774q15 0 103 -119q138 -155 138 -172q0 -13 -199 -245q-32 -46 -44 -46h-2q-21 4 -21 19q0 16 102 132l118 144 q-209 243 -216 258v14q0 11 21 15z" />
<glyph unicode="&#xbc;" horiz-adv-x="1470" d="M1160 1417h12q35 0 43 -49v-2q0 -25 -120 -164q-96 -134 -899 -1168q-15 -9 -30 -9q-46 13 -46 40v23q0 14 140 185q812 1061 875 1136q11 8 25 8zM296 1409q8 0 17 -15l-3 -50v-656l3 -31q-6 -19 -20 -19q-11 0 -17 11v710l-93 -21h-10q-11 6 -11 16q0 27 110 44 q0 6 24 11zM1130 804q12 0 20 -17l-3 -33v-444h112q13 0 16 -22q-7 -16 -20 -16h-108v-235q-7 -12 -15 -12q-23 5 -23 21v226h-360q-16 3 -16 13v10q330 425 380 498q7 11 17 11zM1068 672l-274 -362h315v362h-41z" />
<glyph unicode="&#xbd;" horiz-adv-x="1492" d="M1147 1412h11q35 0 43 -49v-2q0 -25 -120 -163q-95 -133 -895 -1164q-15 -9 -30 -9q-46 13 -46 39v23q0 14 139 186q810 1056 873 1131q11 8 25 8zM285 1404q8 0 17 -15l-3 -50v-654l4 -30q-7 -20 -21 -20q-10 0 -17 12v708l-92 -22h-10q-11 6 -11 17q0 26 110 43 q0 6 23 11zM1054 790q152 0 216 -167l3 -33v-40q0 -87 -148 -230l-223 -258h354l11 3q18 -6 18 -4v-16q-3 -16 -13 -16h-417q-13 0 -17 22q0 3 175 194q219 242 219 280l4 27v39q-37 162 -180 162q-125 0 -181 -141q0 -51 -13 -56h-11q-10 0 -17 18q0 139 157 206z" />
<glyph unicode="&#xbe;" horiz-adv-x="1541" d="M343 1413q107 0 164 -114q13 -30 13 -54v-22q0 -72 -89 -158q123 -86 123 -201q0 -158 -176 -216l-49 -4h-6q-148 0 -209 176l-4 49q0 5 12 12h12q16 0 20 -63q52 -137 172 -137h12q131 0 176 152l4 33q0 129 -150 182q-47 0 -47 21q5 19 36 19q96 0 127 128v29 q0 89 -120 131h-26q-103 0 -142 -119v-32q-6 -11 -13 -11h-9q-15 3 -15 12v8q0 125 142 175zM1243 1405h12q34 0 43 -49v-1q0 -25 -120 -163q-95 -133 -891 -1158q-15 -9 -29 -9q-46 13 -46 39v23q0 14 138 185q806 1051 869 1125q11 8 24 8zM1213 798q12 0 20 -17l-3 -33 v-441h111q13 0 16 -21q-7 -16 -19 -16h-108v-233q-7 -12 -15 -12q-22 4 -22 20v225h-358q-16 3 -16 13v10q328 421 377 493q8 12 17 12zM1152 666l-272 -359h313v359h-41z" />
<glyph unicode="&#xbf;" horiz-adv-x="977" d="M416 1055h11q60 0 73 -80q-14 -73 -77 -73h-4q-63 0 -76 75v-1q15 79 73 79zM414 750q52 -9 52 -47v-7q0 -242 -235 -380q-108 -102 -108 -242q0 -181 188 -279q71 -25 123 -25q179 0 275 175q23 39 36 145q23 27 41 27q53 -13 53 -47q0 -197 -195 -337 q-108 -60 -210 -60q-202 0 -334 175q-74 105 -74 233q0 230 235 372q112 101 112 272q19 25 41 25z" />
<glyph unicode="&#xc0;" horiz-adv-x="1220" d="M452 1761h7q33 0 114 -116q54 -58 54 -76q-9 -53 -46 -53h-16q-24 0 -121 136q-39 33 -39 63q13 46 47 46zM535 1413q49 0 78 -122q458 -1189 461 -1214v-9q0 -35 -49 -43h-2q-46 0 -70 111l-178 460h-476l-213 -557q-17 -14 -32 -14h-5q-49 9 -49 47l127 343 q339 880 366 972q23 26 42 26zM518 1175l-178 -481h387v34l-171 447h-38z" />
<glyph unicode="&#xc1;" horiz-adv-x="1212" d="M597 1753h1q49 -10 49 -39v-15q0 -22 -74 -101q-58 -89 -89 -89h-12q-34 0 -42 49v2q0 27 111 151q27 42 56 42zM533 1407q48 0 77 -122q456 -1184 459 -1208v-9q0 -35 -49 -43h-1q-47 0 -71 110l-176 459h-475l-211 -555q-17 -14 -32 -14h-5q-49 9 -49 47v-1l126 342 q338 876 365 969q22 25 42 25zM516 1170l-178 -479h385v34l-170 445h-37z" />
<glyph unicode="&#xc2;" horiz-adv-x="1212" d="M525 1746h30q23 0 106 -112q54 -58 54 -82v-1q-7 -49 -47 -49h-7q-33 0 -108 113h-30q-80 -113 -107 -113h-11q-37 0 -47 52q0 22 112 149q29 43 55 43zM533 1407q48 0 77 -122q456 -1184 459 -1208v-9q0 -35 -49 -43h-1q-47 0 -71 110l-176 459h-475l-211 -555 q-17 -14 -32 -14h-5q-49 9 -49 47v-1l126 342q338 876 365 969q22 25 42 25zM516 1170l-178 -479h385v34l-170 445h-37z" />
<glyph unicode="&#xc3;" horiz-adv-x="1216" d="M429 1670q70 0 178 -70l44 -5l78 23h1q49 -8 49 -47v-4q0 -49 -102 -65l-36 -4q-70 0 -171 71l-41 5l-82 -22q-49 9 -49 45v8q0 50 118 62zM533 1407q48 0 77 -122q456 -1184 459 -1208v-9q0 -35 -49 -43h-1q-47 0 -71 110l-176 459h-475l-211 -555q-17 -14 -32 -14h-5 q-49 9 -49 47v-1l126 342q338 876 365 969q22 25 42 25zM516 1170l-178 -479h385v34l-170 445h-37z" />
<glyph unicode="&#xc4;" horiz-adv-x="1225" d="M389 1659h5q46 -10 46 -39v-11q0 -39 -51 -47q-46 10 -46 47v11q0 29 46 39zM672 1659h15q31 0 39 -56q0 -29 -51 -40q-46 8 -46 42v15q12 39 43 39zM533 1407q48 0 77 -122q456 -1184 459 -1208v-9q0 -35 -49 -43h-1q-47 0 -71 110l-176 459h-475l-211 -555 q-17 -14 -32 -14h-5q-49 9 -49 47v-1l126 342q338 876 365 969q22 25 42 25zM516 1170l-178 -479h385v34l-170 445h-37z" />
<glyph unicode="&#xc5;" horiz-adv-x="1219" d="M531 1807h14q103 0 149 -128l4 -33v-10q0 -101 -122 -150l-40 -7q-96 0 -150 100q-16 36 -16 68q0 110 129 156zM437 1643q17 -96 99 -96q95 16 95 93v13q-15 87 -89 87h-12q-78 0 -93 -97zM534 1411q49 0 78 -122q457 -1188 460 -1212v-9q0 -35 -49 -43h-2 q-46 0 -70 110l-177 460h-476l-212 -556q-17 -14 -32 -14h-5q-49 9 -49 47l126 342q339 879 366 971q23 26 42 26zM517 1173l-178 -480h386v34l-170 446h-38z" />
<glyph unicode="&#xc6;" horiz-adv-x="1565" d="M755 1410h595q26 0 38 -48q-9 -49 -50 -49h-525v-618h412q47 -10 47 -36v-19q0 -35 -49 -43h-410v-474h529q37 0 47 -53q0 -34 -54 -45h-572q-37 0 -47 53v519h-314q-29 -35 -176 -309l-142 -249q-16 -14 -33 -14h-4q-38 0 -47 57q0 13 239 432l491 882q17 14 25 14z M451 695h265v473z" />
<glyph unicode="&#xc7;" horiz-adv-x="1399" d="M688 1407q215 0 386 -127q12 -15 12 -28q-9 -51 -49 -51q-11 0 -124 61q-125 46 -225 46q-276 0 -476 -252q-101 -168 -101 -329q0 -322 302 -511q134 -70 268 -70h11q169 0 333 102l11 2h3q47 -8 47 -45v-4q0 -74 -272 -142l-88 -9v-110q112 -74 112 -169 q0 -136 -159 -175l-49 4h-57l-56 -4q-41 14 -41 38v13q9 44 42 44h130q95 0 95 80v4q0 63 -84 79q-27 13 -27 32v164q-162 15 -326 116q-293 227 -293 561q0 353 323 576q171 104 352 104z" />
<glyph unicode="&#xc8;" horiz-adv-x="1039" d="M72 1405l-9 2h746l15 4q40 0 48 -57q-10 -44 -58 -44h-717v-560h480l53 3q30 0 42 -53q0 -30 -41 -48l-69 4h-465v-534h736q31 0 38 -52q-13 -45 -42 -45h-780q-49 9 -49 47v1286q7 49 72 49v-2zM330 1804h8q32 0 113 -116q54 -58 54 -76q-9 -53 -46 -53h-15 q-25 0 -122 136q-39 33 -39 62q14 47 47 47z" />
<glyph unicode="&#xc9;" d="M72 1405l-9 2h746l15 4q40 0 48 -57q-10 -44 -58 -44h-717v-560h480l53 3q30 0 42 -53q0 -30 -41 -48l-69 4h-465v-534h736q31 0 38 -52q-13 -45 -42 -45h-780q-49 9 -49 47v1286q7 49 72 49v-2zM451 1804h2q52 -10 52 -51q0 -22 -85 -116q-54 -78 -75 -78h-22 q-31 0 -40 57q0 16 113 145q29 43 55 43z" />
<glyph unicode="&#xca;" d="M72 1405l-9 2h746l15 4q40 0 48 -57q-10 -44 -58 -44h-717v-560h480l53 3q30 0 42 -53q0 -30 -41 -48l-69 4h-465v-534h736q31 0 38 -52q-13 -45 -42 -45h-780q-49 9 -49 47v1286q7 49 72 49v-2zM439 1762h16q32 0 97 -93q71 -78 71 -93v-12q-9 -46 -36 -46h-26 q-20 0 -118 131q-90 -131 -113 -131h-26q-27 0 -36 46v12q0 22 147 181z" />
<glyph unicode="&#xcb;" horiz-adv-x="1027" d="M72 1405l-9 2h746l15 4q40 0 48 -57q-10 -44 -58 -44h-717v-560h480l53 3q30 0 42 -53q0 -30 -41 -48l-69 4h-465v-534h736q31 0 38 -52q-13 -45 -42 -45h-780q-49 9 -49 47v1286q7 49 72 49v-2zM284 1679h5q46 -10 46 -39v-11q0 -39 -50 -47q-47 10 -47 47v11 q0 29 46 39zM568 1679h15q32 0 40 -56q0 -29 -52 -41q-46 8 -46 43v15q12 39 43 39z" />
<glyph unicode="&#xcc;" horiz-adv-x="657" d="M196 1793q29 0 100 -100q65 -71 65 -95q-10 -52 -50 -52q-32 0 -86 80q-81 91 -81 106v22q0 29 52 39zM158 1405l14 -3h146l12 3q50 -11 50 -48q-9 -52 -47 -52h-40v-1183h48q29 0 39 -50v2q-9 -49 -47 -49h-174q-49 9 -49 47q10 50 39 50h48v1183h-40q-41 0 -47 55v3 q0 27 48 42z" />
<glyph unicode="&#xcd;" horiz-adv-x="657" d="M349 1803h2q52 -10 52 -51q0 -22 -85 -116q-54 -78 -75 -78h-22q-31 0 -39 57q0 16 112 145q29 43 55 43zM188 1409l15 -3h145l13 3q50 -10 50 -47q-9 -53 -47 -53h-40v-1187h48q29 0 39 -49v1q-9 -49 -47 -49h-175q-49 9 -49 47v1q10 49 39 49h48v1187h-40q-41 0 -47 55 v3q0 28 48 42z" />
<glyph unicode="&#xce;" horiz-adv-x="657" d="M260 1758h30q35 0 117 -119q51 -53 51 -73q-9 -53 -47 -53h-7q-34 0 -95 94l-40 32q-82 -126 -115 -126h-5q-49 8 -49 47v4q0 26 108 146q33 48 52 48zM193 1410l15 -3h146l12 3q50 -11 50 -48q-9 -53 -46 -53h-40v-1187h47q29 0 39 -48q-8 -49 -46 -49h-176 q-49 9 -49 47v1q10 49 40 49h47v1187h-40q-41 0 -47 56v3q0 27 48 42z" />
<glyph unicode="&#xcf;" horiz-adv-x="657" d="M119 1658h12q46 -9 46 -35v-19q0 -34 -47 -43q-50 10 -50 48q11 49 39 49zM412 1658h5q46 -10 46 -39v-11q0 -39 -50 -47q-47 10 -47 47v11q0 29 46 39zM188 1405l15 -3h145l13 3q49 -10 49 -48q-9 -52 -46 -52h-40v-1183h47q29 0 39 -49v1q-8 -49 -46 -49h-175 q-49 9 -49 47q10 50 39 50h48v1183h-40q-41 0 -47 55v3q0 27 48 42z" />
<glyph unicode="&#xd0;" horiz-adv-x="1275" d="M447 1405q318 0 547 -279q138 -189 138 -415q0 -360 -338 -592q-173 -94 -345 -94h-252q-34 0 -46 46v609h-105q-46 10 -46 43v15q0 29 50 39h101v575q10 50 39 50h223zM247 1309v-532h306q48 -9 48 -43v-9q-9 -45 -43 -45h-311v-558h180q378 0 552 345q56 118 56 248 q0 320 -297 514q-127 80 -394 80h-97z" />
<glyph unicode="&#xd1;" horiz-adv-x="1288" d="M432 1676q68 0 177 -71l46 -5l72 23h6q49 -7 49 -47v-4q0 -49 -103 -65l-36 -4q-70 0 -171 71l-42 4l-82 -21q-49 9 -49 46v7q0 50 118 62zM39 1407h15q31 0 59 -56l848 -1089h41v1100q9 45 43 45h11q35 0 43 -48v-1285q-9 -49 -47 -49h-4q-37 0 -96 95l-855 1090v-1142 q0 -35 -48 -43h-2q-35 0 -47 46v1287q10 49 39 49z" />
<glyph unicode="&#xd2;" horiz-adv-x="1519" d="M621 1796h22q21 0 83 -85q76 -85 76 -106q-10 -52 -50 -52h-3q-33 0 -102 104q-65 64 -65 90q11 49 39 49zM689 1402q348 0 583 -323q105 -183 105 -369q0 -344 -312 -573q-177 -112 -369 -112h-15q-354 0 -580 331q-101 166 -101 361q0 329 290 555q189 130 399 130z M96 706q0 -285 251 -478q157 -107 334 -107h19q278 0 470 247q111 159 111 346q0 322 -294 509q-144 83 -298 83q-294 0 -486 -255q-107 -153 -107 -345z" />
<glyph unicode="&#xd3;" horiz-adv-x="1532" d="M743 1801h12q50 -10 50 -46q0 -29 -120 -159q-19 -38 -55 -38t-46 52q0 25 104 137q34 54 55 54zM691 1406q349 0 585 -324q105 -183 105 -370q0 -345 -313 -574q-177 -113 -370 -113h-15q-355 0 -582 332q-101 167 -101 362q0 330 291 556q189 131 400 131zM97 708 q0 -286 251 -479q157 -107 335 -107h19q279 0 472 247q110 159 110 347q0 322 -294 510q-145 83 -299 83q-295 0 -487 -255q-107 -154 -107 -346z" />
<glyph unicode="&#xd4;" horiz-adv-x="1523" d="M673 1778h31q22 0 104 -112q55 -58 55 -81v-2q-8 -48 -47 -48h-7q-33 0 -107 112h-30q-80 -112 -107 -112h-12q-36 0 -46 52q0 22 111 148q30 43 55 43zM689 1402q348 0 583 -323q105 -183 105 -369q0 -344 -312 -573q-177 -112 -369 -112h-15q-354 0 -580 331 q-101 166 -101 361q0 329 290 555q189 130 399 130zM96 706q0 -285 251 -478q157 -107 334 -107h19q278 0 470 247q111 159 111 346q0 322 -294 509q-144 83 -298 83q-294 0 -486 -255q-107 -153 -107 -345z" />
<glyph unicode="&#xd5;" horiz-adv-x="1528" d="M565 1747h18q64 0 156 -61l37 -10h25l73 22q49 -9 49 -49q0 -54 -120 -69h-24q-63 0 -156 62l-37 9h-24l-72 -19h-1q-46 9 -46 43v11q0 37 65 51q27 10 57 10zM689 1402q348 0 583 -323q105 -183 105 -369q0 -344 -312 -573q-177 -112 -369 -112h-15q-354 0 -580 331 q-101 166 -101 361q0 329 290 555q189 130 399 130zM96 706q0 -285 251 -478q157 -107 334 -107h19q278 0 470 247q111 159 111 346q0 322 -294 509q-144 83 -298 83q-294 0 -486 -255q-107 -153 -107 -345z" />
<glyph unicode="&#xd6;" horiz-adv-x="1540" d="M485 1681q29 0 40 -50q-11 -51 -42 -51q-54 12 -54 39v23q0 31 56 39zM911 1681q29 0 40 -50q-11 -51 -43 -51q-53 12 -53 39v23q0 31 56 39zM691 1406q349 0 585 -324q105 -183 105 -370q0 -345 -313 -574q-177 -113 -370 -113h-15q-355 0 -582 332q-101 167 -101 362 q0 330 291 556q189 131 400 131zM97 708q0 -286 251 -479q157 -107 335 -107h19q279 0 472 247q110 159 110 347q0 322 -294 510q-145 83 -299 83q-295 0 -487 -255q-107 -154 -107 -346z" />
<glyph unicode="&#xd7;" d="M283 913h15q36 0 135 -118l62 -54q169 172 181 172h39q40 0 56 -69q0 -44 -155 -180l-13 -13v-26q163 -148 163 -174l4 -16q-16 -71 -70 -71q-39 0 -140 118l-68 60q-153 -173 -194 -173h-20q-56 17 -56 51v24q0 35 93 112l80 86q-173 170 -173 181v27q13 63 61 63z" />
<glyph unicode="&#xd8;" horiz-adv-x="1561" d="M688 1401q258 0 493 -207q159 162 179 162h5q49 -12 49 -46v-7q0 -30 -97 -105l-75 -76q134 -205 134 -413q0 -343 -311 -572q-177 -112 -369 -112h-15q-224 0 -428 154h-21q-154 -150 -166 -150l-19 -4h-1q-38 0 -46 56q0 22 120 122q4 10 56 47q-176 224 -176 467 q0 328 290 554q189 130 398 130zM96 706q0 -204 151 -385l849 798v27q-195 159 -408 159q-293 0 -485 -254q-107 -154 -107 -345zM310 252q188 -131 371 -131h18q279 0 471 247q110 158 110 345q0 159 -96 329h-29z" />
<glyph unicode="&#xd9;" horiz-adv-x="1103" d="M422 1794q32 0 118 -122q47 -46 47 -71v-8q0 -37 -53 -46q-30 0 -111 115q-54 56 -54 78v8q0 35 53 46zM39 1403h12q46 -9 46 -36v-802q0 -273 158 -368q97 -75 221 -75q236 0 354 242q25 75 25 156v834q9 49 43 49h9q45 -9 45 -43v-878q0 -212 -205 -372 q-129 -85 -260 -85h-26q-222 0 -386 219q-75 117 -75 291v818q10 50 39 50z" />
<glyph unicode="&#xda;" horiz-adv-x="1107" d="M537 1794q50 -10 50 -46v-8q0 -25 -90 -120q-46 -73 -75 -73q-53 11 -53 46v8q0 26 89 121q46 72 79 72zM39 1403h12q46 -9 46 -36v-802q0 -273 158 -368q97 -75 221 -75q236 0 354 242q25 75 25 156v834q9 49 43 49h9q45 -9 45 -43v-878q0 -212 -205 -372 q-129 -85 -260 -85h-26q-222 0 -386 219q-75 117 -75 291v818q10 50 39 50z" />
<glyph unicode="&#xdb;" horiz-adv-x="1124" d="M490 1771h7q36 0 117 -115q55 -57 55 -80q-12 -50 -40 -50h-19q-28 0 -89 91q-1 0 -3 4l-15 15h-26q-85 -102 -86 -102l-23 -8h-15q-34 0 -43 49v2q0 28 132 172q0 17 48 22zM39 1408h12q46 -9 46 -35v-806q0 -274 159 -369q98 -76 222 -76q237 0 356 243q25 76 25 157 v838q8 48 43 48h9q45 -9 45 -43v-881q0 -213 -206 -373q-129 -86 -261 -86h-26q-223 0 -388 220q-75 117 -75 292v822q10 49 39 49z" />
<glyph unicode="&#xdc;" horiz-adv-x="1128" d="M330 1666h5q46 -10 46 -40v-11q0 -39 -50 -47q-47 10 -47 47v11q0 30 46 40zM614 1666h15q31 0 40 -57q0 -29 -52 -41q-46 9 -46 43v15q12 40 43 40zM39 1408h12q46 -9 46 -35v-806q0 -274 159 -369q98 -76 222 -76q237 0 356 243q25 76 25 157v838q8 48 43 48h9 q45 -9 45 -43v-881q0 -213 -206 -373q-129 -86 -261 -86h-26q-223 0 -388 220q-75 117 -75 292v822q10 49 39 49z" />
<glyph unicode="&#xdd;" horiz-adv-x="1107" d="M39 1408h16q32 0 56 -59l354 -529h31q377 569 388 578q14 10 20 10h23q26 0 39 -50q0 -21 -125 -192l-311 -464v-618q-7 -59 -39 -59h-16q-31 0 -43 40v617q0 22 -164 265l-266 400l-2 13q11 48 39 48zM573 1772h1q53 -10 53 -50q0 -23 -86 -117q-54 -78 -74 -78h-23 q-31 0 -39 57q0 16 111 145q31 43 57 43z" />
<glyph unicode="&#xde;" horiz-adv-x="1100" d="M59 1411h13q46 -9 46 -36v-305h415q279 0 370 -241q18 -56 18 -102v-18q0 -183 -180 -297q-93 -46 -157 -46l-26 4h-440v-302q0 -35 -49 -43h-2q-37 0 -47 53v1274q6 59 39 59zM118 972v-504h460q181 0 241 205l4 46q0 173 -184 241q-48 12 -117 12h-404z" />
<glyph unicode="&#xdf;" horiz-adv-x="1061" d="M354 1400h41q165 0 283 -157q63 -95 63 -203q0 -83 -60 -207v-44q0 -47 129 -191q84 -103 84 -220v-15q0 -204 -210 -310q-63 -28 -132 -28h-3q-171 0 -276 141l-2 16q11 47 46 47h7q23 0 74 -57q79 -51 154 -51q172 0 238 187l8 57v9q0 106 -115 227q-102 105 -102 203 q0 52 51 166q9 22 9 59v33q0 134 -148 217q-50 25 -116 25q-184 0 -254 -203l-7 -112v-914q0 -34 -48 -43h-2q-36 0 -46 52v937q0 266 250 362q48 17 84 17z" />
<glyph unicode="&#xe0;" horiz-adv-x="1147" d="M475 1360h21q20 0 127 -140q23 -25 23 -42v-8q0 -35 -50 -44q-29 0 -80 78q-79 88 -79 101v15q0 29 38 40zM504 974q269 0 426 -264q48 -106 48 -221v-423q0 -33 -46 -41h-2q-30 0 -44 35v-2l3 91v62q-195 -186 -371 -186h-29q-241 0 -401 243q-59 116 -59 235 q0 265 260 419q111 52 215 52zM121 507v-11q0 -232 234 -351q74 -28 134 -28h29q195 0 321 194q47 93 47 178v14q0 225 -222 343q-78 36 -160 36h-4q-236 0 -355 -246q-24 -76 -24 -129z" />
<glyph unicode="&#xe1;" horiz-adv-x="1114" d="M566 1364q51 -12 51 -44v-7q0 -21 -75 -106q-53 -81 -93 -81h-4q-26 0 -37 47v5q0 23 107 144q32 42 51 42zM475 974q269 0 426 -264q48 -106 48 -221v-423q0 -33 -46 -41h-2q-30 0 -44 35v-2l3 91v62q-195 -186 -371 -186h-29q-241 0 -401 243q-59 116 -59 235 q0 265 260 419q111 52 215 52zM92 507v-11q0 -232 234 -351q74 -28 134 -28h29q195 0 321 194q47 93 47 178v14q0 225 -222 343q-78 36 -160 36h-4q-236 0 -355 -246q-24 -76 -24 -129z" />
<glyph unicode="&#xe2;" horiz-adv-x="1140" d="M460 1367l3 -3h22l4 3q30 0 96 -97q65 -69 65 -92q-9 -50 -48 -50q-35 0 -98 95l-10 15h-35q-70 -110 -105 -110q-50 10 -50 48q0 27 98 132q38 59 58 59zM477 979q271 0 429 -265q48 -107 48 -223v-425q0 -33 -47 -41h-1q-31 0 -45 35v-2l4 91v63q-197 -187 -373 -187 h-30q-242 0 -403 244q-59 117 -59 237q0 266 262 421q111 52 215 52zM93 509v-11q0 -233 235 -352q74 -28 134 -28h30q196 0 322 196q47 92 47 177v15q0 225 -223 344q-78 36 -161 36h-4q-237 0 -356 -247q-24 -76 -24 -130z" />
<glyph unicode="&#xe3;" horiz-adv-x="1122" d="M383 1329h19q62 0 152 -61l36 -9h25l71 21q48 -9 48 -48q0 -52 -117 -67h-24q-61 0 -152 61l-36 9h-25l-70 -18h-2q-43 9 -43 41v11q0 35 63 50q27 10 55 10zM479 983q272 0 430 -267q49 -107 49 -223v-427q0 -33 -47 -41h-2q-30 0 -44 35v-1l3 92v63 q-197 -189 -374 -189h-30q-243 0 -404 246q-60 117 -60 237q0 267 263 423q112 52 216 52zM93 511v-11q0 -234 236 -354q76 -28 135 -28h30q197 0 323 196q48 94 48 179v15q0 226 -224 345q-78 37 -162 37h-4q-238 0 -357 -248q-25 -77 -25 -131z" />
<glyph unicode="&#xe4;" horiz-adv-x="1136" d="M333 1221h5q44 -10 44 -37v-11q0 -37 -48 -45q-45 9 -45 45v11q0 27 44 37zM609 1221h15q29 0 37 -54q0 -27 -49 -39q-44 8 -44 41v14q12 38 41 38zM477 979q271 0 429 -265q48 -107 48 -223v-425q0 -33 -47 -41h-1q-31 0 -45 35v-2l4 91v63q-197 -187 -373 -187h-30 q-242 0 -403 244q-59 117 -59 237q0 266 262 421q111 52 215 52zM93 509v-11q0 -233 235 -352q74 -28 134 -28h30q196 0 322 196q47 92 47 177v15q0 225 -223 344q-78 36 -161 36h-4q-237 0 -356 -247q-24 -76 -24 -130z" />
<glyph unicode="&#xe5;" horiz-adv-x="1131" d="M493 1422q89 0 142 -96q15 -33 15 -66q0 -105 -124 -150l-32 -4h-13q-100 0 -144 124l-4 31v10q0 106 131 148zM397 1268v-19q23 -79 84 -79h14q78 0 91 94q-16 95 -96 95q-93 -16 -93 -91zM477 979q271 0 429 -265q48 -107 48 -223v-425q0 -33 -47 -41h-1q-31 0 -45 35 v-2l4 91v63q-197 -187 -373 -187h-30q-242 0 -403 244q-59 117 -59 237q0 266 262 421q111 52 215 52zM93 509v-11q0 -233 235 -352q74 -28 134 -28h30q196 0 322 196q47 92 47 177v15q0 225 -223 344q-78 36 -161 36h-4q-237 0 -356 -247q-24 -76 -24 -130z" />
<glyph unicode="&#xe6;" horiz-adv-x="1961" d="M475 979q250 0 418 -245h31q93 159 270 220q80 21 143 21q265 0 420 -257q51 -107 51 -200v-45q-8 -46 -44 -46h-792v-33q41 -133 150 -207q102 -66 211 -66q94 0 205 56l10 2q49 -12 49 -48q0 -71 -219 -102l-50 -4q-181 0 -378 182v-138q0 -39 -52 -44h-3q-21 0 -37 37 l4 83v70q-196 -186 -372 -186h-29q-242 0 -402 243q-59 116 -59 235q0 266 261 420q111 52 214 52zM92 511v-11q0 -232 234 -351q76 -28 135 -28h29q195 0 321 195q47 92 47 177v14q0 225 -222 344q-78 36 -161 36h-3q-237 0 -356 -246q-24 -77 -24 -130zM961 519h748v29 q0 106 -125 238q-120 93 -251 93q-200 0 -324 -187q-48 -89 -48 -173z" />
<glyph unicode="&#xe7;" horiz-adv-x="986" d="M482 971q183 0 329 -136q6 -10 6 -21v-1q-8 -46 -44 -46h-4q-18 0 -103 65q-88 44 -173 44h-22q-227 0 -343 -237q-27 -81 -27 -144q0 -231 237 -351q72 -27 151 -27q135 0 260 104l20 5h8q32 0 40 -46v-2q0 -57 -214 -139l-95 -13v-83q109 -72 109 -165 q0 -133 -155 -171l-48 4h-57l-54 -4q-40 14 -40 37v12q9 43 41 43h127q94 0 94 79v4q0 61 -82 78q-27 13 -27 31v138q-106 15 -232 100q-175 157 -175 369q0 231 205 387q130 86 268 86z" />
<glyph unicode="&#xe8;" horiz-adv-x="1127" d="M473 979q276 0 429 -262q52 -102 52 -222v-17q-9 -50 -45 -50h-807q57 -188 210 -271q90 -35 169 -35q90 0 200 55h14q43 -9 43 -41v-11q0 -69 -241 -100h-24q-256 0 -410 241q-63 113 -63 236q0 262 247 418q121 59 226 59zM97 521h757q0 108 -94 236q-130 122 -257 122 h-41q-189 0 -310 -184q-43 -74 -55 -174zM444 1356h22q20 0 128 -141q23 -25 23 -42v-8q0 -36 -50 -44q-30 0 -81 78q-79 88 -79 102v14q0 30 37 41z" />
<glyph unicode="&#xe9;" horiz-adv-x="1118" d="M473 979q276 0 429 -262q52 -102 52 -222v-17q-9 -50 -45 -50h-807q57 -188 210 -271q90 -35 169 -35q90 0 200 55h14q43 -9 43 -41v-11q0 -69 -241 -100h-24q-256 0 -410 241q-63 113 -63 236q0 262 247 418q121 59 226 59zM97 521h757q0 108 -94 236q-130 122 -257 122 h-41q-189 0 -310 -184q-43 -74 -55 -174zM566 1360q51 -12 51 -45v-7q0 -20 -76 -106q-53 -81 -93 -81h-4q-27 0 -37 47v5q0 24 107 145q32 42 52 42z" />
<glyph unicode="&#xea;" horiz-adv-x="1144" d="M473 979q276 0 429 -262q52 -102 52 -222v-17q-9 -50 -45 -50h-807q57 -188 210 -271q90 -35 169 -35q90 0 200 55h14q43 -9 43 -41v-11q0 -69 -241 -100h-24q-256 0 -410 241q-63 113 -63 236q0 262 247 418q121 59 226 59zM97 521h757q0 108 -94 236q-130 122 -257 122 h-41q-189 0 -310 -184q-43 -74 -55 -174zM460 1367l3 -3h22l4 3q30 0 96 -97q65 -69 65 -92q-9 -50 -48 -50q-35 0 -98 95l-10 15h-35q-70 -110 -105 -110q-50 10 -50 48q0 27 98 132q38 59 58 59z" />
<glyph unicode="&#xeb;" horiz-adv-x="1122" d="M333 1218h5q43 -10 43 -37v-11q0 -37 -48 -45q-44 9 -44 45v11q0 27 44 37zM607 1218h15q29 0 37 -54q0 -27 -49 -38q-43 7 -43 40v15q11 37 40 37zM472 977q275 0 428 -261q52 -102 52 -222v-17q-9 -50 -45 -50h-805q57 -188 209 -271q90 -35 169 -35q90 0 199 55h14 q43 -9 43 -41v-11q0 -68 -240 -99h-24q-255 0 -410 240q-62 113 -62 236q0 261 247 417q120 59 225 59zM97 520h755q0 108 -94 235q-129 122 -257 122h-40q-188 0 -310 -184q-42 -73 -54 -173z" />
<glyph unicode="&#xec;" horiz-adv-x="514" d="M118 1319h21q20 0 128 -141q23 -26 23 -43v-7q0 -36 -50 -45q-30 0 -81 78q-79 89 -79 102v15q0 29 38 41zM209 978q48 -12 48 -37v-875q0 -33 -47 -41h-1q-35 0 -45 50v843q6 60 45 60z" />
<glyph unicode="&#xed;" horiz-adv-x="514" d="M279 1328q52 -12 52 -45v-7q0 -21 -76 -107q-54 -82 -94 -82h-4q-27 0 -37 48v5q0 23 108 145q32 43 51 43zM210 982q47 -12 47 -37v-879q0 -33 -46 -41h-2q-35 0 -45 51v846q6 60 46 60z" />
<glyph unicode="&#xee;" horiz-adv-x="514" d="M189 1323l4 -3h22l3 3q29 0 96 -98q65 -70 65 -92q-9 -51 -49 -51q-34 0 -99 99l-15 11h-29q-71 -110 -106 -110q-51 10 -51 49q0 26 98 132q39 60 61 60zM205 987q48 -12 48 -38v-882q0 -34 -47 -42h-1q-36 0 -46 51v850q6 61 46 61z" />
<glyph unicode="&#xef;" horiz-adv-x="514" d="M209 983q48 -12 48 -38v-879q0 -33 -47 -41h-2q-35 0 -45 51v846q6 61 46 61zM64 1248h5q44 -10 44 -38v-11q0 -37 -48 -45q-45 9 -45 45v11q0 28 44 38zM341 1248h14q30 0 38 -55q0 -27 -50 -39q-43 8 -43 41v15q12 38 41 38z" />
<glyph unicode="&#xf0;" horiz-adv-x="1118" d="M723 1378h4q44 -9 44 -41v-14q0 -31 -169 -117v-26l283 -435q69 -117 69 -243q0 -268 -254 -421q-110 -56 -212 -56h-29q-192 0 -358 182q-101 142 -101 295q0 232 206 390q132 87 270 87l129 -14v39l-95 144q-146 -93 -165 -93h-15q-28 0 -37 47v1q0 34 97 81l71 43 q-51 77 -51 88v15q11 37 41 37h15q22 0 76 -89q164 100 181 100zM97 513v-18q0 -215 207 -334q76 -39 162 -39h22q223 0 342 231q27 74 27 142v18q0 151 -137 283q-108 86 -247 86q-244 0 -356 -254q-20 -63 -20 -115z" />
<glyph unicode="&#xf1;" horiz-adv-x="1108" d="M374 1336h18q62 0 150 -60l37 -10h26l70 21q47 -9 47 -47q0 -52 -116 -66h-24q-61 0 -151 60l-36 9h-24l-70 -18h-2q-43 9 -43 41v11q0 35 63 49q27 10 55 10zM45 977q48 -12 48 -37v-136q194 173 372 173q195 0 347 -163q111 -137 111 -287v-465q0 -28 -47 -37h1 q-47 8 -47 45v409q0 292 -255 386q-62 16 -110 16h-11q-214 0 -329 -219q-32 -69 -32 -212v-384q0 -33 -47 -41h-1q-35 0 -45 50v842q6 60 45 60z" />
<glyph unicode="&#xf2;" horiz-adv-x="1118" d="M477 979q184 0 334 -140q143 -149 143 -337q0 -268 -254 -421q-110 -56 -212 -56h-29q-192 0 -358 182q-101 142 -101 295q0 232 206 390q132 87 271 87zM97 513v-18q0 -215 207 -334q76 -39 162 -39h22q223 0 342 231q27 74 27 142v18q0 179 -163 302q-98 67 -221 67 q-244 0 -356 -254q-20 -63 -20 -115zM448 1367h22q19 0 127 -141q24 -25 24 -42v-8q0 -36 -51 -44q-29 0 -80 78q-80 88 -80 102v14q0 29 38 41z" />
<glyph unicode="&#xf3;" horiz-adv-x="1118" d="M566 1364q51 -12 51 -44v-7q0 -21 -75 -106q-53 -81 -93 -81h-4q-26 0 -37 47v5q0 23 107 144q32 42 51 42zM475 974q182 0 332 -139q142 -149 142 -335q0 -267 -253 -420q-109 -55 -211 -55h-29q-190 0 -355 181q-101 142 -101 294q0 231 205 388q131 86 270 86zM96 510 v-18q0 -213 206 -332q76 -39 162 -39h21q223 0 341 230q27 74 27 141v18q0 180 -163 301q-97 67 -219 67q-243 0 -355 -253q-20 -63 -20 -115z" />
<glyph unicode="&#xf4;" horiz-adv-x="1118" d="M459 1360l4 -3h22l3 3q28 0 94 -96q64 -69 64 -92q-8 -50 -48 -50q-33 0 -96 97l-14 13h-31q-70 -110 -103 -110q-51 10 -51 48q0 27 97 131q37 59 59 59zM475 974q182 0 332 -139q142 -149 142 -335q0 -267 -253 -420q-109 -55 -211 -55h-29q-190 0 -355 181 q-101 142 -101 294q0 231 205 388q131 86 270 86zM96 510v-18q0 -213 206 -332q76 -39 162 -39h21q223 0 341 230q27 74 27 141v18q0 180 -163 301q-97 67 -219 67q-243 0 -355 -253q-20 -63 -20 -115z" />
<glyph unicode="&#xf5;" horiz-adv-x="1118" d="M477 979q184 0 334 -140q143 -149 143 -337q0 -268 -254 -421q-110 -56 -212 -56h-29q-192 0 -358 182q-101 142 -101 295q0 232 206 390q132 87 271 87zM97 513v-18q0 -215 207 -334q76 -39 162 -39h22q223 0 342 231q27 74 27 142v18q0 179 -163 302q-98 67 -221 67 q-244 0 -356 -254q-20 -63 -20 -115zM382 1323h18q62 0 151 -60l37 -9h25l70 21q47 -9 47 -47q0 -53 -116 -67h-23q-61 0 -151 60l-37 10h-24l-70 -19h-2q-43 9 -43 41v11q0 35 62 49q27 10 56 10z" />
<glyph unicode="&#xf6;" horiz-adv-x="1114" d="M332 1215h5q43 -10 43 -37v-11q0 -37 -48 -45q-44 9 -44 45v11q0 27 44 37zM606 1215h14q29 0 37 -54q0 -27 -49 -38q-43 7 -43 40v14q12 38 41 38zM475 974q182 0 332 -139q142 -149 142 -335q0 -267 -253 -420q-109 -55 -211 -55h-29q-190 0 -355 181 q-101 142 -101 294q0 231 205 388q131 86 270 86zM96 510v-18q0 -213 206 -332q76 -39 162 -39h21q223 0 341 230q27 74 27 141v18q0 180 -163 301q-97 67 -219 67q-243 0 -355 -253q-20 -63 -20 -115z" />
<glyph unicode="&#xf7;" d="M497 1107h4q72 0 87 -77v-11q-17 -78 -75 -78h-7q-84 9 -84 83v5q19 78 75 78zM203 775h604q53 -10 53 -51v-12q0 -30 -50 -43h-611q-49 10 -49 47v16q0 32 53 43zM504 503h5q66 0 79 -89v-2q0 -61 -83 -78q-83 17 -83 74v20q0 56 82 75z" />
<glyph unicode="&#xf8;" horiz-adv-x="1169" d="M938 987h4q36 0 44 -54q0 -16 -111 -123q122 -149 122 -311q0 -267 -253 -419q-108 -55 -210 -55h-29q-129 0 -289 111q-88 -107 -115 -107h-14q-29 0 -37 53q0 17 106 119q-106 146 -106 298q0 230 205 387q130 86 269 86q138 0 288 -99q93 114 126 114zM146 509v-18 q0 -96 60 -207h30l504 521q-102 71 -220 71q-243 0 -354 -252q-20 -63 -20 -115zM809 744l-526 -545q127 -78 230 -78h21q222 0 340 229q27 74 27 141v18q0 117 -92 235z" />
<glyph unicode="&#xf9;" horiz-adv-x="1109" d="M447 1364h21q20 0 128 -141q23 -25 23 -42v-8q0 -36 -50 -44q-30 0 -81 78q-79 88 -79 102v14q0 29 38 41zM45 977q48 -12 48 -38v-391q0 -265 153 -357q96 -73 215 -73q230 0 345 235q24 76 24 151v422q10 51 45 51q47 -12 47 -45v-870q0 -28 -47 -37h1q-46 8 -46 44v95 h-39q-153 -139 -319 -139h-25q-215 0 -374 212q-73 113 -73 282v397q6 61 45 61z" />
<glyph unicode="&#xfa;" horiz-adv-x="1105" d="M571 1374q51 -11 51 -44v-8q0 -20 -76 -106q-54 -82 -94 -82h-3q-27 0 -38 48v4q0 24 108 146q32 42 52 42zM45 981q48 -12 48 -37v-393q0 -266 154 -359q96 -74 217 -74q230 0 346 237q24 76 24 152v424q10 50 45 50q48 -11 48 -44v-875q0 -28 -47 -37h1q-47 8 -47 45 v95h-39q-153 -140 -320 -140h-26q-216 0 -376 213q-73 114 -73 284v399q6 60 45 60z" />
<glyph unicode="&#xfb;" horiz-adv-x="1114" d="M463 1378l4 -4h27l3 4q26 0 93 -98q65 -70 65 -93q-8 -51 -49 -51q-34 0 -99 98l-13 13h-31q-71 -111 -105 -111q-52 10 -52 49q0 27 99 133q38 60 58 60zM46 987q48 -12 48 -38v-395q0 -268 155 -361q96 -74 217 -74q232 0 348 237q24 77 24 153v426q10 52 46 52 q48 -12 48 -46v-878q0 -29 -47 -38q-47 9 -47 45v95h-39q-154 -140 -322 -140h-26q-217 0 -377 214q-74 114 -74 285v402q6 61 46 61z" />
<glyph unicode="&#xfc;" horiz-adv-x="1109" d="M333 1219h5q44 -10 44 -37v-11q0 -37 -48 -45q-45 9 -45 45v11q0 27 44 37zM608 1219h14q30 0 38 -54q0 -27 -50 -39q-43 8 -43 41v14q12 38 41 38zM45 977q48 -12 48 -37v-391q0 -266 153 -358q96 -73 216 -73q229 0 344 235q24 76 24 152v421q10 51 46 51 q47 -11 47 -44v-871q0 -28 -47 -37h1q-47 8 -47 45v94h-38q-153 -139 -320 -139h-25q-215 0 -374 212q-73 113 -73 282v398q6 60 45 60z" />
<glyph unicode="&#xfd;" horiz-adv-x="990" d="M589 1381q51 -12 51 -45v-7q0 -21 -76 -106q-54 -82 -93 -82h-4q-27 0 -37 48v4q0 24 108 145q31 43 51 43zM776 992q51 -10 51 -45v-1q-3 -22 -361 -876q-169 -417 -186 -440q-12 -9 -29 -13q-49 10 -49 36v19q0 8 165 405v14l-348 850v-4q10 51 48 51q44 0 83 -129 q238 -565 249 -611h41q293 715 305 729q17 15 31 15z" />
<glyph unicode="&#xfe;" horiz-adv-x="1131" d="M48 1369h11q44 -9 44 -34v-541q196 188 386 188q185 0 335 -140q144 -150 144 -339q0 -269 -256 -423q-109 -56 -212 -56h-29q-166 0 -368 182v-563q0 -27 -51 -38q-31 0 -42 54v1653q6 57 38 57zM107 514v-18q0 -215 208 -335q76 -39 163 -39h22q224 0 343 232 q28 73 28 142v18q0 181 -165 304q-98 67 -221 67q-245 0 -357 -255q-21 -63 -21 -116z" />
<glyph unicode="&#xff;" horiz-adv-x="990" d="M280 1216h5q44 -10 44 -37v-11q0 -37 -48 -45q-45 9 -45 45v11q0 27 44 37zM554 1216h15q29 0 37 -54q0 -27 -49 -38q-43 7 -43 40v14q12 38 40 38zM764 975q50 -10 50 -45v-1q-3 -22 -359 -872q-168 -415 -185 -438q-11 -9 -30 -13q-48 10 -48 36v18q0 8 165 404v14 l-347 846v-3q10 50 48 50q44 0 82 -129q237 -562 248 -608h41q292 712 304 726q16 15 31 15z" />
<glyph unicode="&#x100;" horiz-adv-x="1184" d="M531 1403q49 0 78 -121q454 -1181 457 -1205v-9q0 -35 -48 -43h-2q-46 0 -70 110l-176 457h-474l-210 -553q-17 -14 -32 -14h-6q-48 9 -48 46l126 341q336 874 363 965q23 26 42 26zM514 1167l-177 -478h384v34l-169 444h-38zM117 1672h842q47 -9 47 -45v-10 q-9 -47 -42 -47h-847q-38 0 -45 55q13 47 45 47z" />
<glyph unicode="&#x101;" horiz-adv-x="1199" d="M529 998q276 0 437 -271q49 -108 49 -227v-433q0 -34 -48 -42h-2q-31 0 -46 36v-2l4 93v63q-200 -190 -380 -190h-29q-247 0 -412 249q-60 119 -60 241q0 271 267 430q113 53 220 53zM138 519v-11q0 -238 239 -359q77 -28 137 -28h29q200 0 329 199q47 94 47 180v15 q0 230 -226 351q-80 36 -164 36h-4q-242 0 -363 -251q-24 -78 -24 -132zM119 1272h842q47 -9 47 -45v-10q-9 -47 -42 -47h-847q-38 0 -45 55q13 47 45 47z" />
<glyph unicode="&#x102;" horiz-adv-x="1202" d="M325 1781h12q35 0 62 -72q63 -72 142 -72q119 0 169 123q20 21 39 21h6q53 -9 53 -51v-4q0 -69 -143 -170q-68 -25 -120 -25h-8q-176 0 -259 184v16q10 50 47 50zM531 1403q49 0 78 -121q454 -1181 457 -1205v-9q0 -35 -48 -43h-2q-46 0 -70 110l-176 457h-474l-210 -553 q-17 -14 -32 -14h-6q-48 9 -48 46l126 341q336 874 363 965q23 26 42 26zM514 1167l-177 -478h384v34l-169 444h-38z" />
<glyph unicode="&#x103;" horiz-adv-x="1118" d="M281 1389h12q35 0 62 -72q63 -72 142 -72q119 0 169 123q20 21 39 21h6q53 -9 53 -51v-4q0 -69 -143 -170q-68 -25 -120 -25h-8q-176 0 -259 184v16q10 50 47 50zM487 998q276 0 437 -271q49 -108 49 -227v-433q0 -34 -48 -42h-2q-31 0 -46 36v-2l4 93v63 q-200 -190 -380 -190h-29q-247 0 -412 249q-60 119 -60 241q0 271 267 430q113 53 220 53zM96 519v-11q0 -238 239 -359q77 -28 137 -28h29q200 0 329 199q47 94 47 180v15q0 230 -226 351q-80 36 -164 36h-4q-242 0 -363 -251q-24 -78 -24 -132z" />
<glyph unicode="&#x104;" horiz-adv-x="1338" d="M547 1412q48 0 76 -112q478 -1245 478 -1264l4 -27v-93q0 -43 -67 -53q-48 -28 -48 -74v-8q0 -64 81 -74h145q50 -9 50 -48v-1q-10 -51 -40 -51h-161q-127 0 -172 142l-6 42q0 96 119 172v36q-17 72 -215 586h-483l-215 -565q-17 -14 -32 -14h-6q-50 9 -50 48v-1l128 348 q344 892 371 985q24 26 43 26zM530 1171l-180 -487h391v34l-173 453h-38z" />
<glyph unicode="&#x105;" horiz-adv-x="1241" d="M492 982q278 0 439 -271q50 -110 50 -228v-566q0 -40 -75 -56q-38 -27 -38 -60v-22q15 -67 81 -67h143q37 0 46 -49q-11 -47 -39 -47h-157q-125 0 -170 141l-4 41q0 92 118 166l2 154v78q-200 -190 -381 -190h-30q-248 0 -412 250q-61 119 -61 242q0 272 268 431 q114 53 220 53zM100 501v-11q0 -238 240 -360q77 -28 137 -28h30q201 0 330 199q48 95 48 182v15q0 230 -228 351q-80 37 -165 37h-3q-243 0 -364 -252q-25 -78 -25 -133z" />
<glyph unicode="&#x106;" horiz-adv-x="1251" d="M808 1838q46 0 55 -65q0 -27 -177 -185q-62 -76 -90 -76h-10q-49 10 -49 47v16q0 23 133 142q106 121 138 121zM689 1411q215 0 397 -128q9 -18 9 -28v-8q0 -41 -55 -47h3l-128 66q-138 44 -226 44q-281 0 -486 -257q-102 -172 -102 -335q0 -329 308 -521 q137 -71 273 -71h11q173 0 343 106h13q46 -10 46 -43v-11q0 -61 -235 -131q-76 -22 -159 -22h-19q-342 0 -573 318q-109 183 -109 375q0 360 329 587q175 106 360 106z" />
<glyph unicode="&#x107;" horiz-adv-x="973" d="M597 1442q46 0 55 -65q0 -27 -177 -185q-62 -76 -90 -76h-10q-49 10 -49 47v16q0 23 133 142q106 121 138 121zM488 1001q188 0 340 -140q6 -10 6 -22v-2q-9 -48 -46 -48h-4q-19 0 -107 67q-90 46 -178 46h-22q-234 0 -353 -244q-28 -83 -28 -149q0 -237 244 -360 q74 -28 156 -28q138 0 266 107l21 5h9q34 0 42 -48v-1q0 -60 -222 -145q-76 -14 -113 -14h-30q-196 0 -365 186q-104 146 -104 302q0 238 211 400q134 88 277 88z" />
<glyph unicode="&#x108;" horiz-adv-x="1254" d="M647 1789h28q35 0 117 -119q58 -58 58 -84v-9q-10 -50 -47 -50h-12q-32 0 -115 120h-30q-83 -120 -115 -120h-9q-50 10 -50 47v12q0 28 115 153q32 50 60 50zM689 1411q215 0 397 -128q9 -18 9 -28v-8q0 -41 -55 -47h3l-128 66q-138 44 -226 44q-281 0 -486 -257 q-102 -172 -102 -335q0 -329 308 -521q137 -71 273 -71h11q173 0 343 106h13q46 -10 46 -43v-11q0 -61 -235 -131q-76 -22 -159 -22h-19q-342 0 -573 318q-109 183 -109 375q0 360 329 587q175 106 360 106z" />
<glyph unicode="&#x109;" horiz-adv-x="982" d="M484 1424h28q35 0 117 -119q58 -58 58 -84v-9q-10 -50 -47 -50h-12q-32 0 -115 120h-30q-83 -120 -115 -120h-9q-50 10 -50 47v12q0 28 115 153q32 50 60 50zM488 1001q188 0 340 -140q6 -10 6 -22v-2q-9 -48 -46 -48h-4q-19 0 -107 67q-90 46 -178 46h-22 q-234 0 -353 -244q-28 -83 -28 -149q0 -237 244 -360q74 -28 156 -28q138 0 266 107l21 5h9q34 0 42 -48v-1q0 -60 -222 -145q-76 -14 -113 -14h-30q-196 0 -365 186q-104 146 -104 302q0 238 211 400q134 88 277 88z" />
<glyph unicode="&#x10a;" horiz-adv-x="1259" d="M694 1755q70 0 91 -85v-18q0 -48 -68 -78q-7 -4 -23 -4h-3q-75 0 -91 96q0 57 71 85q8 4 23 4zM689 1411q215 0 397 -128q9 -18 9 -28v-8q0 -41 -55 -47h3l-128 66q-138 44 -226 44q-281 0 -486 -257q-102 -172 -102 -335q0 -329 308 -521q137 -71 273 -71h11 q173 0 343 106h13q46 -10 46 -43v-11q0 -61 -235 -131q-76 -22 -159 -22h-19q-342 0 -573 318q-109 183 -109 375q0 360 329 587q175 106 360 106z" />
<glyph unicode="&#x10b;" horiz-adv-x="973" d="M509 1354q70 0 91 -85v-18q0 -48 -68 -78q-7 -4 -23 -4h-3q-75 0 -91 96q0 57 71 85q8 4 23 4zM488 1001q188 0 340 -140q6 -10 6 -22v-2q-9 -48 -46 -48h-4q-19 0 -107 67q-90 46 -178 46h-22q-234 0 -353 -244q-28 -83 -28 -149q0 -237 244 -360q74 -28 156 -28 q138 0 266 107l21 5h9q34 0 42 -48v-1q0 -60 -222 -145q-76 -14 -113 -14h-30q-196 0 -365 186q-104 146 -104 302q0 238 211 400q134 88 277 88z" />
<glyph unicode="&#x10c;" horiz-adv-x="1241" d="M531 1788h12q32 0 115 -120h30q83 120 115 120h9q50 -10 50 -47v-12q0 -25 -91 -124q-53 -79 -84 -79h-28q-34 0 -113 115q-62 62 -62 88v9q10 50 47 50zM689 1411q215 0 397 -128q9 -18 9 -28v-8q0 -41 -55 -47h3l-128 66q-138 44 -226 44q-281 0 -486 -257 q-102 -172 -102 -335q0 -329 308 -521q137 -71 273 -71h11q173 0 343 106h13q46 -10 46 -43v-11q0 -61 -235 -131q-76 -22 -159 -22h-19q-342 0 -573 318q-109 183 -109 375q0 360 329 587q175 106 360 106z" />
<glyph unicode="&#x10d;" horiz-adv-x="990" d="M338 1414h12q32 0 115 -120h30q83 120 115 120h9q50 -10 50 -47v-12q0 -25 -91 -124q-53 -79 -84 -79h-28q-34 0 -113 115q-62 62 -62 88v9q10 50 47 50zM488 1001q188 0 340 -140q6 -10 6 -22v-2q-9 -48 -46 -48h-4q-19 0 -107 67q-90 46 -178 46h-22q-234 0 -353 -244 q-28 -83 -28 -149q0 -237 244 -360q74 -28 156 -28q138 0 266 107l21 5h9q34 0 42 -48v-1q0 -60 -222 -145q-76 -14 -113 -14h-30q-196 0 -365 186q-104 146 -104 302q0 238 211 400q134 88 277 88z" />
<glyph unicode="&#x10e;" horiz-adv-x="1162" d="M297 1793h12q32 0 115 -120h30q83 120 115 120h9q50 -10 50 -47v-12q0 -25 -91 -124q-53 -79 -84 -79h-28q-34 0 -113 115q-62 62 -62 88v9q10 50 47 50zM72 1410l-9 2h197l42 4q310 0 541 -272q146 -190 146 -431q0 -332 -293 -560q-185 -128 -391 -128h-256 q-49 9 -49 47v1291q7 49 72 49v-2zM98 1318v-1195h188q376 0 558 364q47 124 47 237q0 273 -240 474q-150 120 -441 120h-112z" />
<glyph unicode="&#x10f;" horiz-adv-x="1343" d="M1129 1489h28q61 0 87 -213v-18q0 -117 -133 -227q-21 -12 -25 -12q-6 2 -8 6q60 144 60 241v12q0 69 -48 151v10q10 50 39 50zM923 1407h12q46 -9 46 -36v-748l4 -128q0 -140 -115 -294q-163 -176 -366 -176h-30q-198 0 -369 187q-105 148 -105 306q0 239 213 403 q135 89 280 89q187 0 395 -186v484l-4 56q14 43 39 43zM97 529v-19q0 -247 258 -367q70 -21 126 -21h23q241 0 364 258q20 79 20 122v23q0 246 -263 368q-80 20 -125 20h-15q-241 0 -363 -253q-25 -73 -25 -131z" />
<glyph unicode="&#x110;" horiz-adv-x="1303" d="M185 822v541q7 49 72 49v-2l-9 2h197l42 4q310 0 541 -272q146 -190 146 -431q0 -332 -293 -560q-185 -128 -391 -128h-256q-49 9 -49 47v648h-75l-59 -4q-47 17 -47 53q9 53 47 53h134zM283 822h209l36 4q35 0 50 -58q0 -35 -47 -52l-55 4h-193v-597h188q376 0 558 364 q47 124 47 237q0 273 -240 474q-150 120 -441 120h-112v-496z" />
<glyph unicode="&#x111;" horiz-adv-x="1343" d="M128 529v-19q0 -247 258 -367q70 -21 126 -21h23q241 0 364 258q20 79 20 122v23q0 246 -263 368q-80 20 -125 20h-15q-241 0 -363 -253q-25 -73 -25 -131zM921 1284l-6 80q14 43 39 43h12q46 -9 46 -36v-87h153l36 4q35 0 50 -58q0 -35 -47 -52l-55 4h-137v-559l4 -128 q0 -140 -115 -294q-163 -176 -366 -176h-30q-198 0 -369 187q-105 148 -105 306q0 239 213 403q135 89 280 89q187 0 395 -186v358h-136l-59 -4q-47 17 -47 53q9 53 72 53v1l14 -1h158z" />
<glyph unicode="&#x112;" horiz-adv-x="1100" d="M60 1702h841q48 -9 48 -45v-10q-9 -47 -42 -47h-847q-38 0 -45 55q13 47 45 47zM129 1405l-9 2h746l15 4q40 0 47 -57q-9 -44 -57 -44h-717v-560h479l53 3q31 0 43 -53q0 -30 -41 -48l-70 4h-464v-534h736q30 0 38 -52q-13 -45 -42 -45h-780q-49 9 -49 47v1286 q7 49 72 49v-2z" />
<glyph unicode="&#x113;" horiz-adv-x="1105" d="M473 979q276 0 429 -262q52 -102 52 -222v-17q-9 -50 -45 -50h-807q57 -188 210 -271q90 -35 169 -35q90 0 200 55h14q43 -9 43 -41v-11q0 -69 -241 -100h-24q-256 0 -410 241q-63 113 -63 236q0 262 247 418q121 59 226 59zM97 521h757q0 108 -94 236q-130 122 -257 122 h-41q-189 0 -310 -184q-43 -74 -55 -174zM60 1293h842q47 -9 47 -45v-10q-9 -47 -42 -47h-847q-38 0 -45 55q13 47 45 47z" />
<glyph unicode="&#x114;" horiz-adv-x="1052" d="M107 1405l-9 2h746l15 4q40 0 48 -57q-10 -44 -58 -44h-717v-560h480l53 3q30 0 42 -53q0 -30 -41 -48l-69 4h-465v-534h736q31 0 38 -52q-13 -45 -42 -45h-780q-49 9 -49 47v1286q7 49 72 49v-2zM267 1799h12q35 0 62 -72q63 -72 142 -72q119 0 169 123q20 21 39 21h6 q53 -9 53 -51v-4q0 -69 -143 -170q-68 -25 -120 -25h-8q-176 0 -259 184v16q10 50 47 50z" />
<glyph unicode="&#x115;" horiz-adv-x="1101" d="M482 979q276 0 429 -262q52 -102 52 -222v-17q-9 -50 -45 -50h-807q57 -188 210 -271q90 -35 169 -35q90 0 200 55h14q43 -9 43 -41v-11q0 -69 -241 -100h-24q-256 0 -410 241q-63 113 -63 236q0 262 247 418q121 59 226 59zM106 521h757q0 108 -94 236 q-130 122 -257 122h-41q-189 0 -310 -184q-43 -74 -55 -174zM276 1411h12q35 0 62 -72q63 -72 142 -72q119 0 169 123q20 21 39 21h6q53 -9 53 -51v-4q0 -69 -143 -170q-68 -25 -120 -25h-8q-176 0 -259 184v16q10 50 47 50z" />
<glyph unicode="&#x116;" horiz-adv-x="1070" d="M103 1405l-9 2h746l15 4q40 0 48 -57q-10 -44 -58 -44h-717v-560h480l53 3q30 0 42 -53q0 -30 -41 -48l-69 4h-465v-534h736q31 0 38 -52q-13 -45 -42 -45h-780q-49 9 -49 47v1286q7 49 72 49v-2zM479 1760q70 0 91 -85v-18q0 -48 -68 -78q-7 -4 -23 -4h-3q-75 0 -91 96 q0 57 71 85q8 4 23 4z" />
<glyph unicode="&#x117;" horiz-adv-x="1105" d="M495 979q276 0 429 -262q52 -102 52 -222v-17q-9 -50 -45 -50h-807q57 -188 210 -271q90 -35 169 -35q90 0 200 55h14q43 -9 43 -41v-11q0 -69 -241 -100h-24q-256 0 -410 241q-63 113 -63 236q0 262 247 418q121 59 226 59zM119 521h757q0 108 -94 236 q-130 122 -257 122h-41q-189 0 -310 -184q-43 -74 -55 -174zM518 1324q70 0 91 -85v-18q0 -48 -68 -78q-7 -4 -23 -4h-3q-75 0 -91 96q0 57 71 85q8 4 23 4z" />
<glyph unicode="&#x118;" horiz-adv-x="1052" d="M589 25h-509q-49 9 -49 47v1286q7 49 72 49v-2l-9 2h746l15 4q40 0 48 -57q-10 -44 -58 -44h-717v-560h480l53 3q30 0 42 -53q0 -30 -41 -48l-69 4h-465v-534h736q31 0 38 -52q-13 -45 -42 -45h-185q6 -35 7 -37v-101q0 -36 -66 -46q-40 -29 -40 -70q0 -78 92 -78h105 l12 3q45 -10 45 -41v-7q0 -29 -35 -42l-69 4h-38l-56 -4q-58 0 -122 81q-21 40 -21 70v28q0 81 106 140v20z" />
<glyph unicode="&#x119;" horiz-adv-x="1122" d="M119 521h757q0 108 -94 236q-130 122 -257 122h-41q-189 0 -310 -184q-43 -74 -55 -174zM520 25h-25q-256 0 -410 241q-63 113 -63 236q0 262 247 418q121 59 226 59q276 0 429 -262q52 -102 52 -222v-17q-9 -50 -45 -50h-807q57 -188 210 -271q90 -35 169 -35 q90 0 200 55h14q43 -9 43 -41v-11q0 -49 -158 -87q10 -30 10 -32v-101q0 -36 -66 -46q-40 -29 -40 -70q0 -78 92 -78h105l12 3q45 -10 45 -41v-7q0 -29 -35 -42l-69 4h-38l-56 -4q-58 0 -122 81q-21 40 -21 70v28q0 81 106 140v20z" />
<glyph unicode="&#x11a;" horiz-adv-x="1065" d="M107 1405l-9 2h746l15 4q40 0 48 -57q-10 -44 -58 -44h-717v-560h480l53 3q30 0 42 -53q0 -30 -41 -48l-69 4h-465v-534h736q31 0 38 -52q-13 -45 -42 -45h-780q-49 9 -49 47v1286q7 49 72 49v-2zM332 1793h12q32 0 115 -120h30q83 120 115 120h9q50 -10 50 -47v-12 q0 -25 -91 -124q-53 -79 -84 -79h-28q-34 0 -113 115q-62 62 -62 88v9q10 50 47 50z" />
<glyph unicode="&#x11b;" horiz-adv-x="1136" d="M517 979q276 0 429 -262q52 -102 52 -222v-17q-9 -50 -45 -50h-807q57 -188 210 -271q90 -35 169 -35q90 0 200 55h14q43 -9 43 -41v-11q0 -69 -241 -100h-24q-256 0 -410 241q-63 113 -63 236q0 262 247 418q121 59 226 59zM141 521h757q0 108 -94 236 q-130 122 -257 122h-41q-189 0 -310 -184q-43 -74 -55 -174zM390 1397h12q32 0 115 -120h30q83 120 115 120h9q50 -10 50 -47v-12q0 -25 -91 -124q-53 -79 -84 -79h-28q-34 0 -113 115q-62 62 -62 88v9q10 50 47 50z" />
<glyph unicode="&#x11c;" horiz-adv-x="1285" d="M682 1811h28q35 0 117 -119q58 -58 58 -84v-9q-10 -50 -47 -50h-12q-32 0 -115 120h-30q-83 -120 -115 -120h-9q-50 10 -50 47v12q0 28 115 153q32 50 60 50zM713 1411q221 0 394 -121q12 -16 12 -31v-4q0 -37 -53 -47q-4 0 -135 62q-93 36 -180 36h-61q-222 0 -423 -213 q-131 -179 -131 -367v-15q0 -307 284 -501q148 -84 297 -84h15q146 0 305 86v384h-296q-48 8 -48 47v1q8 49 46 49h352q35 0 43 -49v-417q0 -76 -32 -92q-188 -110 -363 -110h-22q-342 0 -573 318q-109 179 -109 375q0 348 310 576q190 117 368 117z" />
<glyph unicode="&#x11d;" horiz-adv-x="1167" d="M502 1429h28q35 0 117 -119q58 -58 58 -84v-9q-10 -50 -47 -50h-12q-32 0 -115 120h-30q-83 -120 -115 -120h-9q-50 10 -50 47v12q0 28 115 153q32 50 60 50zM507 996q216 0 374 -180q110 -150 110 -282l-4 -126v-449q0 -114 -182 -255q-142 -92 -298 -92 q-266 0 -440 238q-29 48 -29 60v11q0 29 45 39h8q33 0 63 -81q144 -180 353 -180q252 0 381 233l8 54v226q-200 -184 -378 -184h-30q-194 0 -362 184q-103 145 -103 300q0 236 209 396q133 88 275 88zM118 523v-18q0 -243 254 -361q69 -21 124 -21h22q238 0 359 254 q19 77 19 120v23q0 242 -258 362q-80 19 -124 19h-14q-238 0 -358 -250q-24 -70 -24 -128z" />
<glyph unicode="&#x11e;" horiz-adv-x="1246" d="M465 1782h12q35 0 62 -72q63 -72 142 -72q119 0 169 123q20 21 39 21h6q53 -9 53 -51v-4q0 -69 -143 -170q-68 -25 -120 -25h-8q-176 0 -259 184v16q10 50 47 50zM700 1411q221 0 394 -121q12 -16 12 -31v-4q0 -37 -53 -47q-4 0 -135 62q-93 36 -180 36h-61 q-222 0 -423 -213q-131 -179 -131 -367v-15q0 -307 284 -501q148 -84 297 -84h15q146 0 305 86v384h-296q-48 8 -48 47v1q8 49 46 49h352q35 0 43 -49v-417q0 -76 -32 -92q-188 -110 -363 -110h-22q-342 0 -573 318q-109 179 -109 375q0 348 310 576q190 117 368 117z" />
<glyph unicode="&#x11f;" horiz-adv-x="1140" d="M311 1411h12q35 0 62 -72q63 -72 142 -72q119 0 169 123q20 21 39 21h6q53 -9 53 -51v-4q0 -69 -143 -170q-68 -25 -120 -25h-8q-176 0 -259 184v16q10 50 47 50zM520 996q216 0 374 -180q110 -150 110 -282l-4 -126v-449q0 -114 -182 -255q-142 -92 -298 -92 q-266 0 -440 238q-29 48 -29 60v11q0 29 45 39h8q33 0 63 -81q144 -180 353 -180q252 0 381 233l8 54v226q-200 -184 -378 -184h-30q-194 0 -362 184q-103 145 -103 300q0 236 209 396q133 88 275 88zM131 523v-18q0 -243 254 -361q69 -21 124 -21h22q238 0 359 254 q19 77 19 120v23q0 242 -258 362q-80 19 -124 19h-14q-238 0 -358 -250q-24 -70 -24 -128z" />
<glyph unicode="&#x120;" horiz-adv-x="1272" d="M725 1768q70 0 91 -85v-18q0 -48 -68 -78q-7 -4 -23 -4h-3q-75 0 -91 96q0 57 71 85q8 4 23 4zM704 1411q221 0 394 -121q12 -16 12 -31v-4q0 -37 -53 -47q-4 0 -135 62q-93 36 -180 36h-61q-222 0 -423 -213q-131 -179 -131 -367v-15q0 -307 284 -501q148 -84 297 -84 h15q146 0 305 86v384h-296q-48 8 -48 47v1q8 49 46 49h352q35 0 43 -49v-417q0 -76 -32 -92q-188 -110 -363 -110h-22q-342 0 -573 318q-109 179 -109 375q0 348 310 576q190 117 368 117z" />
<glyph unicode="&#x121;" horiz-adv-x="1149" d="M554 1382q70 0 91 -85v-18q0 -48 -68 -78q-7 -4 -23 -4h-3q-75 0 -91 96q0 57 71 85q8 4 23 4zM529 996q216 0 374 -180q110 -150 110 -282l-4 -126v-449q0 -114 -182 -255q-142 -92 -298 -92q-266 0 -440 238q-29 48 -29 60v11q0 29 45 39h8q33 0 63 -81 q144 -180 353 -180q252 0 381 233l8 54v226q-200 -184 -378 -184h-30q-194 0 -362 184q-103 145 -103 300q0 236 209 396q133 88 275 88zM140 523v-18q0 -243 254 -361q69 -21 124 -21h22q238 0 359 254q19 77 19 120v23q0 242 -258 362q-80 19 -124 19h-14 q-238 0 -358 -250q-24 -70 -24 -128z" />
<glyph unicode="&#x122;" horiz-adv-x="1276" d="M671 26q-319 31 -527 317q-109 179 -109 375q0 348 310 576q190 117 368 117q221 0 394 -121q12 -16 12 -31v-4q0 -37 -53 -47q-4 0 -135 62q-93 36 -180 36h-61q-222 0 -423 -213q-131 -179 -131 -367v-15q0 -307 284 -501q148 -84 297 -84h15q146 0 305 86v384h-296 q-48 8 -48 47v1q8 49 46 49h352q35 0 43 -49v-417q0 -76 -32 -92q-166 -97 -345 -110v-67q104 -69 104 -157q0 -126 -147 -163l-46 3h-54l-52 -3q-37 13 -37 34v12q8 40 38 40h121q91 0 91 77v3q0 61 -79 76q-25 12 -25 29v117z" />
<glyph unicode="&#x123;" horiz-adv-x="1184" d="M612 1643q2 -1 2 -6v-3q-59 -141 -60 -249q0 -67 49 -149l3 -13q0 -41 -61 -53q-72 0 -97 228q0 121 132 233zM542 996q216 0 374 -180q110 -150 110 -282l-4 -126v-449q0 -114 -182 -255q-142 -92 -298 -92q-266 0 -440 238q-29 48 -29 60v11q0 29 45 39h8q33 0 63 -81 q144 -180 353 -180q252 0 381 233l8 54v226q-200 -184 -378 -184h-30q-194 0 -362 184q-103 145 -103 300q0 236 209 396q133 88 275 88zM153 523v-18q0 -243 254 -361q69 -21 124 -21h22q238 0 359 254q19 77 19 120v23q0 242 -258 362q-80 19 -124 19h-14 q-238 0 -358 -250q-24 -70 -24 -128z" />
<glyph unicode="&#x124;" horiz-adv-x="1176" d="M533 1811h28q35 0 117 -119q58 -58 58 -84v-9q-10 -50 -47 -50h-12q-32 0 -115 120h-30q-83 -120 -115 -120h-9q-50 10 -50 47v12q0 28 115 153q32 50 60 50zM79 1408h12q46 -9 46 -35v-623h762v610q8 48 43 48h9q45 -9 45 -43v-1301q0 -29 -50 -39h1q-48 9 -48 47v585 h-762v-589q0 -35 -48 -43h-2q-37 0 -47 53v1271q6 59 39 59z" />
<glyph unicode="&#x125;" horiz-adv-x="1074" d="M493 1727h28q35 0 117 -119q58 -58 58 -84v-9q-10 -50 -47 -50h-12q-32 0 -115 120h-30q-83 -120 -115 -120h-9q-50 10 -50 47v12q0 28 115 153q32 50 60 50zM74 1405h12q46 -9 46 -35v-516q179 155 335 155q238 0 381 -226q54 -99 54 -187v-528q0 -35 -49 -43h-1 q-35 0 -47 46v503q0 221 -228 318q-55 16 -110 16q-227 0 -319 -240q-16 -52 -16 -166v-434q0 -35 -49 -43h-1q-35 0 -47 46v1285q10 49 39 49z" />
<glyph unicode="&#x126;" horiz-adv-x="1303" d="M137 1165v184q6 59 39 59h12q46 -9 46 -35v-208h762v195q8 48 43 48h9q45 -9 45 -43v-200l50 4q58 0 75 -59q0 -30 -63 -51l-62 3v-998q0 -29 -50 -39h1q-48 9 -48 47v585h-762v-589q0 -35 -48 -43h-2q-37 0 -47 53v983l-51 -2q-68 18 -68 52q12 54 95 54v2zM234 1063 v-313h762v313h-762z" />
<glyph unicode="&#x127;" horiz-adv-x="1330" d="M291 1262v94q10 49 39 49h12q46 -9 46 -35v-108h451l36 4q38 0 50 -58q0 -33 -44 -52l-62 4h-431v-306q179 155 335 155q238 0 381 -226q54 -99 54 -187v-528q0 -35 -49 -43h-1q-35 0 -47 46v503q0 221 -228 318q-55 16 -110 16q-227 0 -319 -240q-16 -52 -16 -166v-434 q0 -35 -49 -43h-1q-35 0 -47 46v1089h-154l-59 -4q-47 17 -47 53q9 53 72 53v1l14 -1h174z" />
<glyph unicode="&#x128;" horiz-adv-x="621" d="M170 1714q70 0 178 -70l44 -5l78 23h1q49 -8 49 -47v-4q0 -49 -102 -65l-36 -4q-70 0 -171 71l-41 5l-82 -22q-49 9 -49 45v8q0 50 118 62zM171 1422l15 -2h146l13 2q51 -10 51 -48q-9 -53 -47 -53h-41v-1197h48q30 0 40 -51v1q-9 -49 -47 -49h-178q-49 9 -49 47v1 q10 51 40 51h48v1197h-41q-41 0 -47 56v3q0 28 49 42z" />
<glyph unicode="&#x129;" horiz-adv-x="616" d="M170 1304q70 0 178 -70l44 -5l78 23h1q49 -8 49 -47v-4q0 -49 -102 -65l-36 -4q-70 0 -171 71l-41 5l-82 -22q-49 9 -49 45v8q0 50 118 62zM268 1005q50 -13 50 -39v-898q0 -35 -49 -43h-2q-36 0 -46 52v866q7 62 47 62z" />
<glyph unicode="&#x12a;" horiz-adv-x="683" d="M94 1690l14 -1h402l36 4q35 0 50 -58q0 -35 -47 -52l-55 4h-366l-59 -4q-47 17 -47 53q9 53 72 53v1zM215 1422l15 -2h146l13 2q51 -10 51 -48q-9 -53 -47 -53h-41v-1197h48q30 0 40 -51v1q-9 -49 -47 -49h-178q-49 9 -49 47v1q10 51 40 51h48v1197h-41q-41 0 -47 56v3 q0 28 49 42z" />
<glyph unicode="&#x12b;" horiz-adv-x="744" d="M116 1285l14 -1h402l36 4q35 0 50 -58q0 -35 -47 -52l-55 4h-366l-59 -4q-47 17 -47 53q9 53 72 53v1zM321 1005q50 -13 50 -39v-898q0 -35 -49 -43h-2q-36 0 -46 52v866q7 62 47 62z" />
<glyph unicode="&#x12c;" horiz-adv-x="647" d="M77 1807h12q35 0 62 -72q63 -72 142 -72q119 0 169 123q20 21 39 21h6q53 -9 53 -51v-4q0 -69 -143 -170q-68 -25 -120 -25h-8q-176 0 -259 184v16q10 50 47 50zM201 1422l15 -2h146l13 2q51 -10 51 -48q-9 -53 -47 -53h-41v-1197h48q30 0 40 -51v1q-9 -49 -47 -49h-178 q-49 9 -49 47v1q10 51 40 51h48v1197h-41q-41 0 -47 56v3q0 28 49 42z" />
<glyph unicode="&#x12d;" horiz-adv-x="647" d="M69 1397h12q35 0 62 -72q63 -72 142 -72q119 0 169 123q20 21 39 21h6q53 -9 53 -51v-4q0 -69 -143 -170q-68 -25 -120 -25h-8q-176 0 -259 184v16q10 50 47 50zM268 1005q50 -13 50 -39v-898q0 -35 -49 -43h-2q-36 0 -46 52v866q7 62 47 62z" />
<glyph unicode="&#x12e;" horiz-adv-x="511" d="M169 25h-60q-49 9 -49 47v1q10 51 40 51h48v1197h-41q-41 0 -47 56v3q0 28 49 42l15 -2h146l13 2q51 -10 51 -48q-9 -53 -47 -53h-41v-1197h48q30 0 40 -51v1q-9 -49 -47 -49h-27v-90q0 -36 -66 -46q-40 -29 -40 -70q0 -78 92 -78h105l12 3q45 -10 45 -41v-7 q0 -29 -35 -42l-69 4h-38l-56 -4q-58 0 -122 81q-21 40 -21 70v28q0 81 106 140v21z" />
<glyph unicode="&#x12f;" horiz-adv-x="466" d="M175 1261q50 -13 50 -39v-22q0 -31 -56 -39q-29 0 -40 50q9 50 46 50zM135 55q-5 13 -7 23v865q7 62 47 62q50 -13 50 -39v-898q0 -5 -1 -12q0 -9 1 -12v-99q0 -36 -66 -46q-40 -29 -40 -70q0 -78 92 -78h105l12 3q45 -10 45 -41v-7q0 -29 -35 -42l-69 4h-38l-56 -4 q-58 0 -122 81q-21 40 -21 70v28q0 81 106 140v20z" />
<glyph unicode="&#x130;" horiz-adv-x="462" d="M210 1768q70 0 91 -85v-18q0 -48 -68 -78q-7 -4 -23 -4h-3q-75 0 -91 96q0 57 71 85q8 4 23 4zM109 1422l15 -2h146l13 2q51 -10 51 -48q-9 -53 -47 -53h-41v-1197h48q30 0 40 -51v1q-9 -49 -47 -49h-178q-49 9 -49 47v1q10 51 40 51h48v1197h-41q-41 0 -47 56v3 q0 28 49 42z" />
<glyph unicode="&#x131;" horiz-adv-x="514" d="M288 945h1q24 -5 24 -18v-876q-5 -26 -24 -26h1q-27 5 -27 18v844q-98 -33 -115 -33q-12 0 -18 25v10q0 18 84 35z" />
<glyph unicode="&#x132;" horiz-adv-x="1435" d="M1235 1418h12q34 0 43 -49v-921q0 -225 -212 -362q-99 -57 -203 -57h-19q-207 0 -348 202q-64 106 -64 218q11 50 40 50h15q47 0 47 -94q7 -92 107 -199q99 -79 214 -79q229 0 313 237q12 45 12 88v921q9 45 43 45zM109 1422l15 -2h146l13 2q51 -10 51 -48 q-9 -53 -47 -53h-41v-1197h48q30 0 40 -51v1q-9 -49 -47 -49h-178q-49 9 -49 47v1q10 51 40 51h48v1197h-41q-41 0 -47 56v3q0 28 49 42z" />
<glyph unicode="&#x133;" horiz-adv-x="761" d="M526 1251q48 -9 48 -48q0 -41 -51 -48q-43 12 -43 37v22q0 26 46 37zM529 1001q45 -9 45 -45v-928q0 -260 -247 -380q-86 -31 -139 -31l-4 4h-26l-3 -4h8q-41 0 -49 58q0 31 58 40q224 0 300 230l8 115v896q0 37 49 45zM127 1261q50 -13 50 -39v-22q0 -31 -56 -39 q-29 0 -40 50q9 50 46 50zM127 1005q50 -13 50 -39v-898q0 -35 -49 -43h-2q-36 0 -46 52v866q7 62 47 62z" />
<glyph unicode="&#x134;" horiz-adv-x="1166" d="M836 1785h28q35 0 117 -119q58 -58 58 -84v-9q-10 -50 -47 -50h-12q-32 0 -115 120h-30q-83 -120 -115 -120h-9q-50 10 -50 47v12q0 28 115 153q32 50 60 50zM852 1418h12q34 0 43 -49v-921q0 -225 -212 -362q-99 -57 -203 -57h-19q-207 0 -348 202q-64 106 -64 218 q11 50 40 50h15q47 0 47 -94q7 -92 107 -199q99 -79 214 -79q229 0 313 237q12 45 12 88v921q9 45 43 45z" />
<glyph unicode="&#x135;" horiz-adv-x="810" d="M453 1380h28q35 0 117 -119q58 -58 58 -84v-9q-10 -50 -47 -50h-12q-32 0 -115 120h-30q-83 -120 -115 -120h-9q-50 10 -50 47v12q0 28 115 153q32 50 60 50zM476 1001q45 -9 45 -45v-928q0 -260 -247 -380q-86 -31 -139 -31l-4 4h-26l-3 -4h8q-41 0 -49 58q0 31 58 40 q224 0 300 230l8 115v896q0 37 49 45z" />
<glyph unicode="&#x136;" horiz-adv-x="1104" d="M93 1409h1q49 -8 49 -43v-713q735 734 733 734l27 4h3q45 -9 45 -43v-12q0 -25 -71 -83l-482 -485l543 -672l2 -15v-9q0 -35 -48 -43h-2q-32 0 -105 107l-463 562l-182 -186v-444q0 -35 -49 -43h-1q-37 0 -47 52v1280q10 52 47 52zM546 18q92 -60 92 -148 q0 -126 -147 -163l-46 3h-54l-52 -3q-37 13 -37 34v12q8 40 38 40h121q91 0 91 77v3q0 61 -79 76q-25 12 -25 29q0 41 28 51.5t70 -11.5z" />
<glyph unicode="&#x137;" horiz-adv-x="1026" d="M99 1410h12q47 -10 47 -36v-793q573 380 656 427h12q39 0 47 -56q0 -29 -109 -87q-290 -196 -319 -201v-33l425 -540l3 -14v1q-9 -49 -47 -49h-7q-31 0 -113 118l-349 434h-22l-177 -113v-400q0 -35 -49 -43h-2q-35 0 -47 46v1289q10 50 39 50zM511 27q92 -60 92 -148 q0 -126 -147 -163l-46 3h-54l-52 -3q-37 13 -37 34v12q8 40 38 40h121q91 0 91 77v3q0 61 -79 76q-25 12 -25 29q0 41 28 51.5t70 -11.5z" />
<glyph unicode="&#x138;" horiz-adv-x="1043" d="M118 1048l16 1q34 -9 37 -57v-411q573 380 656 427h12q39 0 47 -56q0 -29 -109 -87q-290 -196 -319 -201v-33l425 -540l3 -14v1q-9 -49 -47 -49h-7q-31 0 -113 118l-349 434h-22l-177 -113v-400q0 -35 -49 -43h-2q-35 0 -47 46v922q9 46 45 55z" />
<glyph unicode="&#x139;" horiz-adv-x="947" d="M473 1799q46 0 55 -65q0 -27 -177 -185q-62 -76 -90 -76h-10q-49 10 -49 47v16q0 23 133 142q106 121 138 121zM70 1408h12q46 -9 46 -35v-1251h642q39 0 46 -52q-13 -45 -46 -45h-692q-37 0 -47 53v1271q6 59 39 59z" />
<glyph unicode="&#x13a;" horiz-adv-x="466" d="M287 1812q46 0 55 -65q0 -27 -177 -185q-62 -76 -90 -76h-10q-49 10 -49 47v16q0 23 133 142q106 121 138 121zM117 1402h12q46 -9 46 -35v-1245h104q29 0 39 -50v2q-8 -49 -47 -49h-146q-37 0 -47 52v1267q6 58 39 58z" />
<glyph unicode="&#x13b;" horiz-adv-x="929" d="M61 1408h12q46 -9 46 -35v-1251h642q39 0 46 -52q-13 -45 -46 -45h-692q-37 0 -47 53v1271q6 59 39 59zM506 -78q92 -60 92 -148q0 -126 -147 -163l-46 3h-54l-52 -3q-37 13 -37 34v12q8 40 38 40h121q91 0 91 77v3q0 61 -79 76q-25 12 -25 29q0 41 28 51.5t70 -11.5z " />
<glyph unicode="&#x13c;" horiz-adv-x="515" d="M166 1402h12q46 -9 46 -35v-1245h104q29 0 39 -50v2q-8 -49 -47 -49h-146q-37 0 -47 52v1267q6 58 39 58zM291 -82q92 -60 92 -148q0 -126 -147 -163l-46 3h-54l-52 -3q-37 13 -37 34v12q8 40 38 40h121q91 0 91 77v3q0 61 -79 76q-25 12 -25 29q0 41 28 51.5t70 -11.5z " />
<glyph unicode="&#x13d;" horiz-adv-x="973" d="M694 1551h28q61 0 87 -213v-18q0 -117 -133 -227q-21 -12 -25 -12q-6 2 -8 6q60 144 60 241v12q0 69 -48 151v10q10 50 39 50zM105 1408h12q46 -9 46 -35v-1251h642q39 0 46 -52q-13 -45 -46 -45h-692q-37 0 -47 53v1271q6 59 39 59z" />
<glyph unicode="&#x13e;" horiz-adv-x="559" d="M347 1542h28q61 0 87 -213v-18q0 -117 -133 -227q-21 -12 -25 -12q-6 2 -8 6q60 144 60 241v12q0 69 -48 151v10q10 50 39 50zM113 1402h12q46 -9 46 -35v-1245h104q29 0 39 -50v2q-8 -49 -47 -49h-146q-37 0 -47 52v1267q6 58 39 58z" />
<glyph unicode="&#x13f;" horiz-adv-x="1004" d="M610 844q70 0 91 -85v-18q0 -48 -68 -78q-7 -4 -23 -4h-3q-75 0 -91 96q0 57 71 85q8 4 23 4zM105 1408h12q46 -9 46 -35v-1251h642q39 0 46 -52q-13 -45 -46 -45h-692q-37 0 -47 53v1271q6 59 39 59z" />
<glyph unicode="&#x140;" horiz-adv-x="665" d="M443 809q70 0 91 -85v-18q0 -48 -68 -78q-7 -4 -23 -4h-3q-75 0 -91 96q0 57 71 85q8 4 23 4zM104 1402h12q46 -9 46 -35v-1245h104q29 0 39 -50v2q-8 -49 -47 -49h-146q-37 0 -47 52v1267q6 58 39 58z" />
<glyph unicode="&#x141;" horiz-adv-x="1079" d="M185 683v666q6 59 39 59h12q46 -9 46 -35v-617q271 198 285 198h20q30 0 43 -50v-9q0 -35 -109 -99l-239 -173v-501h642q39 0 46 -52q-13 -45 -46 -45h-692q-37 0 -47 53v476q-78 -54 -76 -54l-18 -4q-55 11 -55 55q0 43 149 132z" />
<glyph unicode="&#x142;" horiz-adv-x="695" d="M320 723q217 156 228 156h20q30 0 43 -50v-9q0 -35 -109 -99l-182 -132v-467h104q29 0 39 -50v2q-8 -49 -47 -49h-146q-37 0 -47 52v441l-133 -93l-18 -4q-55 11 -55 55t141 127l65 48v693q6 58 39 58h12q46 -9 46 -35v-644z" />
<glyph unicode="&#x143;" horiz-adv-x="1285" d="M799 1733q46 0 55 -65q0 -27 -177 -185q-62 -76 -90 -76h-10q-49 10 -49 47v16q0 23 133 142q106 121 138 121zM74 1406h15q32 0 62 -64q58 -65 830 -1062q-5 0 -5 6l16 -21h41v1096q9 45 43 45h11q35 0 43 -48v-1283q0 -41 -56 -50q-28 0 -110 122l-832 1062v-1137 q0 -35 -49 -43h-1q-37 0 -47 52v1266q6 59 39 59z" />
<glyph unicode="&#x144;" horiz-adv-x="1096" d="M623 1500q46 0 55 -65q0 -27 -177 -185q-62 -76 -90 -76h-10q-49 10 -49 47v16q0 23 133 142q106 121 138 121zM76 977q48 -12 48 -37v-136q194 173 372 173q195 0 347 -163q111 -137 111 -287v-465q0 -28 -47 -37h1q-47 8 -47 45v409q0 292 -255 386q-62 16 -110 16h-11 q-214 0 -329 -219q-32 -69 -32 -212v-384q0 -33 -47 -41h-1q-35 0 -45 50v842q6 60 45 60z" />
<glyph unicode="&#x145;" horiz-adv-x="1307" d="M105 1406h15q32 0 62 -64q58 -65 830 -1062q-5 0 -5 6l16 -21h41v1096q9 45 43 45h11q35 0 43 -48v-1283q0 -41 -56 -50q-28 0 -110 122l-832 1062v-1137q0 -35 -49 -43h-1q-37 0 -47 52v1266q6 59 39 59zM695 27q92 -60 92 -148q0 -126 -147 -163l-46 3h-54l-52 -3 q-37 13 -37 34v12q8 40 38 40h121q91 0 91 77v3q0 61 -79 76q-25 12 -25 29q0 41 28 51.5t70 -11.5z" />
<glyph unicode="&#x146;" horiz-adv-x="1140" d="M554 23q92 -60 92 -148q0 -126 -147 -163l-46 3h-54l-52 -3q-37 13 -37 34v12q8 40 38 40h121q91 0 91 77v3q0 61 -79 76q-25 12 -25 29q0 41 28 51.5t70 -11.5zM80 977q48 -12 48 -37v-136q194 173 372 173q195 0 347 -163q111 -137 111 -287v-465q0 -28 -47 -37h1 q-47 8 -47 45v409q0 292 -255 386q-62 16 -110 16h-11q-214 0 -329 -219q-32 -69 -32 -212v-384q0 -33 -47 -41h-1q-35 0 -45 50v842q6 60 45 60z" />
<glyph unicode="&#x147;" horiz-adv-x="1321" d="M473 1665h12q32 0 115 -120h30q83 120 115 120h9q50 -10 50 -47v-12q0 -25 -91 -124q-53 -79 -84 -79h-28q-34 0 -113 115q-62 62 -62 88v9q10 50 47 50zM92 1406h15q32 0 62 -64q58 -65 830 -1062q-5 0 -5 6l16 -21h41v1096q9 45 43 45h11q35 0 43 -48v-1283 q0 -41 -56 -50q-28 0 -110 122l-832 1062v-1137q0 -35 -49 -43h-1q-37 0 -47 52v1266q6 59 39 59z" />
<glyph unicode="&#x148;" horiz-adv-x="1114" d="M381 1414h12q32 0 115 -120h30q83 120 115 120h9q50 -10 50 -47v-12q0 -25 -91 -124q-53 -79 -84 -79h-28q-34 0 -113 115q-62 62 -62 88v9q10 50 47 50zM85 977q48 -12 48 -37v-136q194 173 372 173q195 0 347 -163q111 -137 111 -287v-465q0 -28 -47 -37h1 q-47 8 -47 45v409q0 292 -255 386q-62 16 -110 16h-11q-214 0 -329 -219q-32 -69 -32 -212v-384q0 -33 -47 -41h-1q-35 0 -45 50v842q6 60 45 60z" />
<glyph unicode="&#x149;" horiz-adv-x="1427" d="M104 1251h28q61 0 87 -213v-18q0 -117 -133 -227q-21 -12 -25 -12q-6 2 -8 6q60 144 60 241v12q0 69 -48 151v10q10 50 39 50zM336 977q48 -12 48 -37v-136q194 173 372 173q195 0 347 -163q111 -137 111 -287v-465q0 -28 -47 -37h1q-47 8 -47 45v409q0 292 -255 386 q-62 16 -110 16h-11q-214 0 -329 -219q-32 -69 -32 -212v-384q0 -33 -47 -41h-1q-35 0 -45 50v842q6 60 45 60z" />
<glyph unicode="&#x14a;" horiz-adv-x="1268" d="M588 1408q220 0 397 -173q129 -150 144 -288l7 -47l-3 -116v-207l3 -97q-13 -123 -85 -224q-143 -174 -350 -174q-147 0 -245 83l-5 23v6q9 45 43 45h2l124 -49l80 -8h9q186 0 289 178q41 60 41 228v230q0 341 -291 461q-84 28 -145 28h-22q-251 0 -396 -247 q-48 -88 -48 -264v-728q0 -35 -49 -43h-1q-37 0 -47 52v1268q6 59 39 59h12q46 -9 46 -35v-189q225 228 451 228z" />
<glyph unicode="&#x14b;" horiz-adv-x="1140" d="M962 52q-4 -197 -210 -277l-79 -14q-49 11 -49 37v22q0 31 59 36q127 0 184 159q0 25 3 44v420q0 292 -255 386q-62 16 -110 16h-11q-214 0 -329 -219q-32 -69 -32 -212v-384q0 -33 -47 -41h-1q-35 0 -45 50v842q6 60 45 60q48 -12 48 -37v-136q194 173 372 173 q195 0 347 -163q111 -137 111 -287v-465q0 -4 -1 -10z" />
<glyph unicode="&#x14c;" horiz-adv-x="1580" d="M724 1410q350 0 586 -325q106 -184 106 -371q0 -346 -314 -576q-177 -113 -371 -113h-15q-357 0 -583 333q-102 167 -102 363q0 331 292 558q189 131 401 131zM128 710q0 -286 252 -481q158 -107 336 -107h19q280 0 473 248q111 160 111 348q0 323 -295 511 q-146 84 -300 84q-295 0 -489 -256q-107 -154 -107 -347zM315 1679h842q47 -9 47 -45v-10q-9 -47 -42 -47h-847q-38 0 -45 55q13 47 45 47z" />
<glyph unicode="&#x14d;" horiz-adv-x="1188" d="M528 993q187 0 339 -142q145 -152 145 -342q0 -272 -258 -428q-111 -56 -215 -56h-30q-194 0 -362 184q-103 145 -103 300q0 236 209 396q133 88 275 88zM143 520v-18q0 -219 210 -338q77 -40 164 -40h22q226 0 346 234q28 74 28 144v18q0 183 -166 306q-98 68 -223 68 q-247 0 -361 -257q-20 -64 -20 -117zM108 1300h842q47 -9 47 -45v-10q-9 -47 -42 -47h-847q-38 0 -45 55q13 47 45 47z" />
<glyph unicode="&#x14e;" horiz-adv-x="1563" d="M532 1811h12q35 0 62 -72q63 -72 142 -72q119 0 169 123q20 21 39 21h6q53 -9 53 -51v-4q0 -69 -143 -170q-68 -25 -120 -25h-8q-176 0 -259 184v16q10 50 47 50zM733 1410q350 0 586 -325q106 -184 106 -371q0 -346 -314 -576q-177 -113 -371 -113h-15q-357 0 -583 333 q-102 167 -102 363q0 331 292 558q189 131 401 131zM137 710q0 -286 252 -481q158 -107 336 -107h19q280 0 473 248q111 160 111 348q0 323 -295 511q-146 84 -300 84q-295 0 -489 -256q-107 -154 -107 -347z" />
<glyph unicode="&#x14f;" horiz-adv-x="1127" d="M316 1411h12q35 0 62 -72q63 -72 142 -72q119 0 169 123q20 21 39 21h6q53 -9 53 -51v-4q0 -69 -143 -170q-68 -25 -120 -25h-8q-176 0 -259 184v16q10 50 47 50zM524 993q187 0 339 -142q145 -152 145 -342q0 -272 -258 -428q-111 -56 -215 -56h-30q-194 0 -362 184 q-103 145 -103 300q0 236 209 396q133 88 275 88zM139 520v-18q0 -219 210 -338q77 -40 164 -40h22q226 0 346 234q28 74 28 144v18q0 183 -166 306q-98 68 -223 68q-247 0 -361 -257q-20 -64 -20 -117z" />
<glyph unicode="&#x150;" horiz-adv-x="1580" d="M542 1818h2q53 -9 53 -47v-20q0 -13 -162 -224q-10 -11 -17 -11h-8q-13 0 -19 22q101 253 118 269q19 11 33 11zM788 1806q57 -11 57 -55q0 -23 -103 -153q-61 -94 -76 -94h-12q-13 0 -19 22q0 9 108 255q25 25 45 25zM724 1410q350 0 586 -325q106 -184 106 -371 q0 -346 -314 -576q-177 -113 -371 -113h-15q-357 0 -583 333q-102 167 -102 363q0 331 292 558q189 131 401 131zM128 710q0 -286 252 -481q158 -107 336 -107h19q280 0 473 248q111 160 111 348q0 323 -295 511q-146 84 -300 84q-295 0 -489 -256q-107 -154 -107 -347z" />
<glyph unicode="&#x151;" horiz-adv-x="1135" d="M405 1444h2q53 -9 53 -47v-20q0 -13 -162 -224q-10 -11 -17 -11h-8q-13 0 -19 22q101 253 118 269q19 11 33 11zM651 1432q57 -11 57 -55q0 -23 -103 -153q-61 -94 -76 -94h-12q-13 0 -19 22q0 9 108 255q25 25 45 25zM519 993q187 0 339 -142q145 -152 145 -342 q0 -272 -258 -428q-111 -56 -215 -56h-30q-194 0 -362 184q-103 145 -103 300q0 236 209 396q133 88 275 88zM134 520v-18q0 -219 210 -338q77 -40 164 -40h22q226 0 346 234q28 74 28 144v18q0 183 -166 306q-98 68 -223 68q-247 0 -361 -257q-20 -64 -20 -117z" />
<glyph unicode="&#x152;" horiz-adv-x="2157" d="M154 710q0 -285 207 -480q131 -108 279 -108h16q233 0 392 250q91 159 91 346q0 321 -242 510q-122 85 -250 85q-246 0 -405 -258q-88 -153 -88 -345zM1141 375q-103 -163 -189 -239q-144 -111 -299 -111h-13q-288 0 -472 331q-84 168 -84 365q0 332 239 559 q153 130 324 130q264 0 494 -349v303q7 49 72 49v-2l-9 2h750l15 4q40 0 48 -57q-10 -45 -58 -45h-720v-562h481l54 4q30 0 42 -54q0 -30 -40 -48l-71 4h-466v-536h738q31 0 39 -53q-13 -45 -42 -45h-784q-49 9 -49 47v303z" />
<glyph unicode="&#x153;" horiz-adv-x="2025" d="M143 525v-18q0 -219 210 -338q77 -40 164 -40h22q226 0 346 234q28 74 28 144v18q0 183 -166 306q-98 68 -223 68q-247 0 -361 -257q-20 -64 -20 -117zM1016 526h757q0 108 -94 236q-130 122 -257 122h-41q-189 0 -310 -184q-43 -74 -55 -174zM965 297 q-86 -136 -211 -211q-111 -56 -215 -56h-30q-194 0 -362 184q-103 145 -103 300q0 236 209 396q133 88 275 88q187 0 339 -142q47 -48 100 -136q82 132 199 205q121 59 226 59q276 0 429 -262q52 -102 52 -222v-17q-9 -50 -45 -50h-807q57 -188 210 -271q90 -35 169 -35 q90 0 200 55h14q43 -9 43 -41v-11q0 -69 -241 -100h-24q-252 0 -427 267z" />
<glyph unicode="&#x154;" horiz-adv-x="986" d="M526 1834q46 0 55 -65q0 -27 -177 -185q-62 -76 -90 -76h-10q-49 10 -49 47v16q0 23 133 142q106 121 138 121zM74 1410h315q187 0 307 -199q38 -76 38 -159v-15q0 -185 -181 -303l-59 -31q354 -610 354 -616v-19q0 -35 -49 -43h-2q-38 0 -91 116l-319 543h-254v-616 q0 -35 -49 -43h-2q-37 0 -47 53v1272q6 60 39 60zM133 1316v-535h240q198 0 260 213l4 34v32q0 158 -175 239q-50 17 -149 17h-180z" />
<glyph unicode="&#x155;" horiz-adv-x="928" d="M548 1482q46 0 55 -65q0 -27 -177 -185q-62 -76 -90 -76h-10q-49 10 -49 47v16q0 23 133 142q106 121 138 121zM115 1006q50 -13 50 -39v-139q200 178 378 178q96 0 201 -45q19 -20 19 -39v-2q-8 -48 -46 -48q-103 33 -159 33h-22q-237 0 -347 -245q-24 -66 -24 -148 v-444q0 -35 -49 -43h-2q-36 0 -46 52v866q7 63 47 63z" />
<glyph unicode="&#x156;" horiz-adv-x="995" d="M79 1410h315q187 0 307 -199q38 -76 38 -159v-15q0 -185 -181 -303l-59 -31q354 -610 354 -616v-19q0 -35 -49 -43h-2q-38 0 -91 116l-319 543h-254v-616q0 -35 -49 -43h-2q-37 0 -47 53v1272q6 60 39 60zM138 1316v-535h240q198 0 260 213l4 34v32q0 158 -175 239 q-50 17 -149 17h-180zM506 59q92 -60 92 -148q0 -126 -147 -163l-46 3h-54l-52 -3q-37 13 -37 34v12q8 40 38 40h121q91 0 91 77v3q0 61 -79 76q-25 12 -25 29q0 41 28 51.5t70 -11.5z" />
<glyph unicode="&#x157;" horiz-adv-x="854" d="M67 1006q50 -13 50 -39v-139q200 178 378 178q96 0 201 -45q19 -20 19 -39v-2q-8 -48 -46 -48q-103 33 -159 33h-22q-237 0 -347 -245q-24 -66 -24 -148v-444q0 -35 -49 -43h-2q-36 0 -46 52v866q7 63 47 63zM343 54q92 -60 92 -148q0 -126 -147 -163l-46 3h-54l-52 -3 q-37 13 -37 34v12q8 40 38 40h121q91 0 91 77v3q0 61 -79 76q-25 12 -25 29q0 41 28 51.5t70 -11.5z" />
<glyph unicode="&#x158;" horiz-adv-x="1003" d="M191 1806h12q32 0 115 -120h30q83 120 115 120h9q50 -10 50 -47v-12q0 -25 -91 -124q-53 -79 -84 -79h-28q-34 0 -113 115q-62 62 -62 88v9q10 50 47 50zM74 1410h315q187 0 307 -199q38 -76 38 -159v-15q0 -185 -181 -303l-59 -31q354 -610 354 -616v-19q0 -35 -49 -43 h-2q-38 0 -91 116l-319 543h-254v-616q0 -35 -49 -43h-2q-37 0 -47 53v1272q6 60 39 60zM133 1316v-535h240q198 0 260 213l4 34v32q0 158 -175 239q-50 17 -149 17h-180z" />
<glyph unicode="&#x159;" horiz-adv-x="885" d="M236 1406h12q32 0 115 -120h30q83 120 115 120h9q50 -10 50 -47v-12q0 -25 -91 -124q-53 -79 -84 -79h-28q-34 0 -113 115q-62 62 -62 88v9q10 50 47 50zM85 1006q50 -13 50 -39v-139q200 178 378 178q96 0 201 -45q19 -20 19 -39v-2q-8 -48 -46 -48q-103 33 -159 33h-22 q-237 0 -347 -245q-24 -66 -24 -148v-444q0 -35 -49 -43h-2q-36 0 -46 52v866q7 63 47 63z" />
<glyph unicode="&#x15a;" horiz-adv-x="929" d="M456 1412q174 0 287 -154l2 -8v-20q0 -28 -50 -36q-16 0 -84 75q-75 48 -143 48h-23q-141 0 -213 -148q-18 -37 -18 -76v-31q0 -162 196 -235q122 0 260 -112q132 -134 132 -295q0 -197 -169 -324q-103 -71 -230 -71q-204 0 -336 173l-5 21q8 46 47 46q28 0 86 -73 q104 -72 189 -72h34q167 0 269 188q16 62 16 93v38q0 166 -187 268l-195 54q-203 116 -203 305v27q0 185 200 290q74 29 138 29zM561 1838q47 0 55 -65q0 -27 -177 -185q-62 -76 -90 -76h-9q-50 10 -50 47v16q0 23 133 142q107 121 138 121z" />
<glyph unicode="&#x15b;" horiz-adv-x="980" d="M557 1419q46 0 55 -65q0 -27 -177 -185q-62 -76 -90 -76h-10q-49 10 -49 47v16q0 23 133 142q106 121 138 121zM460 992q243 0 380 -216l2 -22v-3q0 -37 -51 -45q-33 0 -78 76q-113 109 -253 109q-185 0 -294 -179l-4 -26q0 -74 132 -86q423 -102 459 -115 q93 -62 93 -156v-3q0 -139 -212 -260q-91 -41 -196 -41q-212 0 -361 200q-10 16 -10 27v22q0 32 58 38q21 0 80 -85q108 -100 248 -100q169 0 282 162l9 29v8q0 70 -87 80q-489 109 -514 131q-83 63 -83 151q0 126 191 248q105 56 209 56z" />
<glyph unicode="&#x15c;" horiz-adv-x="885" d="M434 1412q174 0 287 -154l2 -8v-20q0 -28 -50 -36q-16 0 -84 75q-75 48 -143 48h-23q-141 0 -213 -148q-18 -37 -18 -76v-31q0 -162 196 -235q122 0 260 -112q132 -134 132 -295q0 -197 -169 -324q-103 -71 -230 -71q-204 0 -336 173l-5 21q8 46 47 46q28 0 86 -73 q104 -72 189 -72h34q167 0 269 188q16 62 16 93v38q0 166 -187 268l-195 54q-203 116 -203 305v27q0 185 200 290q74 29 138 29zM409 1780h28q35 0 117 -119q58 -58 58 -84v-9q-10 -50 -47 -50h-12q-31 0 -114 120h-31q-83 -120 -115 -120h-9q-50 10 -50 47v12q0 28 115 153 q32 50 60 50z" />
<glyph unicode="&#x15d;" horiz-adv-x="969" d="M449 1366h28q35 0 117 -119q58 -58 58 -84v-9q-10 -50 -47 -50h-12q-32 0 -115 120h-30q-83 -120 -115 -120h-9q-50 10 -50 47v12q0 28 115 153q32 50 60 50zM460 992q243 0 380 -216l2 -22v-3q0 -37 -51 -45q-33 0 -78 76q-113 109 -253 109q-185 0 -294 -179l-4 -26 q0 -74 132 -86q423 -102 459 -115q93 -62 93 -156v-3q0 -139 -212 -260q-91 -41 -196 -41q-212 0 -361 200q-10 16 -10 27v22q0 32 58 38q21 0 80 -85q108 -100 248 -100q169 0 282 162l9 29v8q0 70 -87 80q-489 109 -514 131q-83 63 -83 151q0 126 191 248q105 56 209 56z " />
<glyph unicode="&#x15e;" horiz-adv-x="903" d="M358 25q-196 20 -313 173l-5 21q8 46 47 46q28 0 86 -73q104 -72 189 -72h34q167 0 269 188q16 62 16 93v38q0 166 -187 268l-195 54q-203 116 -203 305v27q0 185 200 290q74 29 138 29q174 0 287 -154l2 -8v-20q0 -28 -50 -36q-16 0 -84 75q-75 48 -143 48h-23 q-141 0 -213 -148q-18 -37 -18 -76v-31q0 -162 196 -235q122 0 260 -112q132 -134 132 -295q0 -197 -169 -324q-69 -47 -167 -67v-71q104 -69 104 -157q0 -126 -147 -163l-46 3h-53l-52 -3q-38 13 -38 34v12q8 40 38 40h121q91 0 91 77v3q0 61 -79 76q-25 12 -25 29v116z " />
<glyph unicode="&#x15f;" horiz-adv-x="978" d="M503 28v-79q104 -69 104 -157q0 -126 -147 -163l-46 3h-54l-52 -3q-37 13 -37 34v12q8 40 38 40h121q91 0 91 77v3q0 61 -79 76q-25 12 -25 29v125q-204 23 -336 200q-10 16 -10 27v22q0 32 58 38q21 0 80 -85q108 -100 248 -100q169 0 282 162l9 29v8q0 70 -87 80 q-489 109 -514 131q-83 63 -83 151q0 126 191 248q105 56 209 56q243 0 380 -216l2 -22v-3q0 -37 -51 -45q-33 0 -78 76q-113 109 -253 109q-185 0 -294 -179l-4 -26q0 -74 132 -86q423 -102 459 -115q93 -62 93 -156v-3q0 -139 -212 -260q-54 -24 -135 -38z" />
<glyph unicode="&#x160;" horiz-adv-x="924" d="M429 1412q174 0 287 -154l2 -8v-20q0 -28 -50 -36q-16 0 -84 75q-75 48 -143 48h-23q-141 0 -213 -148q-18 -37 -18 -76v-31q0 -162 196 -235q122 0 260 -112q132 -134 132 -295q0 -197 -169 -324q-103 -71 -230 -71q-204 0 -336 173l-5 21q8 46 47 46q28 0 86 -73 q104 -72 189 -72h34q167 0 269 188q16 62 16 93v38q0 166 -187 268l-195 54q-203 116 -203 305v27q0 185 200 290q74 29 138 29zM283 1797h12q32 0 115 -120h31q83 120 114 120h10q49 -10 49 -47v-12q0 -25 -90 -124q-54 -79 -85 -79h-28q-33 0 -112 115q-63 62 -63 88v9 q11 50 47 50z" />
<glyph unicode="&#x161;" horiz-adv-x="977" d="M315 1419h12q32 0 115 -120h30q83 120 115 120h9q50 -10 50 -47v-12q0 -25 -91 -124q-53 -79 -84 -79h-28q-34 0 -113 115q-62 62 -62 88v9q10 50 47 50zM451 992q243 0 380 -216l2 -22v-3q0 -37 -51 -45q-33 0 -78 76q-113 109 -253 109q-185 0 -294 -179l-4 -26 q0 -74 132 -86q423 -102 459 -115q93 -62 93 -156v-3q0 -139 -212 -260q-91 -41 -196 -41q-212 0 -361 200q-10 16 -10 27v22q0 32 58 38q21 0 80 -85q108 -100 248 -100q169 0 282 162l9 29v8q0 70 -87 80q-489 109 -514 131q-83 63 -83 151q0 126 191 248q105 56 209 56z " />
<glyph unicode="&#x162;" horiz-adv-x="1219" d="M83 1411h931q45 -9 45 -43v-15q0 -33 -59 -39h-400v-1246q0 -35 -49 -43h-1q-37 0 -47 53v1236h-406q-53 11 -53 47q11 50 39 50zM508 -98h28q63 0 87 -121v-9q0 -63 -129 -127q-23 -8 -31 -8q-8 2 -6 0v-11q60 87 60 151v7q0 48 -48 97v-2q8 23 39 23z" />
<glyph unicode="&#x163;" horiz-adv-x="730" d="M367 -72h28q63 0 87 -121v-9q0 -63 -129 -127q-23 -8 -31 -8q-8 2 -6 0v-11q60 87 60 151v7q0 48 -48 97v-2q8 23 39 23zM267 1365h11q44 -9 44 -34v-355h178l33 4q29 0 42 -52q0 -30 -41 -45l-50 4h-162v-564q0 -159 112 -198l88 -7h42q28 0 37 -47v1q-8 -47 -45 -47 h-77q-159 0 -237 175q-13 42 -13 101v586h-99l-55 -4q-40 15 -40 46q8 47 66 47v1l11 -1h117v332q6 57 38 57z" />
<glyph unicode="&#x164;" horiz-adv-x="1224" d="M421 1811h12q32 0 115 -120h30q83 120 115 120h9q50 -10 50 -47v-12q0 -25 -91 -124q-53 -79 -84 -79h-28q-34 0 -113 115q-62 62 -62 88v9q10 50 47 50zM92 1411h931q45 -9 45 -43v-15q0 -33 -59 -39h-400v-1246q0 -35 -49 -43h-1q-37 0 -47 53v1236h-406q-53 11 -53 47 q11 50 39 50z" />
<glyph unicode="&#x165;" horiz-adv-x="757" d="M170 1775h12q32 0 115 -120h30q83 120 115 120h9q50 -10 50 -47v-12q0 -25 -91 -124q-53 -79 -84 -79h-28q-34 0 -113 115q-62 62 -62 88v9q10 50 47 50zM294 1365h11q44 -9 44 -34v-355h178l33 4q29 0 42 -52q0 -30 -41 -45l-50 4h-162v-564q0 -159 112 -198l88 -7h42 q28 0 37 -47v1q-8 -47 -45 -47h-77q-159 0 -237 175q-13 42 -13 101v586h-99l-55 -4q-40 15 -40 46q8 47 66 47v1l11 -1h117v332q6 57 38 57z" />
<glyph unicode="&#x166;" horiz-adv-x="1197" d="M507 666h-311l-59 -4q-47 17 -47 53q9 53 72 53v1l14 -1h331v546h-406q-53 11 -53 47q11 50 39 50h931q45 -9 45 -43v-15q0 -33 -59 -39h-400v-546h294l36 4q38 0 50 -58q0 -33 -44 -52l-62 4h-274v-598q0 -35 -49 -43h-1q-37 0 -47 53v588z" />
<glyph unicode="&#x167;" horiz-adv-x="748" d="M242 593v294h-99l-55 -4q-40 15 -40 46q8 47 66 47v1l11 -1h117v332q6 57 38 57h11q44 -9 44 -34v-355h178l33 4q29 0 42 -52q0 -30 -41 -45l-50 4h-162v-294h174l34 4q31 0 45 -58q0 -35 -43 -52l-51 4h-159v-168q0 -159 112 -198l88 -7h42q28 0 37 -47v1 q-8 -47 -45 -47h-77q-159 0 -237 175q-13 42 -13 101v190h-92l-55 -4q-43 16 -43 53q8 53 68 53v1l11 -1h111z" />
<glyph unicode="&#x168;" horiz-adv-x="1219" d="M105 1408h12q46 -9 46 -35v-806q0 -274 159 -369q98 -76 222 -76q237 0 356 243q25 76 25 157v838q8 48 43 48h9q45 -9 45 -43v-881q0 -213 -206 -373q-129 -86 -261 -86h-26q-223 0 -388 220q-75 117 -75 292v812q6 59 39 59zM436 1690h19q62 0 152 -61l36 -9h25l71 21 q48 -9 48 -48q0 -52 -117 -67h-24q-61 0 -152 61l-36 9h-25l-70 -18h-2q-43 9 -43 41v11q0 35 63 50q27 10 55 10z" />
<glyph unicode="&#x169;" horiz-adv-x="1131" d="M396 1289h19q62 0 152 -61l36 -9h25l71 21q48 -9 48 -48q0 -52 -117 -67h-24q-61 0 -152 61l-36 9h-25l-70 -18h-2q-43 9 -43 41v11q0 35 63 50q27 10 55 10zM89 977q48 -12 48 -38v-391q0 -265 153 -357q96 -73 215 -73q230 0 345 235q24 76 24 151v422q10 51 45 51 q47 -12 47 -45v-870q0 -28 -47 -37h1q-46 8 -46 44v95h-39q-153 -139 -319 -139h-25q-215 0 -374 212q-73 113 -73 282v397q6 61 45 61z" />
<glyph unicode="&#x16a;" horiz-adv-x="1135" d="M74 1408h12q46 -9 46 -35v-806q0 -274 159 -369q98 -76 222 -76q237 0 356 243q25 76 25 157v838q8 48 43 48h9q45 -9 45 -43v-881q0 -213 -206 -373q-129 -86 -261 -86h-26q-223 0 -388 220q-75 117 -75 292v812q6 59 39 59zM208 1684l6 -1h610l30 4q27 0 37 -57 q0 -35 -34 -53l-51 4h-574l-49 -4q-36 16 -36 53q8 53 61 53v1z" />
<glyph unicode="&#x16b;" horiz-adv-x="1135" d="M80 977q48 -12 48 -38v-391q0 -265 153 -357q96 -73 215 -73q230 0 345 235q24 76 24 151v422q10 51 45 51q47 -12 47 -45v-870q0 -28 -47 -37h1q-46 8 -46 44v95h-39q-153 -139 -319 -139h-25q-215 0 -374 212q-73 113 -73 282v397q6 61 45 61zM227 1274l519 1 q57 -10 57 -46v-10q-6 -47 -51 -47h-538q-41 0 -46 56q9 46 59 46z" />
<glyph unicode="&#x16c;" horiz-adv-x="1149" d="M316 1775h12q35 0 62 -72q63 -72 142 -72q119 0 169 123q20 21 39 21h6q53 -9 53 -51v-4q0 -69 -143 -170q-68 -25 -120 -25h-8q-176 0 -259 184v16q10 50 47 50zM74 1408h12q46 -9 46 -35v-806q0 -274 159 -369q98 -76 222 -76q237 0 356 243q25 76 25 157v838 q8 48 43 48h9q45 -9 45 -43v-881q0 -213 -206 -373q-129 -86 -261 -86h-26q-223 0 -388 220q-75 117 -75 292v812q6 59 39 59z" />
<glyph unicode="&#x16d;" horiz-adv-x="1171" d="M303 1371h12q35 0 62 -72q63 -72 142 -72q119 0 169 123q20 21 39 21h6q53 -9 53 -51v-4q0 -69 -143 -170q-68 -25 -120 -25h-8q-176 0 -259 184v16q10 50 47 50zM107 977q48 -12 48 -38v-391q0 -265 153 -357q96 -73 215 -73q230 0 345 235q24 76 24 151v422 q10 51 45 51q47 -12 47 -45v-870q0 -28 -47 -37h1q-46 8 -46 44v95h-39q-153 -139 -319 -139h-25q-215 0 -374 212q-73 113 -73 282v397q6 61 45 61z" />
<glyph unicode="&#x16e;" horiz-adv-x="1127" d="M70 1408h12q46 -9 46 -35v-806q0 -274 159 -369q98 -76 222 -76q237 0 356 243q25 76 25 157v838q8 48 43 48h9q45 -9 45 -43v-881q0 -213 -206 -373q-129 -86 -261 -86h-26q-223 0 -388 220q-75 117 -75 292v812q6 59 39 59zM518 1807h14q103 0 149 -128l4 -33v-10 q0 -101 -122 -150l-40 -7q-96 0 -150 100q-16 36 -16 68q0 110 129 156zM424 1643q17 -96 99 -96q95 16 95 93v13q-15 87 -89 87h-12q-78 0 -93 -97z" />
<glyph unicode="&#x16f;" horiz-adv-x="1180" d="M107 977q48 -12 48 -38v-391q0 -265 153 -357q96 -73 215 -73q230 0 345 235q24 76 24 151v422q10 51 45 51q47 -12 47 -45v-870q0 -28 -47 -37h1q-46 8 -46 44v95h-39q-153 -139 -319 -139h-25q-215 0 -374 212q-73 113 -73 282v397q6 61 45 61zM523 1380h14 q103 0 149 -128l4 -33v-10q0 -101 -122 -150l-40 -7q-96 0 -150 100q-16 36 -16 68q0 110 129 156zM429 1216q17 -96 99 -96q95 16 95 93v13q-15 87 -89 87h-12q-78 0 -93 -97z" />
<glyph unicode="&#x170;" horiz-adv-x="1175" d="M530 1809h2q53 -9 53 -47v-20q0 -13 -162 -224q-10 -11 -17 -11h-8q-13 0 -19 22q101 253 118 269q19 11 33 11zM776 1797q57 -11 57 -55q0 -23 -103 -153q-61 -94 -76 -94h-12q-13 0 -19 22q0 9 108 255q25 25 45 25zM96 1408h12q46 -9 46 -35v-806q0 -274 159 -369 q98 -76 222 -76q237 0 356 243q25 76 25 157v838q8 48 43 48h9q45 -9 45 -43v-881q0 -213 -206 -373q-129 -86 -261 -86h-26q-223 0 -388 220q-75 117 -75 292v812q6 59 39 59z" />
<glyph unicode="&#x171;" horiz-adv-x="1144" d="M490 1378h2q53 -9 53 -47v-20q0 -13 -162 -224q-10 -11 -17 -11h-8q-13 0 -19 22q101 253 118 269q19 11 33 11zM736 1366q57 -11 57 -55q0 -23 -103 -153q-61 -94 -76 -94h-12q-13 0 -19 22q0 9 108 255q25 25 45 25zM89 977q48 -12 48 -38v-391q0 -265 153 -357 q96 -73 215 -73q230 0 345 235q24 76 24 151v422q10 51 45 51q47 -12 47 -45v-870q0 -28 -47 -37h1q-46 8 -46 44v95h-39q-153 -139 -319 -139h-25q-215 0 -374 212q-73 113 -73 282v397q6 61 45 61z" />
<glyph unicode="&#x172;" horiz-adv-x="1202" d="M494 25q-210 26 -357 220q-75 117 -75 292v812q6 59 39 59h12q46 -9 46 -35v-806q0 -274 159 -369q98 -76 222 -76q237 0 356 243q25 76 25 157v838q8 48 43 48h9q45 -9 45 -43v-881q0 -213 -206 -373q-101 -67 -226 -85v-117q0 -36 -66 -46q-40 -29 -40 -70 q0 -78 92 -78h105l12 3q45 -10 45 -41v-7q0 -29 -35 -42l-69 4h-38l-56 -4q-58 0 -122 81q-21 40 -21 70v28q0 81 106 140v20z" />
<glyph unicode="&#x173;" horiz-adv-x="1211" d="M975 65q3 -8 3 -11v-101q0 -36 -66 -46q-40 -29 -40 -70q0 -78 92 -78h105l12 3q45 -10 45 -41v-7q0 -29 -35 -42l-69 4h-38l-56 -4q-58 0 -122 81q-21 40 -21 70v28q0 81 106 140v20l-2 36q-6 11 -6 22v95h-39q-153 -139 -319 -139h-25q-215 0 -374 212q-73 113 -73 282 v397q6 61 45 61q48 -12 48 -38v-391q0 -265 153 -357q96 -73 215 -73q230 0 345 235q24 76 24 151v422q10 51 45 51q47 -12 47 -45v-867z" />
<glyph unicode="&#x174;" horiz-adv-x="1778" d="M835 1815h28q35 0 117 -119q58 -58 58 -84v-9q-10 -50 -47 -50h-12q-32 0 -115 120h-30q-83 -120 -115 -120h-9q-50 10 -50 47v12q0 28 115 153q32 50 60 50zM86 1411h16q43 0 59 -95l286 -992h45q296 1046 312 1070q16 17 33 17h11q46 0 63 -117q28 -76 282 -974h42 l311 1070q16 21 30 21h13q45 -9 45 -35v-15l-380 -1318q-19 -18 -38 -18h-4q-49 0 -66 120q-247 838 -282 979h-41l-311 -1078q-17 -21 -39 -21h-15q-40 0 -59 124q-325 1107 -351 1215q10 47 38 47z" />
<glyph unicode="&#x175;" horiz-adv-x="1422" d="M641 1344h28q35 0 117 -119q58 -58 58 -84v-9q-10 -50 -47 -50h-12q-32 0 -115 120h-30q-83 -120 -115 -120h-9q-50 10 -50 47v12q0 28 115 153q32 50 60 50zM92 984q47 0 71 -129l187 -574h40q211 672 220 685q19 15 40 18q43 0 62 -103l194 -600h40q204 647 219 681 q21 22 36 22q51 -10 51 -45l-288 -896q-19 -18 -37 -18h-3q-47 0 -72 125q-176 534 -176 571h-50l-218 -676q-15 -20 -37 -20h-3q-34 0 -50 49l-274 862q10 48 48 48z" />
<glyph unicode="&#x176;" horiz-adv-x="1167" d="M79 1408h16q32 0 56 -59l354 -529h31q377 569 388 578q14 10 20 10h23q26 0 39 -50q0 -21 -125 -192l-311 -464v-618q-7 -59 -39 -59h-16q-31 0 -43 40v617q0 22 -164 265l-266 400l-2 13q11 48 39 48zM511 1767h28q34 0 116 -119q59 -58 59 -84v-9q-11 -50 -47 -50h-12 q-32 0 -115 120h-31q-83 -120 -114 -120h-10q-49 10 -49 47v12q0 28 114 153q32 50 61 50z" />
<glyph unicode="&#x177;" horiz-adv-x="964" d="M450 1370h28q35 0 117 -119q58 -58 58 -84v-9q-10 -50 -47 -50h-12q-32 0 -115 120h-30q-83 -120 -115 -120h-9q-50 10 -50 47v12q0 28 115 153q32 50 60 50zM781 987q46 -9 46 -41v-3q-2 -20 -343 -832q-160 -397 -176 -417q-11 -9 -28 -13q-44 9 -44 34v17q0 8 157 386 v13l-332 810v-5q9 47 45 47q40 0 77 -122q227 -537 238 -582h40q279 681 290 694q17 14 30 14z" />
<glyph unicode="&#x178;" horiz-adv-x="1149" d="M79 1408h16q32 0 56 -59l354 -529h31q377 569 388 578q14 10 20 10h23q26 0 39 -50q0 -21 -125 -192l-311 -464v-618q-7 -59 -39 -59h-16q-31 0 -43 40v617q0 22 -164 265l-266 400l-2 13q11 48 39 48zM370 1662h12q46 -9 46 -35v-19q0 -34 -47 -43q-50 10 -50 48 q11 49 39 49zM662 1662h6q46 -10 46 -39v-11q0 -39 -50 -47q-47 10 -47 47v11q0 29 45 39z" />
<glyph unicode="&#x179;" horiz-adv-x="1272" d="M673 1782q51 -12 51 -45v-7q0 -21 -76 -106q-54 -82 -93 -82h-4q-27 0 -37 48v4q0 24 108 145q31 43 51 43zM70 1412h1021q34 0 43 -49v-1q0 -20 -77 -110l-874 -1129h902q49 -7 49 -47v-2q-9 -49 -47 -49h-1009q-38 0 -47 57q0 17 177 237l771 996h-895q-53 11 -53 47 q11 50 39 50z" />
<glyph unicode="&#x17a;" horiz-adv-x="973" d="M540 1364q51 -12 51 -45v-7q0 -21 -76 -106q-54 -82 -93 -82h-4q-27 0 -37 48v4q0 24 108 145q31 43 51 43zM110 984l11 -1h641l31 4q43 -14 43 -38v-22q0 -13 -79 -99l-565 -709h601q43 -9 43 -41v-12q0 -33 -47 -41h-700q-37 0 -45 55q0 18 145 185l499 628h-548 l-55 -4q-41 15 -41 47q8 47 66 47v1z" />
<glyph unicode="&#x17b;" horiz-adv-x="1325" d="M615 1772q70 0 91 -85v-18q0 -48 -68 -78q-7 -4 -23 -4h-3q-75 0 -91 96q0 57 71 85q8 4 23 4zM83 1412h1021q34 0 43 -49v-1q0 -20 -77 -110l-874 -1129h902q49 -7 49 -47v-2q-9 -49 -47 -49h-1009q-38 0 -47 57q0 17 177 237l771 996h-895q-53 11 -53 47q11 50 39 50z " />
<glyph unicode="&#x17c;" horiz-adv-x="1004" d="M457 1332q70 0 91 -85v-18q0 -48 -68 -78q-7 -4 -23 -4h-3q-75 0 -91 96q0 57 71 85q8 4 23 4zM106 984l11 -1h641l31 4q43 -14 43 -38v-22q0 -13 -79 -99l-565 -709h601q43 -9 43 -41v-12q0 -33 -47 -41h-700q-37 0 -45 55q0 18 145 185l499 628h-548l-55 -4 q-41 15 -41 47q8 47 66 47v1z" />
<glyph unicode="&#x17d;" horiz-adv-x="1294" d="M469 1811h12q32 0 115 -120h30q83 120 115 120h9q50 -10 50 -47v-12q0 -25 -91 -124q-53 -79 -84 -79h-28q-34 0 -113 115q-62 62 -62 88v9q10 50 47 50zM87 1412h1021q34 0 43 -49v-1q0 -20 -77 -110l-874 -1129h902q49 -7 49 -47v-2q-9 -49 -47 -49h-1009q-38 0 -47 57 q0 17 177 237l771 996h-895q-53 11 -53 47q11 50 39 50z" />
<glyph unicode="&#x17e;" horiz-adv-x="978" d="M324 1433h12q32 0 115 -120h30q83 120 115 120h9q50 -10 50 -47v-12q0 -25 -91 -124q-53 -79 -84 -79h-28q-34 0 -113 115q-62 62 -62 88v9q10 50 47 50zM106 984l11 -1h641l31 4q43 -14 43 -38v-22q0 -13 -79 -99l-565 -709h601q43 -9 43 -41v-12q0 -33 -47 -41h-700 q-37 0 -45 55q0 18 145 185l499 628h-548l-55 -4q-41 15 -41 47q8 47 66 47v1z" />
<glyph unicode="&#x17f;" horiz-adv-x="616" d="M362 1412h89q30 0 39 -57q0 -29 -54 -41h-54q-157 0 -207 -173l-3 -83v-53v-145v-751l3 -42q0 -30 -53 -42q-32 0 -48 42l4 42v751l-4 145v68q0 237 205 324z" />
<glyph unicode="&#x192;" horiz-adv-x="973" d="M681 1399h94q34 0 43 -61q0 -32 -58 -45h-57q-165 0 -217 -181l-4 -87v-82h197l64 4q31 0 43 -54v-9q0 -30 -50 -43h-254v-786l4 -94q-14 -97 -74 -177q-110 -115 -237 -115h-84q-38 0 -47 51q8 55 51 55h52q152 0 215 135q18 46 18 146v785h-233q-35 0 -43 61 q0 23 44 45l74 -4h154v97q0 252 218 344z" />
<glyph unicode="&#x1fa;" horiz-adv-x="1266" d="M495 1467q15 -86 89 -86q85 14 85 83v12q-13 78 -80 78h-10q-72 0 -84 -87zM561 1121l-179 -460h387v33l-170 427h-38zM534 1607v-1h1zM534 1607q-36 28 -41 54v3q0 21 97 129q27 38 43 38q44 -10 44 -38v-6q0 -18 -68 -94q-19 -28 -75 -86zM535 1606q143 -2 182 -109 l3 -28v-8q0 -75 -107 -129q31 -52 43 -103q457 -1134 460 -1156v-8q0 -33 -49 -40h-2q-46 0 -70 105l-177 439h-476l-212 -531q-17 -13 -32 -13h-5q-48 8 -49 43l126 327q319 791 371 939q-58 30 -84 79q-13 30 -13 57q0 72 98 131q-4 3 -7 5z" />
<glyph unicode="&#x1fb;" horiz-adv-x="1171" d="M610 1773q51 -12 51 -45v-7q0 -21 -76 -106q-54 -82 -93 -82h-4q-27 0 -37 48v4q0 24 108 145q31 43 51 43zM533 1422q89 0 142 -96q15 -33 15 -66q0 -105 -124 -150l-32 -4h-13q-100 0 -144 124l-4 31v10q0 106 131 148zM437 1268v-19q23 -79 84 -79h14q78 0 91 94 q-16 95 -96 95q-93 -16 -93 -91zM517 979q271 0 429 -265q48 -107 48 -223v-425q0 -33 -47 -41h-1q-31 0 -45 35v-2l4 91v63q-197 -187 -373 -187h-30q-242 0 -403 244q-59 117 -59 237q0 266 262 421q111 52 215 52zM133 509v-11q0 -233 235 -352q74 -28 134 -28h30 q196 0 322 196q47 92 47 177v15q0 225 -223 344q-78 36 -161 36h-4q-237 0 -356 -247q-24 -76 -24 -130z" />
<glyph unicode="&#x1fc;" horiz-adv-x="1615" d="M1001 1805q51 -12 51 -45v-7q0 -21 -76 -106q-54 -82 -93 -82h-4q-27 0 -37 48v4q0 24 108 145q31 43 51 43zM812 1410h595q26 0 38 -48q-9 -49 -50 -49h-525v-618h412q47 -10 47 -36v-19q0 -35 -49 -43h-410v-474h529q37 0 47 -53q0 -34 -54 -45h-572q-37 0 -47 53v519 h-314q-29 -35 -176 -309l-142 -249q-16 -14 -33 -14h-4q-38 0 -47 57q0 13 239 432l491 882q17 14 25 14zM508 695h265v473z" />
<glyph unicode="&#x1fd;" horiz-adv-x="2042" d="M1054 1338q51 -12 51 -45v-7q0 -21 -76 -106q-54 -82 -93 -82h-4q-27 0 -37 48v4q0 24 108 145q31 43 51 43zM519 979q250 0 418 -245h31q93 159 270 220q80 21 143 21q265 0 420 -257q51 -107 51 -200v-45q-8 -46 -44 -46h-792v-33q41 -133 150 -207q102 -66 211 -66 q94 0 205 56l10 2q49 -12 49 -48q0 -71 -219 -102l-50 -4q-181 0 -378 182v-138q0 -39 -52 -44h-3q-21 0 -37 37l4 83v70q-196 -186 -372 -186h-29q-242 0 -402 243q-59 116 -59 235q0 266 261 420q111 52 214 52zM136 511v-11q0 -232 234 -351q76 -28 135 -28h29 q195 0 321 195q47 92 47 177v14q0 225 -222 344q-78 36 -161 36h-3q-237 0 -356 -246q-24 -77 -24 -130zM1005 519h748v29q0 106 -125 238q-120 93 -251 93q-200 0 -324 -187q-48 -89 -48 -173z" />
<glyph unicode="&#x1fe;" horiz-adv-x="1655" d="M848 1800q51 -12 51 -45v-7q0 -21 -76 -106q-54 -82 -93 -82h-4q-27 0 -37 48v4q0 24 108 145q31 43 51 43zM750 1401q258 0 493 -207q159 162 179 162h5q49 -12 49 -46v-7q0 -30 -97 -105l-75 -76q134 -205 134 -413q0 -343 -311 -572q-177 -112 -369 -112h-15 q-224 0 -428 154h-21q-154 -150 -166 -150l-19 -4h-1q-38 0 -46 56q0 22 120 122q4 10 56 47q-176 224 -176 467q0 328 290 554q189 130 398 130zM158 706q0 -204 151 -385l849 798v27q-195 159 -408 159q-293 0 -485 -254q-107 -154 -107 -345zM372 252q188 -131 371 -131 h18q279 0 471 247q110 158 110 345q0 159 -96 329h-29z" />
<glyph unicode="&#x1ff;" horiz-adv-x="1188" d="M622 1387q51 -12 51 -45v-7q0 -21 -76 -106q-54 -82 -93 -82h-4q-27 0 -37 48v4q0 24 108 145q31 43 51 43zM936 987h4q36 0 44 -54q0 -16 -111 -123q122 -149 122 -311q0 -267 -253 -419q-108 -55 -210 -55h-29q-129 0 -289 111q-88 -107 -115 -107h-14q-29 0 -37 53 q0 17 106 119q-106 146 -106 298q0 230 205 387q130 86 269 86q138 0 288 -99q93 114 126 114zM144 509v-18q0 -96 60 -207h30l504 521q-102 71 -220 71q-243 0 -354 -252q-20 -63 -20 -115zM807 744l-526 -545q127 -78 230 -78h21q222 0 340 229q27 74 27 141v18 q0 117 -92 235z" />
<glyph unicode="&#x2c6;" horiz-adv-x="1024" d="M488 1406h28q35 0 117 -119q58 -58 58 -84v-9q-10 -50 -47 -50h-12q-32 0 -115 120h-30q-83 -120 -115 -120h-9q-50 10 -50 47v12q0 28 115 153q32 50 60 50z" />
<glyph unicode="&#x2c7;" horiz-adv-x="1024" d="M333 1405h12q32 0 115 -120h30q83 120 115 120h9q50 -10 50 -47v-12q0 -25 -91 -124q-53 -79 -84 -79h-28q-34 0 -113 115q-62 62 -62 88v9q10 50 47 50z" />
<glyph unicode="&#x2c9;" horiz-adv-x="1059" d="M309 1294l14 -1h402l36 4q35 0 50 -58q0 -35 -47 -52l-55 4h-366l-59 -4q-47 17 -47 53q9 53 72 53v1z" />
<glyph unicode="&#x2d8;" horiz-adv-x="1024" d="M276 1340h12q35 0 62 -72q63 -72 142 -72q119 0 169 123q20 21 39 21h6q53 -9 53 -51v-4q0 -69 -143 -170q-68 -25 -120 -25h-8q-176 0 -259 184v16q10 50 47 50z" />
<glyph unicode="&#x2d9;" horiz-adv-x="1024" d="M514 1337q70 0 91 -85v-18q0 -48 -68 -78q-7 -4 -23 -4h-3q-75 0 -91 96q0 57 71 85q8 4 23 4z" />
<glyph unicode="&#x2da;" horiz-adv-x="1024" d="M493 1422q89 0 142 -96q15 -33 15 -66q0 -105 -124 -150l-32 -4h-13q-100 0 -144 124l-4 31v10q0 106 131 148zM397 1268v-19q23 -79 84 -79h14q78 0 91 94q-16 95 -96 95q-93 -16 -93 -91z" />
<glyph unicode="&#x2db;" horiz-adv-x="1024" d="M475 22h7q33 0 42 -47v-101q0 -36 -66 -46q-40 -29 -40 -70q0 -78 92 -78h105l12 3q45 -10 45 -41v-7q0 -29 -35 -42l-69 4h-38l-56 -4q-58 0 -122 81q-21 40 -21 70v28q0 81 106 140v20l-4 52q14 38 42 38z" />
<glyph unicode="&#x2dc;" horiz-adv-x="1024" d="M429 1670q70 0 178 -70l44 -5l78 23h1q49 -8 49 -47v-4q0 -49 -102 -65l-36 -4q-70 0 -171 71l-41 5l-82 -22q-49 9 -49 45v8q0 50 118 62z" />
<glyph unicode="&#x2dd;" horiz-adv-x="1024" d="M415 1404h2q53 -9 53 -47v-20q0 -13 -162 -224q-10 -11 -17 -11h-8q-13 0 -19 22q101 253 118 269q19 11 33 11zM661 1392q57 -11 57 -55q0 -23 -103 -153q-61 -94 -76 -94h-12q-13 0 -19 22q0 9 108 255q25 25 45 25z" />
<glyph unicode="&#x384;" horiz-adv-x="392" d="M253 1400q51 -12 51 -45v-7q0 -21 -76 -106q-54 -82 -93 -82h-4q-27 0 -37 48v4q0 24 108 145q31 43 51 43z" />
<glyph unicode="&#x385;" horiz-adv-x="797" d="M446 1365q51 -12 51 -45v-7q0 -21 -76 -106q-54 -82 -93 -82h-4q-27 0 -37 48v4q0 24 108 145q31 43 51 43zM154 1284q58 -14 58 -53q-11 -57 -53 -57q-57 11 -57 52q14 58 52 58zM606 1284q58 -14 58 -53q-11 -57 -53 -57q-57 11 -57 52q14 58 52 58z" />
<glyph unicode="&#x386;" horiz-adv-x="1254" d="M341 1496q51 -12 51 -45v-7q0 -21 -76 -106q-54 -82 -93 -82h-4q-27 0 -37 48v4q0 24 108 145q31 43 51 43zM566 1403q49 0 78 -121q454 -1181 457 -1205v-9q0 -35 -48 -43h-2q-46 0 -70 110l-176 457h-474l-210 -553q-17 -14 -32 -14h-6q-48 9 -48 46l126 341 q336 874 363 965q23 26 42 26zM549 1167l-177 -478h384v34l-169 444h-38z" />
<glyph unicode="&#x387;" horiz-adv-x="405" d="M179 977q70 0 91 -85v-18q0 -48 -68 -78q-7 -4 -23 -4h-3q-75 0 -91 96q0 57 71 85q8 4 23 4z" />
<glyph unicode="&#x388;" horiz-adv-x="1347" d="M393 1405l-9 2h746l15 4q40 0 48 -57q-10 -44 -58 -44h-717v-560h480l53 3q30 0 42 -53q0 -30 -41 -48l-69 4h-465v-534h736q31 0 38 -52q-13 -45 -42 -45h-780q-49 9 -49 47v1286q7 49 72 49v-2zM191 1435q51 -12 51 -45v-7q0 -21 -76 -106q-54 -82 -93 -82h-4 q-27 0 -37 48v4q0 24 108 145q31 43 51 43z" />
<glyph unicode="&#x389;" horiz-adv-x="1466" d="M200 1400q51 -12 51 -45v-7q0 -21 -76 -106q-54 -82 -93 -82h-4q-27 0 -37 48v4q0 24 108 145q31 43 51 43zM365 1412h12q46 -9 46 -35v-623h762v610q8 48 43 48h9q45 -9 45 -43v-1301q0 -29 -50 -39h1q-48 9 -48 47v585h-762v-589q0 -35 -48 -43h-2q-37 0 -47 53v1271 q6 59 39 59z" />
<glyph unicode="&#x38a;" horiz-adv-x="748" d="M182 1427q51 -12 51 -45v-7q0 -21 -76 -106q-54 -82 -93 -82h-4q-27 0 -37 48v4q0 24 108 145q31 43 51 43zM369 1422l15 -2h146l13 2q51 -10 51 -48q-9 -53 -47 -53h-41v-1197h48q30 0 40 -51v1q-9 -49 -47 -49h-178q-49 9 -49 47v1q10 51 40 51h48v1197h-41 q-41 0 -47 56v3q0 28 49 42z" />
<glyph unicode="&#x38c;" horiz-adv-x="1734" d="M191 1423q51 -12 51 -45v-7q0 -21 -76 -106q-54 -82 -93 -82h-4q-27 0 -37 48v4q0 24 108 145q31 43 51 43zM887 1410q350 0 586 -325q106 -184 106 -371q0 -346 -314 -576q-177 -113 -371 -113h-15q-357 0 -583 333q-102 167 -102 363q0 331 292 558q189 131 401 131z M291 710q0 -286 252 -481q158 -107 336 -107h19q280 0 473 248q111 160 111 348q0 323 -295 511q-146 84 -300 84q-295 0 -489 -256q-107 -154 -107 -347z" />
<glyph unicode="&#x38e;" horiz-adv-x="1457" d="M209 1418q51 -12 51 -45v-7q0 -21 -76 -106q-54 -82 -93 -82h-4q-27 0 -37 48v4q0 24 108 145q31 43 51 43zM414 1408h16q32 0 57 -59l354 -529h30q377 569 389 578q13 10 19 10h23q26 0 39 -50q0 -21 -124 -192l-312 -464v-618q-6 -59 -39 -59h-16q-31 0 -43 40v617 q0 22 -163 265l-266 400l-3 13q11 48 39 48z" />
<glyph unicode="&#x38f;" horiz-adv-x="1646" d="M756 1412q354 0 592 -328q107 -192 107 -360q0 -328 -247 -543h-20v-54h187q50 -10 50 -39v-13q-10 -46 -44 -46h-492q-38 0 -46 53q12 45 43 45q115 0 307 164q167 196 167 425q0 284 -254 489q-170 108 -335 108h-30q-285 0 -481 -259q-108 -166 -108 -338 q0 -345 317 -535q55 -34 180 -64q29 -12 29 -44q-14 -48 -48 -48h-482q-53 11 -53 48q12 51 48 51h185v40q-99 75 -168 181q-103 180 -103 379q0 324 299 559q192 129 400 129zM176 1414q51 -12 51 -45v-7q0 -21 -76 -106q-54 -82 -93 -82h-4q-27 0 -37 48v4q0 24 108 145 q31 43 51 43z" />
<glyph unicode="&#x390;" horiz-adv-x="740" d="M389 1752q51 -12 51 -45v-7q0 -21 -76 -106q-54 -82 -93 -82h-4q-27 0 -37 48v4q0 24 108 145q31 43 51 43zM97 1671q58 -14 58 -53q-11 -57 -53 -57q-57 11 -57 52q14 58 52 58zM549 1671q58 -14 58 -53q-11 -57 -53 -57q-57 11 -57 52q14 58 52 58zM246 1422l15 -2h146 l13 2q51 -10 51 -48q-9 -53 -47 -53h-41v-1197h48q30 0 40 -51v1q-9 -49 -47 -49h-178q-49 9 -49 47v1q10 51 40 51h48v1197h-41q-41 0 -47 56v3q0 28 49 42z" />
<glyph unicode="&#x391;" horiz-adv-x="1246" d="M566 1403q49 0 78 -121q454 -1181 457 -1205v-9q0 -35 -48 -43h-2q-46 0 -70 110l-176 457h-474l-210 -553q-17 -14 -32 -14h-6q-48 9 -48 46l126 341q336 874 363 965q23 26 42 26zM549 1167l-177 -478h384v34l-169 444h-38z" />
<glyph unicode="&#x392;" horiz-adv-x="991" d="M125 1402l-9 2h234l15 3q158 0 272 -152q56 -83 56 -181v-11q0 -120 -116 -252q259 -143 259 -385q0 -243 -253 -373q-80 -28 -144 -28h-337q-49 9 -49 47v1283q7 49 72 49v-2zM150 1307v-473h164q202 0 261 148q17 42 17 85v11q0 164 -191 225l-82 4h-169zM150 737v-615 h221q230 0 311 135q53 75 53 169v7q0 221 -242 297l-110 7h-233z" />
<glyph unicode="&#x393;" horiz-adv-x="1030" d="M96 1408h727q46 -9 46 -35v-19q0 -35 -49 -43h-666v-1243q0 -35 -48 -43h-2q-37 0 -47 53v1271q6 59 39 59z" />
<glyph unicode="&#x394;" horiz-adv-x="1242" d="M570 1407h12q39 0 63 -99q460 -1200 467 -1235v-1q0 -31 -37 -47l-77 4h-844l-75 -4q-39 14 -39 49l496 1315q17 18 34 18zM559 1178l-399 -1052h832q-391 1041 -433 1052z" />
<glyph unicode="&#x395;" horiz-adv-x="1109" d="M129 1405l-9 2h746l15 4q40 0 48 -57q-10 -44 -58 -44h-717v-560h480l53 3q30 0 42 -53q0 -30 -41 -48l-69 4h-465v-534h736q31 0 38 -52q-13 -45 -42 -45h-780q-49 9 -49 47v1286q7 49 72 49v-2z" />
<glyph unicode="&#x396;" horiz-adv-x="1342" d="M122 1412h1021q34 0 43 -49v-1q0 -20 -77 -110l-874 -1129h902q49 -7 49 -47v-2q-9 -49 -47 -49h-1009q-38 0 -47 57q0 17 177 237l771 996h-895q-53 11 -53 47q11 50 39 50z" />
<glyph unicode="&#x397;" horiz-adv-x="1223" d="M114 1412h12q46 -9 46 -35v-623h762v610q8 48 43 48h9q45 -9 45 -43v-1301q0 -29 -50 -39h1q-48 9 -48 47v585h-762v-589q0 -35 -48 -43h-2q-37 0 -47 53v1271q6 59 39 59z" />
<glyph unicode="&#x398;" horiz-adv-x="1611" d="M761 1406q349 0 585 -324q105 -183 105 -370q0 -345 -313 -574q-177 -113 -370 -113h-15q-355 0 -582 332q-101 167 -101 362q0 330 291 556q189 131 400 131zM167 708q0 -286 251 -479q157 -107 335 -107h19q279 0 472 247q110 159 110 347q0 322 -294 510 q-145 83 -299 83q-295 0 -487 -255q-107 -154 -107 -346zM406 762h710q49 -9 49 -46v-2q-9 -49 -47 -49h-716q-46 10 -46 43v15q0 29 50 39z" />
<glyph unicode="&#x399;" horiz-adv-x="581" d="M158 1422l15 -2h146l13 2q51 -10 51 -48q-9 -53 -47 -53h-41v-1197h48q30 0 40 -51v1q-9 -49 -47 -49h-178q-49 9 -49 47v1q10 51 40 51h48v1197h-41q-41 0 -47 56v3q0 28 49 42z" />
<glyph unicode="&#x39a;" horiz-adv-x="1118" d="M93 1409h1q49 -8 49 -43v-713q735 734 733 734l27 4h3q45 -9 45 -43v-12q0 -25 -71 -83l-482 -485l543 -672l2 -15v-9q0 -35 -48 -43h-2q-32 0 -105 107l-463 562l-182 -186v-444q0 -35 -49 -43h-1q-37 0 -47 52v1280q10 52 47 52z" />
<glyph unicode="&#x39b;" horiz-adv-x="1232" d="M567 1413h11q40 0 63 -99q463 -1205 470 -1240q-9 -49 -47 -49h-4q-34 0 -52 52q-412 1102 -454 1102l-429 -1135q-20 -19 -40 -19h-4q-38 0 -46 52l497 1318q17 18 35 18z" />
<glyph unicode="&#x39c;" horiz-adv-x="1479" d="M99 1407h15q39 0 59 -81l497 -1111q47 55 366 784l184 396q12 12 28 12h15q33 0 39 -59v-1270q-10 -53 -47 -53h-2q-48 8 -48 43v966h-45q-429 -973 -441 -992q-20 -17 -38 -17q-48 0 -94 143l-385 862h-45v-962q0 -35 -48 -43h-2q-37 0 -47 53v1270q6 59 39 59z" />
<glyph unicode="&#x39d;" horiz-adv-x="1329" d="M105 1406h15q32 0 62 -64q58 -65 830 -1062q-5 0 -5 6l16 -21h41v1096q9 45 43 45h11q35 0 43 -48v-1283q0 -41 -56 -50q-28 0 -110 122l-832 1062v-1137q0 -35 -49 -43h-1q-37 0 -47 52v1266q6 59 39 59z" />
<glyph unicode="&#x39e;" horiz-adv-x="1158" d="M83 1407h874q45 -9 45 -43v-15q0 -33 -59 -39h-846q-53 11 -53 47q11 50 39 50zM205 778h634q49 -8 49 -47v-1q-9 -49 -47 -49h-636q-37 0 -46 49q12 48 46 48zM91 123h862q49 -9 49 -43v-10q-9 -45 -43 -45h-868q-37 0 -46 50q12 48 46 48z" />
<glyph unicode="&#x39f;" horiz-adv-x="1620" d="M768 1410q350 0 586 -325q106 -184 106 -371q0 -346 -314 -576q-177 -113 -371 -113h-15q-357 0 -583 333q-102 167 -102 363q0 331 292 558q189 131 401 131zM172 710q0 -286 252 -481q158 -107 336 -107h19q280 0 473 248q111 160 111 348q0 323 -295 511 q-146 84 -300 84q-295 0 -489 -256q-107 -154 -107 -347z" />
<glyph unicode="&#x3a0;" horiz-adv-x="1184" d="M105 1406h870q45 -9 45 -43v-1299q0 -29 -50 -39h2q-49 9 -49 47v1236h-760v-1240q0 -35 -49 -43h-1q-37 0 -47 52v1269q6 60 39 60z" />
<glyph unicode="&#x3a1;" horiz-adv-x="946" d="M96 1413h346q189 0 323 -197q50 -100 50 -180v-27q0 -177 -161 -306q-109 -75 -212 -75h-287v-560q0 -34 -49 -43h-2q-37 0 -47 53v1275q6 60 39 60zM155 1315v-589h260q207 0 285 198q17 42 17 100q0 183 -186 270q-47 21 -108 21h-268z" />
<glyph unicode="&#x3a3;" horiz-adv-x="1124" d="M106 1290h802q39 -8 39 -38v-14q0 -28 -52 -34h-684q446 -510 463 -535l2 -13v-9q0 -22 -70 -87l-354 -412v-37h652q43 -8 43 -38v-8q-8 -40 -37 -40h-797q-32 0 -41 47q0 16 70 77l435 505l-499 574q-6 10 -6 18q10 44 34 44z" />
<glyph unicode="&#x3a4;" horiz-adv-x="1262" d="M104 1411h931q45 -9 45 -43v-15q0 -33 -59 -39h-400v-1246q0 -35 -49 -43h-1q-37 0 -47 53v1236h-406q-53 11 -53 47q11 50 39 50z" />
<glyph unicode="&#x3a5;" horiz-adv-x="1237" d="M117 1408h16q32 0 56 -59l354 -529h31q377 569 388 578q14 10 20 10h23q26 0 39 -50q0 -21 -125 -192l-311 -464v-618q-7 -59 -39 -59h-16q-31 0 -43 40v617q0 22 -164 265l-266 400l-2 13q11 48 39 48z" />
<glyph unicode="&#x3a6;" horiz-adv-x="1629" d="M748 1414h9q46 -9 46 -43v-99q202 -16 388 -120q261 -184 261 -434q0 -234 -241 -413q-110 -84 -326 -128q-82 -4 -82 -36v-76q0 -30 -50 -40h1q-49 9 -49 47v101h-29q-133 0 -334 103q-283 181 -283 446q0 251 266 431q112 81 380 120v92q8 49 43 49zM157 722 q0 -278 331 -434q128 -43 217 -43v956q-221 -25 -376 -142q-172 -154 -172 -337zM803 1202v-957h28q155 0 354 138q165 153 165 320v34q0 223 -259 381q-91 55 -288 84z" />
<glyph unicode="&#x3a7;" horiz-adv-x="1338" d="M106 1412h16q29 0 51 -44l446 -571l475 610q9 5 21 5h12q34 0 43 -49v-1q0 -24 -96 -136l-396 -509l486 -622l6 -22v1q-9 -49 -47 -49h-4q-33 0 -62 60l-438 559l-477 -611q-10 -8 -24 -8h-2q-49 9 -49 47v11q0 16 158 208l334 433q-481 609 -489 627l-3 14q11 47 39 47z " />
<glyph unicode="&#x3a8;" horiz-adv-x="1342" d="M98 1412h13q46 -9 46 -36v-315q11 -139 44 -215q91 -176 258 -233l100 -28v767q7 60 40 60h12q46 -9 46 -36v-783h30q112 7 260 141q117 139 117 350v283q9 45 43 45h11q35 0 44 -49v-332q0 -311 -309 -492q-132 -51 -196 -51v-420q0 -34 -49 -43h-1q-37 0 -48 53v408 q-105 9 -243 81q-257 179 -257 487v299q6 59 39 59z" />
<glyph unicode="&#x3a9;" horiz-adv-x="1658" d="M756 1412q354 0 592 -328q107 -192 107 -360q0 -328 -247 -543h-20v-54h187q50 -10 50 -39v-13q-10 -46 -44 -46h-492q-38 0 -46 53q12 45 43 45q115 0 307 164q167 196 167 425q0 284 -254 489q-170 108 -335 108h-30q-285 0 -481 -259q-108 -166 -108 -338 q0 -345 317 -535q55 -34 180 -64q29 -12 29 -44q-14 -48 -48 -48h-482q-53 11 -53 48q12 51 48 51h185v40q-99 75 -168 181q-103 180 -103 379q0 324 299 559q192 129 400 129z" />
<glyph unicode="&#x3aa;" horiz-adv-x="648" d="M119 1658h12q46 -9 46 -35v-19q0 -34 -47 -43q-50 10 -50 48q11 49 39 49zM412 1658h5q46 -10 46 -39v-11q0 -39 -50 -47q-47 10 -47 47v11q0 29 46 39zM188 1405l15 -3h145l13 3q49 -10 49 -48q-9 -52 -46 -52h-40v-1183h47q29 0 39 -49v1q-8 -49 -46 -49h-175 q-49 9 -49 47q10 50 39 50h48v1183h-40q-41 0 -47 55v3q0 27 48 42z" />
<glyph unicode="&#x3ab;" horiz-adv-x="1216" d="M96 1408h16q32 0 56 -59l354 -529h31q377 569 388 578q14 10 20 10h23q26 0 39 -50q0 -21 -125 -192l-311 -464v-618q-7 -59 -39 -59h-16q-31 0 -43 40v617q0 22 -164 265l-266 400l-2 13q11 48 39 48zM387 1662h12q46 -9 46 -35v-19q0 -34 -47 -43q-50 10 -50 48 q11 49 39 49zM679 1662h6q46 -10 46 -39v-11q0 -39 -50 -47q-47 10 -47 47v11q0 29 45 39z" />
<glyph unicode="&#x3ac;" horiz-adv-x="1414" d="M549 990q243 0 405 -229l49 -97q40 64 128 302q18 24 39 24q51 -10 51 -47q-3 -18 -161 -435q161 -420 161 -431q-12 -52 -49 -52q-49 0 -84 141l-58 155h-42q-52 -128 -165 -205q-118 -91 -281 -91h-15q-194 0 -362 184q-102 144 -102 299q0 260 250 422q124 60 236 60z M158 508q0 -234 233 -357q84 -31 162 -31q224 0 349 233l55 154q-69 238 -186 314q-101 71 -214 71h-19q-210 0 -333 -202q-47 -96 -47 -182zM645 1395q51 -12 51 -45v-7q0 -21 -76 -106q-54 -82 -93 -82h-4q-27 0 -37 48v4q0 24 108 145q31 43 51 43z" />
<glyph unicode="&#x3ad;" horiz-adv-x="900" d="M348 992h37q150 0 299 -156q19 -20 19 -37v-8q0 -37 -63 -47q-33 0 -92 77q-105 72 -176 72h-21q-109 0 -167 -131v-55q0 -88 123 -137q20 -10 57 -10h66q59 -9 59 -48v-7q0 -44 -87 -44q-142 0 -195 -108l-15 -61q32 -168 185 -168h4q119 0 239 139q19 10 35 10 q52 0 61 -57v2q-25 -74 -167 -150q-84 -43 -168 -43h-17q-171 0 -269 169q-19 56 -19 100q0 104 116 212q-129 110 -129 224q0 173 221 255zM485 1391q51 -12 51 -45v-7q0 -21 -76 -106q-54 -82 -93 -82h-4q-27 0 -37 48v4q0 24 108 145q31 43 51 43z" />
<glyph unicode="&#x3ae;" horiz-adv-x="1191" d="M104 975q48 -12 48 -37v-137q195 174 374 174q195 0 348 -163q111 -138 111 -289v-881q0 -29 -50 -36q-43 12 -43 44v825q0 293 -257 388q-61 15 -109 15h-11q-215 0 -331 -219q-32 -70 -32 -213v-385q0 -33 -47 -41h-1q-35 0 -45 50v845q6 60 45 60zM599 1374 q51 -12 51 -45v-7q0 -21 -76 -106q-54 -82 -93 -82h-4q-27 0 -37 48v4q0 24 108 145q31 43 51 43z" />
<glyph unicode="&#x3af;" horiz-adv-x="467" d="M175 983q48 -12 48 -38v-879q0 -33 -47 -41h-2q-35 0 -45 51v846q6 61 46 61zM249 1366q51 -12 51 -45v-7q0 -21 -76 -106q-54 -82 -93 -82h-4q-27 0 -37 48v4q0 24 108 145q31 43 51 43z" />
<glyph unicode="&#x3b0;" horiz-adv-x="1203" d="M129 979q48 -12 48 -37v-392q0 -266 154 -358q95 -74 215 -74q230 0 346 236q24 76 24 152v423q10 50 45 50q48 -11 48 -45v-465q0 -206 -199 -361q-125 -83 -253 -83h-25q-215 0 -375 213q-73 113 -73 282v399q6 60 45 60zM610 1365q51 -12 51 -45v-7q0 -21 -76 -106 q-54 -82 -93 -82h-4q-27 0 -37 48v4q0 24 108 145q31 43 51 43zM318 1284q58 -14 58 -53q-11 -57 -53 -57q-57 11 -57 52q14 58 52 58zM770 1284q58 -14 58 -53q-11 -57 -53 -57q-57 11 -57 52q14 58 52 58z" />
<glyph unicode="&#x3b1;" horiz-adv-x="1414" d="M562 990q243 0 405 -229l49 -97q40 64 128 302q18 24 39 24q51 -10 51 -47q-3 -18 -161 -435q161 -420 161 -431q-12 -52 -49 -52q-49 0 -84 141l-58 155h-42q-52 -128 -165 -205q-118 -91 -281 -91h-15q-194 0 -362 184q-102 144 -102 299q0 260 250 422q124 60 236 60z M171 508q0 -234 233 -357q84 -31 162 -31q224 0 349 233l55 154q-69 238 -186 314q-101 71 -214 71h-19q-210 0 -333 -202q-47 -96 -47 -182z" />
<glyph unicode="&#x3b2;" horiz-adv-x="999" d="M426 1409h4q221 0 334 -223q25 -63 25 -127v-15q0 -146 -138 -276v-28q191 -126 191 -332q0 -216 -223 -344q-93 -36 -170 -36q-119 0 -281 114v-489q-1 -51 -47 -52.5t-53 41.5v77v629v132v591q0 178 194 300q83 38 164 38zM168 1000v-599q0 -131 121 -221 q72 -50 164 -50q205 0 277 212l9 57v17q0 201 -223 275l-58 3h-129q-50 8 -50 47v16q0 27 47 39h62q214 0 280 160q17 52 17 88v19q0 173 -204 241l-54 4q-185 0 -252 -198z" />
<glyph unicode="&#x3b3;" horiz-adv-x="1057" d="M143 983q45 0 80 -125l250 -618h41q284 716 294 726q25 16 35 17q51 -10 51 -50q0 -14 -346 -862l-8 -35v-402q0 -38 -50 -46q-46 10 -46 46v411q0 27 -348 869l-3 18q10 51 50 51z" />
<glyph unicode="&#x3b4;" horiz-adv-x="1233" d="M173 1408l11 -1h706q52 -10 52 -47v-6q-9 -45 -68 -45h-568l573 -421q169 -163 169 -370q0 -277 -263 -436q-113 -57 -218 -57h-30q-198 0 -369 187q-105 148 -105 306q0 265 251 427q118 57 237 57l-435 327q-11 16 -11 29q8 49 68 49v1zM164 529v-19q0 -222 213 -343 q79 -41 167 -41h23q230 0 351 238q29 75 29 146v19q0 185 -169 311q-100 69 -226 69q-252 0 -367 -262q-21 -65 -21 -118z" />
<glyph unicode="&#x3b5;" horiz-adv-x="896" d="M348 992h37q150 0 299 -156q19 -20 19 -37v-8q0 -37 -63 -47q-33 0 -92 77q-105 72 -176 72h-21q-109 0 -167 -131v-55q0 -88 123 -137q20 -10 57 -10h66q59 -9 59 -48v-7q0 -44 -87 -44q-142 0 -195 -108l-15 -61q32 -168 185 -168h4q119 0 239 139q19 10 35 10 q52 0 61 -57v2q-25 -74 -167 -150q-84 -43 -168 -43h-17q-171 0 -269 169q-19 56 -19 100q0 104 116 212q-129 110 -129 224q0 173 221 255z" />
<glyph unicode="&#x3b6;" horiz-adv-x="1052" d="M249 1410h582q47 -9 47 -35v-19q0 -29 -61 -59q-445 -394 -496 -450q-97 -128 -97 -282q0 -249 233 -389q96 -58 253 -58q114 -28 165 -96q56 -75 56 -160v-4q0 -183 -203 -252h-1q-50 10 -50 40v15q0 36 76 57q84 54 84 144q0 102 -104 150l-45 12l-34 -4 q-223 0 -409 204q-119 162 -119 322v42q0 252 265 460l297 264h-429q-53 10 -53 47v2q8 49 43 49z" />
<glyph unicode="&#x3b7;" horiz-adv-x="1178" d="M104 975q48 -12 48 -37v-137q195 174 374 174q195 0 348 -163q111 -138 111 -289v-881q0 -29 -50 -36q-43 12 -43 44v825q0 293 -257 388q-61 15 -109 15h-11q-215 0 -331 -219q-32 -70 -32 -213v-385q0 -33 -47 -41h-1q-35 0 -45 50v845q6 60 45 60z" />
<glyph unicode="&#x3b8;" horiz-adv-x="1158" d="M533 1405q230 0 353 -247q70 -215 70 -398v-86q0 -225 -91 -451q-129 -198 -324 -198h-12q-212 0 -334 227q-81 206 -81 459v12q0 269 95 484q131 198 324 198zM195 765h676q0 193 -83 399q-104 148 -251 148q-171 0 -264 -173q-64 -174 -66 -290zM198 669 q5 -176 75 -386q100 -165 253 -165h11q262 0 315 364q19 108 19 187h-673z" />
<glyph unicode="&#x3b9;" horiz-adv-x="442" d="M163 983q48 -12 48 -38v-879q0 -33 -47 -41h-2q-35 0 -45 51v846q6 61 46 61z" />
<glyph unicode="&#x3ba;" horiz-adv-x="1086" d="M118 1048l16 1q34 -9 37 -57v-411q573 380 656 427h12q39 0 47 -56q0 -29 -109 -87q-290 -196 -319 -201v-33l425 -540l3 -14v1q-9 -49 -47 -49h-7q-31 0 -113 118l-349 434h-22l-177 -113v-400q0 -35 -49 -43h-2q-35 0 -47 46v922q9 46 45 55z" />
<glyph unicode="&#x3bb;" horiz-adv-x="1120" d="M357 1357l600 -1257q9 -70 -36 -73t-70 40l-337 702h-37q-320 -686 -352 -728q-27 -35 -69.5 -15t-4.5 107l236 497l145 306l-173 374q-23 76 28 88.5t70 -41.5z" />
<glyph unicode="&#x3bc;" horiz-adv-x="1199" d="M116 979q48 -12 48 -37v-393q0 -266 154 -359q96 -73 216 -73q230 0 346 236q24 76 24 152v424q10 50 45 50q48 -11 48 -45v-873q0 -28 -47 -37h1q-47 8 -47 44v95h-39q-153 -139 -320 -139h-26q-162 0 -355 174v-552q0 -26 -51 -37q-31 0 -42 54v1256q6 60 45 60z" />
<glyph unicode="&#x3bd;" horiz-adv-x="1220" d="M131 1004h7q41 0 79 -109l345 -709q371 786 389 805q17 13 30 13q52 -10 52 -46v-4q0 -13 -162 -350l-276 -565q-18 -14 -33 -14h-3q-46 0 -90 128q-363 742 -381 794v12q9 45 43 45z" />
<glyph unicode="&#x3be;" horiz-adv-x="951" d="M382 1408h180q50 -9 50 -47v-2q-9 -50 -48 -50h-167q-160 0 -207 -148l-9 -47q29 -201 201 -201h6l88 18q48 -12 48 -39v-23q0 -36 -97 -52q-227 -116 -227 -324v-27q0 -204 210 -315q39 -24 221 -41q190 -74 190 -249v-4q0 -183 -204 -253q-51 10 -51 40v15q0 37 77 57 q83 56 83 147q-27 160 -166 160l-11 -4q-223 0 -382 220q-69 127 -69 238q0 184 167 360q-182 106 -182 280q0 169 180 267q53 24 119 24z" />
<glyph unicode="&#x3bf;" horiz-adv-x="1245" d="M561 979q184 0 334 -140q143 -149 143 -337q0 -268 -254 -421q-110 -56 -212 -56h-29q-192 0 -358 182q-101 142 -101 295q0 232 206 390q132 87 271 87zM181 513v-18q0 -215 207 -334q76 -39 162 -39h22q223 0 342 231q27 74 27 142v18q0 179 -163 302q-98 67 -221 67 q-244 0 -356 -254q-20 -63 -20 -115z" />
<glyph unicode="&#x3c0;" horiz-adv-x="1165" d="M133 982l11 -1h772l37 3q44 -15 44 -41v-11q0 -31 -41 -45l-55 4h-44v-825q0 -33 -47 -41h-2q-35 0 -45 51v815h-462v-828q0 -29 -47 -38q-47 8 -47 45v821h-44l-55 -4q-41 15 -41 47q8 47 66 47v1z" />
<glyph unicode="&#x3c1;" horiz-adv-x="1187" d="M542 995q185 0 336 -141q145 -152 145 -341q0 -271 -257 -426q-111 -56 -214 -56h-30q-166 0 -369 183v-567q0 -27 -52 -38q-30 0 -42 52v819q0 367 346 494q42 13 137 21zM157 524v-19q0 -217 209 -336q77 -40 164 -40h22q226 0 345 233q28 74 28 143v19q0 182 -165 305 q-99 68 -223 68q-246 0 -359 -257q-21 -64 -21 -116z" />
<glyph unicode="&#x3c2;" horiz-adv-x="997" d="M559 993q147 0 147 -59v-17q-12 -42 -47 -42h-10l-84 12q-244 0 -357 -243q-18 -43 -26 -137q0 -240 253 -357q63 -16 202 -29q201 -78 201 -263v-4q0 -194 -215 -267h-2q-53 11 -53 43v16q0 40 81 61q87 58 87 151q0 118 -131 164l-32 6l-14 -5q-268 0 -426 263 q-53 105 -53 196v44q0 243 247 406q127 61 232 61z" />
<glyph unicode="&#x3c3;" horiz-adv-x="1355" d="M514 981l80 -4h521l29 4q43 -14 43 -38v-22q0 -22 -38 -37l-57 4h-268q187 -199 187 -385q0 -241 -220 -401q-126 -77 -247 -77h-29q-202 0 -362 188q-98 136 -98 275v33q0 217 217 383q140 77 242 77zM148 503q0 -235 240 -357q78 -24 127 -24h33q192 0 314 188 q52 90 52 200q0 207 -204 331q-85 43 -184 43q-207 0 -331 -200q-47 -95 -47 -181z" />
<glyph unicode="&#x3c4;" horiz-adv-x="1187" d="M146 984l11 -1h783l29 4q43 -13 43 -45v-8q0 -30 -38 -45l-57 4h-322v-817q-10 -51 -45 -51h-2q-47 8 -47 41v827h-325l-54 -4q-42 15 -42 47q8 47 66 47v1z" />
<glyph unicode="&#x3c5;" horiz-adv-x="1216" d="M129 979q48 -12 48 -37v-392q0 -266 154 -358q95 -74 215 -74q230 0 346 236q24 76 24 152v423q10 50 45 50q48 -11 48 -45v-465q0 -206 -199 -361q-125 -83 -253 -83h-25q-215 0 -375 213q-73 113 -73 282v399q6 60 45 60z" />
<glyph unicode="&#x3c6;" horiz-adv-x="1213" d="M679 986h28q132 0 268 -208q66 -120 66 -241q0 -293 -279 -456q-116 -47 -187 -47v-387q0 -43 -55 -51q-46 12 -46 43v396q-119 14 -249 102q-190 167 -190 404q0 235 217 404q15 10 28 10h9q47 -9 47 -44v-16q0 -20 -68 -65q-129 -136 -129 -274v-42q0 -207 214 -339 l121 -44v649q0 126 149 195zM575 758v-620h29q102 8 233 124q100 130 100 252v42q0 183 -193 320l-45 10q-87 0 -121 -89z" />
<glyph unicode="&#x3c7;" horiz-adv-x="1237" d="M162 983q37 0 90 -106l305 -477h35q318 509 368 571q13 10 26 12q50 -10 50 -49q0 -26 -178 -287l-219 -349q0 -29 323 -526q74 -112 74 -128q-11 -52 -46 -52q-42 0 -93 107q-50 69 -305 476h-35q-341 -547 -366 -570q-13 -10 -34 -13q-33 0 -44 55v-1q9 33 279 440 q25 50 127 197l-406 643v5q10 52 49 52z" />
<glyph unicode="&#x3c8;" horiz-adv-x="1376" d="M136 994h2q49 -7 49 -48v-303q0 -271 139 -386q75 -85 215 -117l49 -11v801q6 60 40 60h13q47 -9 47 -36v-819h29q112 7 250 130q127 130 127 348v331q9 50 48 50h4q51 0 51 -86v-326q0 -337 -333 -514q-113 -40 -176 -40v-343q0 -35 -50 -44h-2q-38 0 -48 54v331 q-114 9 -260 90q-246 184 -246 485v332q9 61 52 61z" />
<glyph unicode="&#x3c9;" horiz-adv-x="1321" d="M277 991h5q45 -8 45 -44v-4q0 -7 -81 -174q-88 -230 -88 -426v-29q0 -134 149 -186l43 -8q153 0 201 165l4 90v320l-4 36q15 43 40 43h11q37 0 43 -59v-374l3 -27l-3 -10q0 -110 138 -180l59 -8q144 0 197 157l3 40v30q0 274 -169 588v10q8 46 43 46h4q40 0 82 -108 q135 -281 135 -565q0 -178 -184 -269q-50 -20 -98 -20h-22q-118 0 -239 128q-106 -124 -231 -124h-14q-180 0 -270 193q-16 54 -16 92q0 344 183 661q15 16 31 16z" />
<glyph unicode="&#x3ca;" horiz-adv-x="589" d="M268 983q48 -12 48 -38v-879q0 -33 -47 -41h-2q-35 0 -45 51v846q6 61 46 61zM113 1211h12q46 -9 46 -35v-19q0 -34 -47 -43q-50 10 -50 48q11 49 39 49zM406 1211h5q46 -10 46 -39v-11q0 -39 -50 -47q-47 10 -47 47v11q0 29 46 39z" />
<glyph unicode="&#x3cb;" horiz-adv-x="1208" d="M129 979q48 -12 48 -37v-392q0 -266 154 -358q95 -74 215 -74q230 0 346 236q24 76 24 152v423q10 50 45 50q48 -11 48 -45v-465q0 -206 -199 -361q-125 -83 -253 -83h-25q-215 0 -375 213q-73 113 -73 282v399q6 60 45 60zM382 1246h12q46 -9 46 -35v-19q0 -34 -47 -43 q-50 10 -50 48q11 49 39 49zM675 1246h5q46 -10 46 -39v-11q0 -39 -50 -47q-47 10 -47 47v11q0 29 46 39z" />
<glyph unicode="&#x3cc;" horiz-adv-x="1229" d="M561 979q184 0 334 -140q143 -149 143 -337q0 -268 -254 -421q-110 -56 -212 -56h-29q-192 0 -358 182q-101 142 -101 295q0 232 206 390q132 87 271 87zM181 513v-18q0 -215 207 -334q76 -39 162 -39h22q223 0 342 231q27 74 27 142v18q0 179 -163 302q-98 67 -221 67 q-244 0 -356 -254q-20 -63 -20 -115zM593 1362q51 -12 51 -45v-7q0 -21 -76 -106q-54 -82 -93 -82h-4q-27 0 -37 48v4q0 24 108 145q31 43 51 43z" />
<glyph unicode="&#x3cd;" horiz-adv-x="1178" d="M129 979q48 -12 48 -37v-392q0 -266 154 -358q95 -74 215 -74q230 0 346 236q24 76 24 152v423q10 50 45 50q48 -11 48 -45v-465q0 -206 -199 -361q-125 -83 -253 -83h-25q-215 0 -375 213q-73 113 -73 282v399q6 60 45 60zM598 1388q51 -12 51 -45v-7q0 -21 -76 -106 q-54 -82 -93 -82h-4q-27 0 -37 48v4q0 24 108 145q31 43 51 43z" />
<glyph unicode="&#x3ce;" horiz-adv-x="1309" d="M277 991h5q45 -8 45 -44v-4q0 -7 -81 -174q-88 -230 -88 -426v-29q0 -134 149 -186l43 -8q153 0 201 165l4 90v320l-4 36q15 43 40 43h11q37 0 43 -59v-374l3 -27l-3 -10q0 -110 138 -180l59 -8q144 0 197 157l3 40v30q0 274 -169 588v10q8 46 43 46h4q40 0 82 -108 q135 -281 135 -565q0 -178 -184 -269q-50 -20 -98 -20h-22q-118 0 -239 128q-106 -124 -231 -124h-14q-180 0 -270 193q-16 54 -16 92q0 344 183 661q15 16 31 16zM678 1375q51 -12 51 -45v-7q0 -21 -76 -106q-54 -82 -93 -82h-4q-27 0 -37 48v4q0 24 108 145q31 43 51 43z " />
<glyph unicode="&#x2000;" horiz-adv-x="919" />
<glyph unicode="&#x2001;" horiz-adv-x="1838" />
<glyph unicode="&#x2002;" horiz-adv-x="919" />
<glyph unicode="&#x2003;" horiz-adv-x="1838" />
<glyph unicode="&#x2004;" horiz-adv-x="612" />
<glyph unicode="&#x2005;" horiz-adv-x="459" />
<glyph unicode="&#x2006;" horiz-adv-x="306" />
<glyph unicode="&#x2007;" horiz-adv-x="306" />
<glyph unicode="&#x2008;" horiz-adv-x="229" />
<glyph unicode="&#x2009;" horiz-adv-x="367" />
<glyph unicode="&#x200a;" horiz-adv-x="102" />
<glyph unicode="&#x2010;" horiz-adv-x="670" d="M119 623h400q38 0 50 -55q-12 -51 -50 -51h-400q-44 0 -51 57q14 49 51 49z" />
<glyph unicode="&#x2011;" horiz-adv-x="670" d="M119 623h400q38 0 50 -55q-12 -51 -50 -51h-400q-44 0 -51 57q14 49 51 49z" />
<glyph unicode="&#x2013;" horiz-adv-x="1108" d="M156 484l14 -1h722l36 4q38 0 50 -58q0 -33 -44 -52l-62 4h-682l-59 -4q-47 17 -47 53q9 53 72 53v1z" />
<glyph unicode="&#x2014;" horiz-adv-x="2048" d="M72 552l14 -1h1826l36 4q38 0 50 -58q0 -33 -44 -52l-62 4h-1786l-59 -4q-47 17 -47 53q9 53 72 53v1z" />
<glyph unicode="&#x2015;" horiz-adv-x="2007" d="M165 591l14 -1h1602l33 4q49 -14 49 -51v-8q0 -34 -43 -51l-63 4h-1558l-59 -4q-47 17 -47 53q9 53 72 53v1z" />
<glyph unicode="&#x2017;" horiz-adv-x="951" d="M46 -54h882q52 -9 52 -45v-10q-10 -47 -45 -47h-889q-42 0 -49 55q13 47 49 47z" />
<glyph unicode="&#x2018;" horiz-adv-x="557" d="M340 1541q2 -1 2 -6v-3q-59 -141 -60 -249q0 -67 49 -149l3 -13q0 -41 -61 -53q-72 0 -97 228q0 121 132 233z" />
<glyph unicode="&#x2019;" horiz-adv-x="557" d="M236 1533h28q61 0 87 -213v-18q0 -117 -133 -227q-21 -12 -25 -12q-6 2 -8 6q60 144 60 241v12q0 69 -48 151v10q10 50 39 50z" />
<glyph unicode="&#x201a;" horiz-adv-x="557" d="M231 195h28q61 0 87 -213v-18q0 -117 -133 -227q-21 -12 -25 -12q-6 2 -8 6q60 144 60 241v12q0 69 -48 151v10q10 50 39 50z" />
<glyph unicode="&#x201b;" horiz-adv-x="450" d="M263 1473v-10q-49 -82 -49 -151v-12q0 -97 61 -241q-2 -4 -8 -6q-4 0 -26 12q-134 110 -134 227v18q26 213 88 213h28q30 0 40 -50z" />
<glyph unicode="&#x201c;" horiz-adv-x="910" d="M388 1562q2 -1 2 -6v-3q-59 -141 -60 -249q0 -67 49 -149l3 -13q0 -41 -61 -53q-72 0 -97 228q0 121 132 233zM670 1555q8 -3 8 -6q-64 -142 -64 -249q0 -68 52 -159v-3q-10 -53 -47 -53h-16q-61 0 -91 181v66q0 96 127 208q20 15 31 15z" />
<glyph unicode="&#x201d;" horiz-adv-x="910" d="M271 1556h28q61 0 87 -213v-18q0 -117 -133 -227q-21 -12 -25 -12q-6 2 -8 6q60 144 60 241v12q0 69 -48 151v10q10 50 39 50zM575 1560h12q72 0 95 -220v-7q0 -120 -132 -230l-32 -13q-2 0 -2 7v-1q60 141 60 253q0 69 -48 147v22q12 42 47 42z" />
<glyph unicode="&#x201e;" horiz-adv-x="910" d="M253 210h28q61 0 87 -213v-18q0 -117 -133 -227q-21 -12 -25 -12q-6 2 -8 6q60 144 60 241v12q0 69 -48 151v10q10 50 39 50zM557 214h12q72 0 95 -220v-7q0 -120 -132 -230l-32 -13q-2 0 -2 7v-1q60 141 60 253q0 69 -48 147v22q12 42 47 42z" />
<glyph unicode="&#x2020;" d="M484 1416h12q38 0 47 -53v-311h218l36 4q35 0 50 -58q0 -35 -47 -52l-55 4h-202v-1249q0 -46 -58 -54q-48 12 -48 46v1257h-198l-59 -4q-47 17 -47 53q9 53 72 53v1l14 -1h218v315q10 49 47 49z" />
<glyph unicode="&#x2021;" d="M487 1416h12q38 0 47 -53v-311h218l36 4q35 0 50 -58q0 -35 -47 -52l-55 4h-202v-834h261q29 0 42 -52q-10 -54 -54 -54h-249v-309q0 -46 -58 -54q-48 12 -48 46v317h-247q-57 11 -57 52q12 54 43 54h261v834h-198l-59 -4q-47 17 -47 53q9 53 72 53v1l14 -1h218v315 q10 49 47 49z" />
<glyph unicode="&#x2022;" horiz-adv-x="1024" d="M216 718q0 113 79.5 191.5t192.5 78.5q112 0 191 -79t79 -191t-80 -192t-192 -80q-113 0 -191.5 79.5t-78.5 192.5z" />
<glyph unicode="&#x2026;" horiz-adv-x="2048" d="M1608 249q85 0 110 -103v-21q0 -59 -82 -95q-9 -5 -28 -5h-4q-91 0 -110 116q0 69 85 103q10 5 29 5zM917 245q85 0 110 -103v-21q0 -59 -82 -95q-9 -5 -28 -5h-4q-91 0 -110 116q0 69 85 103q10 5 29 5zM244 249q85 0 110 -103v-21q0 -59 -82 -95q-9 -5 -28 -5h-4 q-91 0 -110 116q0 69 85 103q10 5 29 5z" />
<glyph unicode="&#x202f;" horiz-adv-x="367" />
<glyph unicode="&#x2030;" horiz-adv-x="2494" d="M474 1411h19q155 0 264 -142q63 -93 63 -190q0 -217 -226 -320q-63 -18 -105 -18h-7q-195 0 -300 191q-35 71 -35 144q0 220 234 321q46 14 93 14zM1308 1411h8q46 -9 46 -44v-15q0 -13 -135 -186l-857 -1131q-18 -10 -28 -10h-1q-50 10 -50 39v16q0 22 101 143l892 1179 q13 9 24 9zM245 1081v-9q0 -168 186 -230l42 -3h20q165 0 226 190l4 46q0 173 -182 233l-53 9q-172 0 -235 -178zM1171 698q196 0 310 -204q25 -74 25 -130v-12q0 -196 -208 -302q-64 -25 -127 -25h-7q-171 0 -282 166q-46 80 -46 157v23q0 176 177 285q85 42 158 42z M930 365q0 -168 175 -234l57 -8h17q161 0 225 182l4 39v27q0 168 -194 226l-42 4q-179 0 -238 -198zM1964 703q196 0 310 -204q25 -74 25 -130v-12q0 -196 -208 -302q-64 -25 -127 -25h-7q-171 0 -282 166q-46 80 -46 157v23q0 176 177 285q85 42 158 42zM1723 370 q0 -168 175 -234l57 -8h17q161 0 225 182l4 39v27q0 168 -194 226l-42 4q-179 0 -238 -198z" />
<glyph unicode="&#x2032;" horiz-adv-x="455" d="M251 1404h2q53 -9 53 -47v-20q0 -13 -162 -224q-10 -11 -17 -11h-8q-13 0 -19 22q101 253 118 269q19 11 33 11z" />
<glyph unicode="&#x2033;" horiz-adv-x="673" d="M259 1404h2q53 -9 53 -47v-20q0 -13 -162 -224q-10 -11 -17 -11h-8q-13 0 -19 22q101 253 118 269q19 11 33 11zM505 1392q57 -11 57 -55q0 -23 -103 -153q-61 -94 -76 -94h-12q-13 0 -19 22q0 9 108 255q25 25 45 25z" />
<glyph unicode="&#x2039;" horiz-adv-x="631" d="M371 658h6q53 -8 53 -51v-4q0 -38 -107 -109l-13 -13v-27q120 -82 120 -119v-2q-9 -53 -47 -53h-20q-20 0 -190 153l-5 18v40q0 25 140 125q38 42 63 42z" />
<glyph unicode="&#x203a;" horiz-adv-x="631" d="M147 654q28 0 153 -115q54 -33 54 -56v-36q0 -33 -103 -105q-74 -70 -104 -70h-2q-53 10 -53 51v4q0 37 105 106l24 36q-129 91 -129 126v2q11 57 55 57z" />
<glyph unicode="&#x203c;" horiz-adv-x="850" d="M593 1417h12q39 0 48 -46v-950q-12 -50 -51 -50q-57 9 -57 44v959q9 43 48 43zM584 181h6q80 -12 80 -67v-22q0 -51 -73 -67h-9q-59 0 -74 78q16 78 70 78zM189 1417h12q39 0 48 -46v-950q-12 -50 -51 -50q-57 9 -57 44v959q9 43 48 43zM180 181h6q80 -12 80 -67v-22 q0 -51 -73 -67h-9q-59 0 -74 78q16 78 70 78z" />
<glyph unicode="&#x203e;" horiz-adv-x="837" d="M186 1334l14 -1h402l36 4q35 0 50 -58q0 -35 -47 -52l-55 4h-366l-59 -4q-47 17 -47 53q9 53 72 53v1z" />
<glyph unicode="&#x2044;" horiz-adv-x="462" d="M610 1428h12q38 0 47 -53v-2q0 -24 -111 -156q-968 -1257 -975 -1261l-26 -10h-11q-34 0 -47 43v16q0 25 110 156l975 1258q11 9 26 9z" />
<glyph unicode="&#x2215;" horiz-adv-x="462" d="M610 1428h12q38 0 47 -53v-2q0 -24 -111 -156q-968 -1257 -975 -1261l-26 -10h-11q-34 0 -47 43v16q0 25 110 156l975 1258q11 9 26 9z" />
<glyph unicode="&#x205f;" horiz-adv-x="459" />
<glyph unicode="&#x207f;" horiz-adv-x="787" d="M94 1040q20 -5 20 -13v-105q131 118 235 118q113 0 202 -95q64 -80 64 -167v-281q0 -8 -19 -12h2q-19 4 -19 17v247q0 183 -161 243q-39 10 -69 10h-7q-135 0 -208 -138q-20 -44 -20 -133v-231q0 -12 -19 -15q-13 0 -17 21v507q3 27 16 27z" />
<glyph unicode="&#x20a3;" horiz-adv-x="1127" d="M250 1406l-10 2h725l15 4q37 0 45 -57q-10 -44 -56 -44h-696v-561h466l51 4q29 0 40 -54q0 -30 -38 -47l-68 4h-451v-308h148l33 4q32 0 43 -53q0 -31 -38 -48l-57 4h-129v-163l4 -20q-11 -48 -45 -48h-5q-47 9 -47 47v184h-125l-55 -4q-40 13 -40 47v7q0 33 40 47l33 -4 h147v1010q7 49 70 49v-2z" />
<glyph unicode="&#x20a4;" horiz-adv-x="946" d="M414 1403h38q164 0 277 -151l3 -15q-12 -52 -50 -52q-24 0 -81 65q-73 56 -149 56h-23q-167 0 -236 -197l-3 -53q0 -66 78 -212l36 -78h270q53 -11 53 -47q-11 -50 -39 -50h-237l15 -106h208q49 -9 49 -47v-2q-9 -48 -47 -48h-188q-27 0 -47 -89l-112 -255h419 q22 0 62 89q20 20 38 20q52 -10 52 -50q0 -21 -67 -142q-15 -14 -32 -14h-554q-37 0 -47 51q1 12 141 318l23 72h-179q-45 9 -45 43v11q0 34 49 43h182l-20 106h-162q-49 10 -49 45q10 52 50 52h111q-108 189 -108 293q0 210 221 323q69 21 100 21z" />
<glyph unicode="&#x20a7;" horiz-adv-x="2028" d="M98 1315v-589h260q207 0 285 198q17 42 17 100q0 183 -186 270q-47 21 -108 21h-268zM1253 890q49 37 70 50q106 56 210 56q243 0 380 -216l2 -22v-3q0 -37 -51 -45q-33 0 -78 76q-113 109 -253 109q-185 0 -294 -179l-4 -26q0 -74 132 -86q423 -102 459 -115 q93 -62 93 -156v-3q0 -139 -212 -260q-91 -41 -196 -41q-111 0 -235 72q-16 -76 -51 -76h-77q-159 0 -237 175q-13 42 -13 101v586h-161q-45 -107 -140 -184q-109 -75 -212 -75h-287v-560q0 -34 -49 -43h-2q-37 0 -47 53v1275q6 60 39 60h346q189 0 323 -197 q50 -100 50 -180v-60h140v332q6 57 38 57h11q44 -9 44 -34v-355h178l33 4q28 0 51 -90zM1257 112q-79 79 -107 117q-10 16 -10 27v22q0 32 58 38q21 0 80 -85q108 -100 248 -100q169 0 282 162l9 29v8q0 70 -87 80q-489 109 -514 131q-83 63 -83 151q0 76 105 190l-85 5 h-162v-564q0 -159 112 -198z" />
<glyph unicode="&#x20ac;" horiz-adv-x="1193" d="M700 1432q218 0 403 -130q9 -18 9 -29v-7q0 -42 -57 -48h4l-131 67q-139 44 -228 44q-276 0 -480 -244q-45 -68 -90 -178h779q50 -8 50 -48v-2q-9 -50 -48 -50h-802l-6 -78l6 -83h800q50 -8 50 -48v-2q-9 -49 -48 -49h-781q106 -263 326 -367q122 -52 236 -52h12 q175 0 348 108h13q47 -10 47 -44v-12q0 -62 -239 -133q-77 -22 -162 -22h-19q-347 0 -581 323q-111 186 -111 381q0 365 334 596q178 107 366 107z" />
<glyph unicode="&#x2105;" horiz-adv-x="1768" d="M1319 1405h12q34 0 43 -49v-1q0 -25 -120 -163q-95 -133 -891 -1158q-15 -9 -29 -9q-46 13 -46 39v23q0 14 138 185q806 1051 869 1125q11 8 24 8zM386 1405q128 0 231 -95q3 -5 3 -11q-5 -27 -25 -27h-3q-10 0 -71 46q-65 33 -128 33h-15q-169 0 -254 -176 q-20 -59 -20 -106q0 -170 175 -259q53 -20 112 -20q99 0 189 75l13 3h5q17 0 22 -26q0 -37 -150 -95q-52 -9 -77 -9h-21q-133 0 -249 127q-71 100 -71 207q0 162 144 273q91 60 190 60zM1291 684q125 0 228 -96q98 -102 98 -230q0 -184 -174 -289q-75 -38 -145 -38h-21 q-130 0 -244 125q-69 97 -69 202q0 159 141 267q90 59 186 59zM1017 365v-13q0 -154 149 -240q55 -28 117 -28h15q161 0 247 166q19 54 19 102v13q0 129 -117 218q-71 48 -159 48q-176 0 -257 -183q-14 -45 -14 -83z" />
<glyph unicode="&#x2113;" horiz-adv-x="846" d="M511 1407q154 0 215 -165l7 -49v-17q0 -82 -119 -230l-224 -335v-370q0 -115 89 -115h24q62 26 74 26q31 0 42 -50q-17 -77 -140 -77q-120 0 -179 139l-7 67v237q-112 -179 -142 -179h-7q-39 0 -47 56q0 15 184 275l12 22v526q0 178 173 233zM390 793q242 338 242 375v34 q0 81 -116 105h-7q-100 0 -119 -129v-385z" />
<glyph unicode="&#x2116;" horiz-adv-x="2271" d="M39 1406h15q32 0 62 -64q58 -65 830 -1062q-5 0 -5 6l16 -21h41v1096q9 45 43 45h11q35 0 43 -48v-1283q0 -41 -56 -50q-28 0 -110 122l-832 1062v-1137q0 -35 -49 -43h-1q-37 0 -47 52v1266q6 59 39 59zM1287 391l14 -1h722l36 4q38 0 50 -58q0 -33 -44 -52l-62 4h-682 l-59 -4q-47 17 -47 53q9 53 72 53v1zM1657 1251q143 0 260 -109q111 -116 111 -262q0 -209 -198 -328q-85 -43 -164 -43h-24q-148 0 -278 141q-78 111 -78 230q0 181 160 304q102 67 211 67zM1352 889v-14q0 -174 166 -268q61 -32 130 -32h18q179 0 274 185q22 60 22 115v14 q0 145 -131 242q-78 54 -177 54q-196 0 -286 -203q-16 -51 -16 -93z" />
<glyph unicode="&#x2122;" horiz-adv-x="1497" d="M159 1416h433q9 -2 9 -7v-7q0 -3 -16 -5h-198v-594q0 -5 -11 -7h1q-7 0 -9 12v589h-202q-12 2 -12 8q3 11 5 11zM766 1415h8q8 0 15 -29l245 -548q37 45 188 392l86 184q0 1 2 1h8q3 0 5 -15v-600q-3 -13 -9 -13q-11 2 -11 7v471h-43q-206 -468 -210 -473q-5 -5 -8 -5 q-13 0 -32 59l-186 417h-43v-469q0 -5 -11 -7q-6 0 -9 13v600q2 15 5 15z" />
<glyph unicode="&#x2126;" horiz-adv-x="1709" d="M794 1412q354 0 592 -328q107 -192 107 -360q0 -328 -247 -543h-20v-54h187q50 -10 50 -39v-13q-10 -46 -44 -46h-492q-38 0 -46 53q12 45 43 45q115 0 307 164q167 196 167 425q0 284 -254 489q-170 108 -335 108h-30q-285 0 -481 -259q-108 -166 -108 -338 q0 -345 317 -535q55 -34 180 -64q29 -12 29 -44q-14 -48 -48 -48h-482q-53 11 -53 48q12 51 48 51h185v40q-99 75 -168 181q-103 180 -103 379q0 324 299 559q192 129 400 129z" />
<glyph unicode="&#x212e;" horiz-adv-x="1174" d="M541 979q276 0 429 -262q52 -102 52 -222v-17q-9 -50 -45 -50h-807q57 -188 210 -271q90 -35 169 -35q90 0 200 55h14q43 -9 43 -41v-11q0 -69 -241 -100h-24q-256 0 -410 241q-63 113 -63 236q0 262 247 418q121 59 226 59zM165 521h757q0 108 -94 236 q-130 122 -257 122h-41q-189 0 -310 -184q-43 -74 -55 -174z" />
<glyph unicode="&#x215b;" horiz-adv-x="1498" d="M1168 1417h12q35 0 43 -49v-2q0 -25 -120 -164q-96 -134 -899 -1168q-15 -9 -30 -9q-46 13 -46 40v23q0 14 140 185q812 1061 875 1136q11 8 25 8zM304 1409q8 0 17 -15l-3 -50v-656l3 -31q-6 -19 -20 -19q-11 0 -17 11v710l-93 -21h-10q-11 6 -11 16q0 27 110 44 q0 6 24 11zM1136 781q84 0 143 -76q34 -45 34 -99v-11q0 -74 -92 -156q126 -91 126 -200q0 -108 -100 -181q-56 -37 -116 -37h-11q-103 0 -179 103q-32 59 -32 115q0 113 136 210q-68 52 -82 110q-5 14 -5 36v11q0 93 90 150q45 25 88 25zM991 598q0 -99 116 -139l28 -2 q102 0 139 108l6 34q0 108 -114 144l-32 2q-99 0 -139 -106zM942 243q0 -132 133 -181q20 -8 56 -8q123 0 176 136l5 36v24q0 106 -121 163q-34 11 -62 11q-132 0 -180 -137z" />
<glyph unicode="&#x215c;" horiz-adv-x="1523" d="M1210 1417h12q35 0 43 -49v-2q0 -25 -120 -164q-96 -134 -899 -1168q-15 -9 -30 -9q-46 13 -46 40v23q0 14 140 185q812 1061 875 1136q11 8 25 8zM1178 781q84 0 143 -76q34 -45 34 -99v-11q0 -74 -92 -156q126 -91 126 -200q0 -108 -100 -181q-56 -37 -116 -37h-11 q-103 0 -179 103q-32 59 -32 115q0 113 136 210q-68 52 -82 110q-5 14 -5 36v11q0 93 90 150q45 25 88 25zM1033 598q0 -99 116 -139l28 -2q102 0 139 108l6 34q0 108 -114 144l-32 2q-99 0 -139 -106zM984 243q0 -132 133 -181q20 -8 56 -8q123 0 176 136l5 36v24 q0 106 -121 163q-34 11 -62 11q-132 0 -180 -137zM303 1493q107 0 164 -114q13 -30 13 -54v-22q0 -72 -89 -158q123 -86 123 -201q0 -158 -176 -216l-49 -4h-6q-148 0 -209 176l-4 49q0 5 12 12h12q16 0 20 -63q52 -137 172 -137h12q131 0 176 152l4 33q0 129 -150 182 q-47 0 -47 21q5 19 36 19q96 0 127 128v29q0 89 -120 131h-26q-103 0 -142 -119v-32q-6 -11 -13 -11h-9q-15 3 -15 12v8q0 125 142 175z" />
<glyph unicode="&#x215d;" horiz-adv-x="1569" d="M1269 1417h12q35 0 43 -49v-2q0 -25 -120 -164q-96 -134 -899 -1168q-15 -9 -30 -9q-46 13 -46 40v23q0 14 140 185q812 1061 875 1136q11 8 25 8zM1237 781q84 0 143 -76q34 -45 34 -99v-11q0 -74 -92 -156q126 -91 126 -200q0 -108 -100 -181q-56 -37 -116 -37h-11 q-103 0 -179 103q-32 59 -32 115q0 113 136 210q-68 52 -82 110q-5 14 -5 36v11q0 93 90 150q45 25 88 25zM1092 598q0 -99 116 -139l28 -2q102 0 139 108l6 34q0 108 -114 144l-32 2q-99 0 -139 -106zM1043 243q0 -132 133 -181q20 -8 56 -8q123 0 176 136l5 36v24 q0 106 -121 163q-34 11 -62 11q-132 0 -180 -137zM120 1412l17 -2h323q13 0 17 -22q0 -9 -23 -14h-314v-261h145q126 0 197 -131q23 -54 23 -94q0 -116 -111 -193q-56 -31 -111 -31h-7q-131 0 -204 136q-18 51 -18 81q7 19 19 19q21 0 21 -53q32 -95 100 -128q50 -20 84 -20 q127 0 178 127q11 27 11 62q0 137 -146 185l-55 4h-147q-11 0 -15 14v309q0 6 16 12z" />
<glyph unicode="&#x215e;" horiz-adv-x="1494" d="M1160 1417h12q35 0 43 -49v-2q0 -25 -120 -164q-96 -134 -899 -1168q-15 -9 -30 -9q-46 13 -46 40v23q0 14 140 185q812 1061 875 1136q11 8 25 8zM1128 781q84 0 143 -76q34 -45 34 -99v-11q0 -74 -92 -156q126 -91 126 -200q0 -108 -100 -181q-56 -37 -116 -37h-11 q-103 0 -179 103q-32 59 -32 115q0 113 136 210q-68 52 -82 110q-5 14 -5 36v11q0 93 90 150q45 25 88 25zM983 598q0 -99 116 -139l28 -2q102 0 139 108l6 34q0 108 -114 144l-32 2q-99 0 -139 -106zM934 243q0 -132 133 -181q20 -8 56 -8q123 0 176 136l5 36v24 q0 106 -121 163q-34 11 -62 11q-132 0 -180 -137zM118 1404h411q17 -3 17 -9v-11q0 -3 -18 -30l-401 -711q-5 -3 -9 -3q-18 4 -18 16v3q4 14 374 664l17 47h-363q-22 4 -22 15q4 19 12 19z" />
<glyph unicode="&#x2190;" horiz-adv-x="1923" d="M550 984q44 -8 44 -42v-7q0 -33 -131 -101l-112 -68l-67 -43h1471q45 -9 45 -40q-9 -47 -42 -47h-1467l295 -190q8 -16 8 -26v-5q-8 -40 -38 -40h-15q-27 7 -411 255q-46 15 -46 48q0 37 107 87q334 219 354 219h5z" />
<glyph unicode="&#x2191;" horiz-adv-x="833" d="M391 1413q34 0 85 -107q218 -335 218 -353v-7q-8 -41 -38 -41h-18q-23 0 -72 96l-132 211v-1469q0 -30 -43 -38q-43 8 -43 42v1468l-44 -68q-136 -239 -152 -239l-17 -3h-12q-35 11 -35 31v17q0 16 91 156l178 288q11 12 34 16z" />
<glyph unicode="&#x2192;" horiz-adv-x="1910" d="M1316 984q22 0 284 -172q149 -86 174 -112l5 -15v-18q0 -22 -61 -48q-382 -244 -393 -244h-12q-41 8 -41 38v15q0 28 153 109l157 99h-1473q-35 0 -42 48q11 39 38 39h1475l-65 43q-214 125 -239 149l-4 23v11q0 26 44 35z" />
<glyph unicode="&#x2193;" horiz-adv-x="808" d="M378 1419q27 0 42 -38l-3 -55v-1403l192 296q13 8 24 8h2q43 -8 43 -42v-7q0 -15 -90 -154l-179 -289q-15 -13 -30 -13h-4q-34 0 -82 102q-215 331 -217 348v17q0 30 43 38h2q34 0 72 -85l141 -215v1399l-3 56q0 25 47 37z" />
<glyph unicode="&#x2194;" horiz-adv-x="1961" d="M1355 976h2q22 0 260 -157q178 -106 194 -121l7 -29q0 -29 -56 -52q-370 -235 -399 -245h-16q-35 11 -35 31v17q0 32 122 93q5 10 119 74l78 44h-1360l75 -43q209 -123 243 -155q5 -9 5 -20v-7q0 -33 -47 -41q-16 0 -303 185q-149 86 -153 99l-3 21v2q0 31 59 55 q362 232 399 245h1q47 -7 47 -41v-7q0 -32 -92 -76l-142 -77l-90 -54h1352q-279 169 -304 191l-6 17v13q0 30 43 38z" />
<glyph unicode="&#x2195;" horiz-adv-x="825" d="M372 1407h7q31 0 54 -58q238 -374 242 -393v-1q-9 -47 -44 -47q-38 0 -78 91l-130 215v-1318l178 292q18 15 30 15q47 -9 47 -44q0 -22 -137 -232q-125 -206 -139 -218l-22 -4h-8q-29 0 -61 76q-232 355 -232 375q9 47 44 47t82 -94l91 -147l42 -65v1329l-42 -69 q-123 -209 -152 -241l-28 -8q-34 0 -40 50v-3q12 37 252 410q17 42 44 42z" />
<glyph unicode="&#x21a8;" horiz-adv-x="879" d="M401 1407h7q31 0 54 -58q238 -374 242 -393v-1q-9 -47 -44 -47q-38 0 -78 91l-130 207v-1299l178 281q18 15 30 15q47 -9 47 -44q0 -22 -137 -232q-125 -206 -139 -218l-22 -4h-8q-29 0 -61 76q-232 355 -232 375q9 47 44 47t82 -94l91 -147l42 -68v1329l-42 -66 q-123 -209 -152 -241l-28 -8q-34 0 -40 50v-3q12 37 252 410q17 42 44 42z" />
<glyph unicode="&#x2202;" horiz-adv-x="1131" d="M92 1407q533 0 791 -456q102 -164 102 -486q0 -152 -147 -311q-148 -129 -316 -129h-23q-226 0 -389 224q-70 126 -70 250q0 251 240 409q113 62 234 62q114 0 265 -78v52q-134 233 -432 334q-120 32 -213 32l-46 -4q-29 0 -40 48v7q9 46 44 46zM133 499q0 -231 227 -348 q78 -33 154 -33q227 0 345 223q33 77 33 162q0 224 -232 345q-88 29 -146 29q-224 0 -343 -219q-38 -87 -38 -159z" />
<glyph unicode="&#x2206;" horiz-adv-x="1144" d="M538 1418h12q41 0 60 -97q475 -1225 475 -1240v-12q0 -35 -50 -44h-988q-39 0 -47 53l503 1321q17 19 35 19zM525 1173l-399 -1048h837l-399 1048h-39z" />
<glyph unicode="&#x220f;" horiz-adv-x="1378" d="M129 1418h996q53 -10 53 -47v-1q-10 -50 -39 -50h-105v-1620h91q53 -11 53 -49q-9 -49 -68 -49h-107l-16 -4l-21 4h-106l-23 -4q-34 0 -45 57v1q0 32 54 44h90v1620h-619v-1620h91q53 -11 53 -49q-8 -49 -68 -49h-107l-16 -4l-21 4h-106l-23 -4q-34 0 -45 57v1 q0 32 54 44h90v1620h-105q-30 0 -39 57q0 29 54 41z" />
<glyph unicode="&#x2211;" horiz-adv-x="1206" d="M115 1402h847q46 -9 46 -35v-19q0 -34 -48 -42h-736l646 -788l3 -18v-9q0 -18 -155 -193l-483 -591h732q52 -10 52 -39v-22q0 -24 -44 -38l-23 3h-800l-20 -3q-47 12 -47 38v22q0 19 155 194l511 624v22l-676 825l-5 22v8q0 29 45 39z" />
<glyph unicode="&#x2212;" horiz-adv-x="1092" d="M162 743l14 -1h722l36 4q38 0 50 -58q0 -33 -44 -52l-62 4h-682l-59 -4q-47 17 -47 53q9 53 72 53v1z" />
<glyph unicode="&#x221a;" horiz-adv-x="1127" d="M910 1553l33 -3h93l31 3q45 -13 45 -47v-7q0 -34 -42 -47l-57 4h-46q-24 0 -716 -1396q-16 -35 -45 -35h-4q-42 0 -83 111q-119 197 -119 224v7q0 32 56 43q32 0 70 -92l57 -105h35q648 1310 661 1325z" />
<glyph unicode="&#x221e;" horiz-adv-x="1313" d="M385 958q124 0 249 -122q129 122 259 122q196 0 299 -219l12 -98v-2q0 -223 -244 -307l-72 -8q-129 0 -254 121q-122 -121 -255 -121q-208 0 -303 228l-12 93q0 206 228 301zM688 626q0 -131 171 -196h73q112 0 180 148l11 67q0 149 -171 214h-72q-133 0 -192 -182v-51z M144 622q0 -131 171 -196h73q112 0 180 148l11 67q0 149 -171 214h-72q-133 0 -192 -182v-51z" />
<glyph unicode="&#x221f;" horiz-adv-x="1431" d="M129 1225q48 -12 48 -37v-1070h1063q37 0 44 -50q-13 -43 -44 -43h-1112q-34 0 -44 50v1090q6 60 45 60z" />
<glyph unicode="&#x2229;" horiz-adv-x="1221" d="M554 1412q275 0 432 -270q46 -108 46 -197v-881q0 -29 -50 -39h2q-49 10 -49 39v798q0 244 -111 332q-108 117 -270 117q-244 0 -351 -241q-30 -50 -30 -208v-794q0 -35 -48 -43q-49 9 -49 47v873q0 235 230 399q127 68 248 68z" />
<glyph unicode="&#x222b;" horiz-adv-x="920" d="M669 1632h15q118 0 173 -128q-7 -48 -42 -48h-7q-29 0 -58 58q-27 21 -71 30q-109 0 -109 -150l-180 -1483q-64 -127 -174 -127h-18q-125 0 -180 149v-3q10 45 35 45h18q29 0 53 -68q44 -35 78 -35h11q103 0 103 162l176 1468q62 130 177 130z" />
<glyph unicode="&#x2248;" d="M302 1001h2q48 0 349 -84h31q57 0 125 66l19 5q43 -10 43 -34v-16q0 -42 -122 -96l-71 -11h-6q-46 0 -349 84h-27q-58 0 -120 -62q-14 -10 -26 -10q-45 9 -45 43v12q0 40 141 96zM320 701q38 0 349 -84h35q48 0 127 70l13 2q43 -9 43 -43v-8q0 -44 -134 -100l-55 -7h-26 q-27 0 -337 84h-11q-73 0 -133 -62q-12 -10 -24 -10q-46 9 -46 35v16q0 28 64 63q64 44 135 44z" />
<glyph unicode="&#x2260;" horiz-adv-x="1028" d="M444 702h-257q-43 0 -51 57q14 49 51 49h257v144q0 30 43 36q43 -6 43 -40v-140h269q39 0 50 -55q-12 -51 -50 -51h-269v-226h263q57 -11 57 -52q-11 -54 -51 -54h-269v-141q-7 -46 -41 -46h-5q-40 6 -40 42v145h-265q-34 0 -43 61q0 32 58 45h250v226z" />
<glyph unicode="&#x2261;" horiz-adv-x="1161" d="M151 253l14 -1h722l36 4q38 0 50 -58q0 -33 -44 -52l-62 4h-682l-59 -4q-47 17 -47 53q9 53 72 53v1zM156 1032l14 -1h722l36 4q38 0 50 -58q0 -33 -44 -52l-62 4h-682l-59 -4q-47 17 -47 53q9 53 72 53v1zM156 644l14 -1h722l36 4q38 0 50 -58q0 -33 -44 -52l-62 4h-682 l-59 -4q-47 17 -47 53q9 53 72 53v1z" />
<glyph unicode="&#x2264;" d="M785 1131q54 -11 54 -51v-8q0 -39 -83 -78l-499 -310l571 -363q11 -13 11 -29v-12q0 -39 -57 -47q-22 0 -128 72l-545 342q-12 17 -12 33q0 44 135 110q532 341 544 341h9zM132 131h668q32 0 39 -49v-8q-9 -49 -35 -49h-664q-37 0 -43 54q9 52 35 52z" />
<glyph unicode="&#x2265;" d="M168 1136q23 0 300 -184q347 -208 377 -238q7 -12 7 -25v-16q0 -29 -107 -82q-551 -349 -558 -349l-26 -4q-51 8 -51 51v4q0 45 123 102l437 276v32q-513 313 -547 344q-13 14 -13 42q0 33 58 47zM145 136h668q31 0 39 -45v-12q-9 -49 -35 -49h-672q-26 0 -35 55 q8 51 35 51z" />
<glyph unicode="&#xf001;" horiz-adv-x="1021" d="M566 1411q171 0 274 -174l13 -46q0 -33 -53 -44q-35 0 -71 84q-76 79 -168 79q-132 0 -194 -147l-13 -91v-96h189l60 4q27 0 39 -50v-8q0 -27 -46 -39h-242v-774l4 -42q0 -30 -53 -42q-32 0 -48 42l4 42v774h-222q-31 0 -39 56q0 21 40 41l70 -4h147v97q0 230 198 314 q33 17 111 24zM804 1014q53 -11 53 -50v-886q-9 -49 -47 -49h-2q-48 10 -48 39v896q10 50 44 50z" />
<glyph unicode="&#xfb01;" horiz-adv-x="1021" d="M566 1411q171 0 274 -174l13 -46q0 -33 -53 -44q-35 0 -71 84q-76 79 -168 79q-132 0 -194 -147l-13 -91v-96h189l60 4q27 0 39 -50v-8q0 -27 -46 -39h-242v-774l4 -42q0 -30 -53 -42q-32 0 -48 42l4 42v774h-222q-31 0 -39 56q0 21 40 41l70 -4h147v97q0 230 198 314 q33 17 111 24zM804 1014q53 -11 53 -50v-886q-9 -49 -47 -49h-2q-48 10 -48 39v896q10 50 44 50z" />
<glyph unicode="&#xf002;" horiz-adv-x="1081" d="M568 1418q173 0 276 -176l14 -35l-4 -40v-1040h104q30 0 40 -50v1q-9 -49 -47 -49h-148q-37 0 -47 53v1103q-41 117 -191 131q-132 0 -196 -147l-13 -92v-96h190l60 4q28 0 39 -50v-9q0 -27 -46 -39h-243v-778l4 -42q0 -30 -54 -42q-32 0 -48 43l4 41v778h-222 q-31 0 -40 57q0 20 41 41l70 -4h147v97q0 231 198 315q35 18 112 25z" />
<glyph unicode="&#xfb02;" horiz-adv-x="1081" d="M568 1418q173 0 276 -176l14 -35l-4 -40v-1040h104q30 0 40 -50v1q-9 -49 -47 -49h-148q-37 0 -47 53v1103q-41 117 -191 131q-132 0 -196 -147l-13 -92v-96h190l60 4q28 0 39 -50v-9q0 -27 -46 -39h-243v-778l4 -42q0 -30 -54 -42q-32 0 -48 43l4 41v778h-222 q-31 0 -40 57q0 20 41 41l70 -4h147v97q0 231 198 315q35 18 112 25z" />
<glyph horiz-adv-x="0" />
</font>
</defs>
</svg>
