<?xml version="1.0" standalone="no"?>
<!DOCTYPE svg PUBLIC "-//W3C//DTD SVG 1.1//EN" "http://www.w3.org/Graphics/SVG/1.1/DTD/svg11.dtd" >
<svg xmlns="http://www.w3.org/2000/svg">
<metadata>
This is a custom SVG webfont generated by Font Squirrel.
Designer    : Johan Aakerlund - aajohan
Foundry     : Johan Aakerlund
</metadata>
<defs>
<font id="webfontxbL3cos8" horiz-adv-x="1014" >
<font-face units-per-em="2048" ascent="1638" descent="-410" />
<missing-glyph horiz-adv-x="508" />
<glyph unicode=" "  horiz-adv-x="508" />
<glyph unicode="&#x09;" horiz-adv-x="508" />
<glyph unicode="&#xa0;" horiz-adv-x="508" />
<glyph unicode="!" horiz-adv-x="511" d="M214 1442h12q60 0 73 -69v-955q-17 -72 -77 -72q-81 12 -81 69v962q14 65 73 65zM205 206h8q103 -15 103 -92v-22q0 -71 -95 -92h-12q-79 0 -99 103q21 103 95 103z" />
<glyph unicode="&#x22;" horiz-adv-x="557" d="M159 1559q76 -19 76 -68q-21 -312 -52 -312l-28 -8q-50 0 -56 124l-20 184q16 80 80 80zM407 1559q51 0 72 -76q-29 -296 -44 -296q-17 -16 -32 -16h-4q-56 0 -56 136l-20 184q0 54 84 68z" />
<glyph unicode="#" horiz-adv-x="1336" d="M996 1431q68 -19 68 -64v-11q0 -29 -76 -389h110l34 4q55 0 71 -76q-15 -75 -75 -75h-170l-37 -192h139q87 -8 87 -76q-14 -71 -72 -71v-4l-19 4h-166q-83 -419 -98 -449q-25 -34 -60 -34h-8q-67 14 -67 68v3l83 412h-215q-10 0 -53 -246q-41 -200 -53 -207 q-24 -34 -60 -34q-76 15 -76 75l83 412h-102l-22 -4q-57 0 -72 79v4q0 51 75 68h155l38 192h-136q-75 15 -75 75q12 72 67 72v4l38 -4h136q82 438 98 438q28 22 57 22q61 0 71 -75l-75 -385h219q80 415 94 434q28 30 64 30zM589 820l-38 -192h219l37 192h-218z" />
<glyph unicode="$" d="M477 1652h20q50 0 65 -73v-128q93 -7 209 -112q43 -43 43 -66v-23q0 -50 -74 -62q-30 0 -96 73q-33 28 -82 43v-460q177 -65 252 -206q58 -109 58 -208q0 -278 -286 -403l-24 -4v-127q-18 -74 -73 -74q-77 16 -77 74v104q0 6 -89 19q-173 59 -248 182l-4 23q13 74 74 74 q40 0 108 -85q87 -57 159 -62v580q-132 41 -182 113q-101 104 -101 239v28q0 189 194 305q64 31 89 31v140q20 65 65 65zM276 1091v-31q0 -124 136 -198v414q-136 -67 -136 -185zM562 669v-511h4q155 91 155 232v39q0 143 -159 240z" />
<glyph unicode="%" horiz-adv-x="1610" d="M452 1436h19q167 0 284 -152q68 -100 68 -205q0 -233 -242 -344q-69 -19 -114 -19h-7q-210 0 -322 204q-38 77 -38 156q0 236 250 344q51 16 102 16zM1286 1436h11q68 -14 68 -69v-15q0 -22 -140 -201l-860 -1136q-29 -15 -45 -15h-4q-72 15 -72 64v16q0 31 106 159 l894 1181q23 16 42 16zM248 1079v-7q0 -150 166 -205l38 -3h19q147 0 201 170l4 42q0 154 -163 208l-49 8q-152 0 -209 -159zM1149 723q211 0 333 -219q27 -80 27 -140v-12q0 -211 -223 -325q-69 -27 -137 -27h-7q-184 0 -303 178q-50 86 -50 170v23q0 190 190 307 q91 45 170 45zM933 364q0 -150 156 -209l53 -7h15q143 0 200 163l4 34v26q0 149 -174 201l-38 4q-159 0 -212 -178z" />
<glyph unicode="&#x26;" horiz-adv-x="1457" d="M490 1433h19q193 0 285 -212q11 -48 11 -83v-19q0 -146 -155 -270l-38 -41l322 -323h4l155 156q26 19 49 19q70 0 80 -84q0 -42 -133 -159l-41 -45l216 -217q15 -19 15 -41v-12q-15 -72 -72 -72h-11q-42 0 -141 114l-121 118q-216 -235 -284 -235q-66 -27 -133 -27 q-220 0 -349 220q-38 89 -38 171q0 194 212 367l46 50q-186 173 -186 258q-8 0 -8 68q0 187 201 284q54 15 95 15zM354 1149v-30q0 -77 144 -198h4q148 128 148 198v15q0 95 -114 140l-38 4q-92 0 -137 -99zM289 398v-19q0 -147 167 -212l57 -8q131 0 250 152l61 61 l-322 322h-4q-205 -182 -205 -265z" />
<glyph unicode="'" horiz-adv-x="346" d="M172 1546q76 -19 76 -68q-21 -312 -52 -312l-28 -8q-50 0 -56 124l-20 184q16 80 80 80z" />
<glyph unicode="(" horiz-adv-x="758" d="M603 1596h11q69 -13 69 -68v-12l-76 -203q-131 -353 -131 -724q0 -463 207 -915l4 -15q-14 -77 -73 -77h-7q-65 0 -104 138q-176 409 -176 873q0 498 222 977q28 26 54 26z" />
<glyph unicode=")" horiz-adv-x="758" d="M140 1600h15q53 0 96 -138q176 -419 176 -866q0 -527 -229 -993q-29 -19 -50 -19h-8q-60 0 -73 77l81 202q130 368 130 729q0 453 -207 916l-4 15q13 77 73 77z" />
<glyph unicode="*" horiz-adv-x="1024" d="M522 1559q76 -19 76 -76v-8l-52 -168v-4h4l160 100l24 4q76 -15 76 -76v-12q0 -41 -60 -68l-124 4h-72l152 -124l12 -32v-20q0 -59 -76 -72q-73 0 -88 112l-32 96h-4l-48 -164q-30 -44 -72 -44q-76 17 -76 68v16q0 47 92 100l76 64h-4l-196 -4q-60 24 -60 76v4 q0 61 80 76q29 0 136 -80l48 -24v4l-52 168v8q0 59 80 76z" />
<glyph unicode="+" d="M512 1117h12q59 0 72 -76v-224h212q92 -8 92 -80q-15 -76 -76 -76v-4l-20 4h-208v-228q-14 -76 -76 -76h-4q-76 15 -76 68v236h-204l-24 -4q-60 0 -76 84v4q0 54 80 72h224v228q14 72 72 72z" />
<glyph unicode="," horiz-adv-x="557" d="M254 282h16q136 -28 136 -136l4 -4l-4 -4v-4l8 -56v-16q0 -184 -184 -276q-37 -24 -60 -24q-42 0 -52 60q0 47 84 64q42 24 84 80l16 44l-48 -8q-148 25 -148 144v4q0 82 104 124q16 8 44 8z" />
<glyph unicode="-" horiz-adv-x="670" d="M144 648h400q59 0 76 -80q-18 -76 -76 -76h-400q-65 0 -76 84q20 72 76 72z" />
<glyph unicode="&#xad;" horiz-adv-x="670" d="M144 648h400q59 0 76 -80q-18 -76 -76 -76h-400q-65 0 -76 84q20 72 76 72z" />
<glyph unicode="." horiz-adv-x="557" d="M269 274q105 0 135 -125v-24q0 -75 -96 -118q-14 -7 -39 -7h-4q-112 0 -135 139q0 88 100 128q14 7 39 7z" />
<glyph unicode="/" horiz-adv-x="770" d="M628 1517q76 -13 76 -72v-20q-504 -1389 -556 -1516q-30 -32 -60 -32h-8q-62 0 -76 80q4 27 556 1524q35 36 68 36z" />
<glyph unicode="0" horiz-adv-x="989" d="M446 1437q247 0 378 -265q72 -221 72 -408v-87q0 -231 -95 -465q-137 -212 -347 -212h-12q-228 0 -359 242q-83 213 -83 473v11q0 276 98 499q141 212 348 212zM136 737v-41q0 -261 95 -439q92 -113 208 -113h11q256 0 299 393q11 62 15 185q0 219 -76 420 q-94 151 -238 151q-175 0 -257 -193q-57 -189 -57 -363z" />
<glyph unicode="1" horiz-adv-x="568" d="M305 1437h12q68 -15 68 -65v-1300q-13 -72 -72 -72h-4q-72 15 -72 64v1198q-102 -34 -133 -34q-47 0 -64 69v19q0 56 152 87z" />
<glyph unicode="2" horiz-adv-x="976" d="M431 1436q204 0 355 -182q79 -120 79 -249q0 -197 -193 -378l-419 -480h563q56 0 68 -71v-4q-11 -72 -72 -72h-733q-71 13 -71 72v4q0 36 71 102l586 668q49 70 49 159q0 192 -200 268q-33 11 -76 11h-11q-184 0 -265 -196q-11 -41 -15 -98q-26 -53 -68 -53h-7 q-72 13 -72 68q0 226 215 370q115 61 216 61z" />
<glyph unicode="3" horiz-adv-x="955" d="M445 1432q168 0 290 -151q68 -92 68 -203v-15q0 -156 -136 -275q196 -142 196 -358q0 -223 -211 -370q-109 -60 -215 -60h-11q-252 0 -392 260q-34 96 -34 173q0 53 79 68q57 0 68 -75q0 -162 170 -256q62 -23 120 -23q169 0 256 177q19 53 19 91v30q0 160 -177 248 l-124 27q-38 29 -38 64v4q0 71 102 71q74 0 154 98q30 64 30 117q0 122 -120 188q-43 23 -98 23q-140 0 -200 -151q-12 -109 -26 -109q-27 -30 -53 -30q-75 17 -75 64v19q0 196 196 313q75 37 162 41z" />
<glyph unicode="4" horiz-adv-x="1103" d="M718 1425h23q41 0 64 -64l-4 -37v-752h117l34 3q52 0 71 -75q0 -51 -64 -75l-56 4h-102v-365q0 -49 -71 -64h-4q-72 13 -72 71v358h-507l-91 -4q-56 24 -56 68v15q0 26 38 56q602 783 635 835q24 26 45 26zM229 572h425v553z" />
<glyph unicode="5" d="M157 1429l39 -4h575q60 0 75 -78q0 -58 -79 -75h-524v-379h215q252 0 395 -259q44 -107 44 -188q0 -231 -220 -383q-113 -63 -223 -63h-12q-261 0 -407 270q-35 103 -35 172q26 71 78 71q83 0 83 -133q49 -145 152 -196q80 -31 133 -31q196 0 278 199q16 40 16 94 q0 214 -227 286l-90 8h-262q-52 0 -71 63v559q0 42 67 67z" />
<glyph unicode="6" horiz-adv-x="951" d="M569 1436q51 0 68 -76q0 -30 -91 -173l-188 -328v-4l57 4h33q206 0 351 -207q64 -114 64 -222q0 -214 -196 -358q-111 -72 -230 -72h-19q-205 0 -354 204q-64 116 -64 226q0 145 106 286l407 701q31 19 56 19zM151 448v-37q0 -155 177 -245q50 -15 102 -19q190 0 271 200 l11 71v15q0 198 -215 272l-71 7q-185 0 -268 -203z" />
<glyph unicode="7" horiz-adv-x="964" d="M105 1429h728q68 -14 68 -60v-19q0 -20 -38 -76l-709 -1255q-28 -19 -49 -19h-3q-72 13 -72 72v11q10 36 660 1180l7 19h-580q-76 15 -76 75q16 72 64 72z" />
<glyph unicode="8" horiz-adv-x="972" d="M447 1439q171 0 291 -152q68 -93 68 -204v-19q0 -150 -136 -273q197 -142 197 -359q0 -215 -197 -360q-111 -72 -231 -72h-19q-206 0 -356 204q-64 117 -64 228q0 224 212 374q-85 66 -114 182q-11 28 -11 76v19q0 190 182 306q91 50 178 50zM235 1068q0 -143 170 -201 l42 -4q149 0 204 159l8 53q0 157 -167 208l-49 4q-145 0 -201 -155zM148 435q0 -200 208 -276q28 -11 83 -11q188 0 269 208l8 57v38q0 161 -186 249q-52 16 -95 16q-203 0 -276 -209z" />
<glyph unicode="9" horiz-adv-x="972" d="M431 1435q224 0 367 -214q60 -114 60 -213q0 -161 -131 -315l-502 -674q-27 -19 -49 -19q-75 15 -75 75q0 34 120 180l240 326h-4l-22 -4q-246 0 -386 232q-49 102 -49 199q0 238 232 378q101 49 199 49zM150 1023v-34q0 -149 165 -240q50 -22 116 -22q162 0 247 153 q30 57 30 124v4q0 191 -198 266q-28 11 -75 11h-23q-159 0 -247 -180q-15 -53 -15 -82z" />
<glyph unicode=":" horiz-adv-x="557" d="M292 952q89 0 124 -104v-32q0 -75 -104 -112h-20q-124 19 -124 124q25 124 124 124zM280 284h16q95 0 120 -112v-20q0 -87 -120 -116q-128 22 -128 128q26 120 112 120z" />
<glyph unicode=";" horiz-adv-x="557" d="M267 926q89 0 124 -104v-32q0 -75 -104 -112h-20q-124 19 -124 124q25 124 124 124zM291 258q128 0 128 -192v-4q0 -186 -224 -260h-20q-48 10 -48 48v16q12 48 56 48l24 -4q100 53 100 104l-12 -4q-132 21 -132 124q0 88 100 124h28z" />
<glyph unicode="&#x37e;" horiz-adv-x="557" d="M267 926q89 0 124 -104v-32q0 -75 -104 -112h-20q-124 19 -124 124q25 124 124 124zM291 258q128 0 128 -192v-4q0 -186 -224 -260h-20q-48 10 -48 48v16q12 48 56 48l24 -4q100 53 100 104l-12 -4q-132 21 -132 124q0 88 100 124h28z" />
<glyph unicode="&#x3c;" d="M830 1102q76 -19 76 -76v-8q0 -57 -132 -120q-5 -9 -428 -268q17 -17 536 -340q24 -28 24 -56v-4q0 -65 -80 -76q-31 0 -148 80l-536 332q-28 31 -28 60q0 59 112 108q571 368 596 368h8z" />
<glyph unicode="=" d="M212 833h612q59 0 76 -80q-18 -76 -76 -76h-612q-65 0 -76 84q20 72 76 72zM216 501h604q80 -16 80 -80q-16 -76 -76 -76h-620q-56 0 -68 84q0 54 80 72z" />
<glyph unicode="&#x3e;" d="M217 1120q29 0 236 -136q428 -264 460 -292q16 -21 16 -44v-8q0 -56 -96 -96q-583 -372 -604 -372h-16q-76 14 -76 76v4q0 58 128 120l432 276q-516 316 -540 340q-20 28 -20 52q16 80 80 80z" />
<glyph unicode="?" horiz-adv-x="980" d="M497 1433q180 0 326 -159q102 -128 102 -280q0 -189 -170 -337q-175 -96 -175 -281q-11 -75 -75 -75q-72 16 -72 64v30q0 236 250 390q94 93 94 220q0 161 -170 257q-76 23 -121 23q-167 0 -261 -178l-27 -129q-32 -41 -64 -41q-76 16 -76 72q0 204 201 356 q123 68 238 68zM493 198h16q66 0 94 -83v-26q-18 -95 -106 -95q-98 21 -98 98q0 87 94 106z" />
<glyph unicode="@" horiz-adv-x="2019" d="M936 1571h36q416 0 724 -356q212 -271 212 -596q0 -406 -276 -516q-71 -32 -144 -32h-28q-139 0 -164 52l-4 20l4 100v4q-176 -168 -380 -168h-32q-279 0 -464 280q-68 135 -68 272q0 306 300 484q128 60 248 60q311 0 492 -304q56 -124 56 -256v-384l28 -4 q149 0 232 148q40 97 40 212v52q0 325 -272 580q-237 196 -520 196q-418 0 -676 -368q-124 -200 -124 -428v-4q0 -378 312 -632q223 -164 488 -164q223 0 448 136l20 4q80 -16 80 -80q0 -98 -336 -192q-94 -24 -184 -24h-52q-347 0 -640 264q-296 298 -296 696 q0 405 328 712q280 236 612 236zM508 635v-12q0 -238 240 -360q76 -28 136 -28h32q199 0 328 200q48 94 48 180v16q0 230 -228 352q-79 36 -164 36h-4q-242 0 -364 -252q-24 -78 -24 -132z" />
<glyph unicode="A" horiz-adv-x="1191" d="M556 1428q69 0 102 -139q454 -1182 458 -1210v-11q0 -56 -71 -68h-4q-66 0 -94 128l-169 439h-440l-206 -544q-30 -23 -53 -23h-8q-71 13 -71 71v4l128 346q335 873 364 969q34 38 64 38zM556 1142l-158 -428h323v4l-161 424h-4z" />
<glyph unicode="B" horiz-adv-x="998" d="M127 1432l18 -3h230l15 3q172 0 294 -162q61 -90 61 -196v-11q0 -129 -102 -245q245 -135 245 -392q0 -258 -268 -396q-86 -30 -154 -30h-339q-72 13 -72 72v1285q11 72 72 72v3zM202 1282v-423h139q185 0 238 132q15 38 15 76v11q0 146 -170 200l-79 4h-143zM202 712 v-565h196q216 0 290 124q49 69 49 155v7q0 203 -222 272l-106 7h-207z" />
<glyph unicode="C" horiz-adv-x="1363" d="M777 1436q223 0 416 -136q15 -29 15 -45v-8q0 -64 -79 -72h-4l-132 68q-132 42 -216 42q-269 0 -465 -246q-98 -165 -98 -321q0 -315 295 -499q131 -68 261 -68h11q166 0 336 106h23q68 -15 68 -68v-11q0 -80 -253 -155q-79 -23 -166 -23h-19q-355 0 -594 329 q-113 190 -113 389q0 373 340 608q182 110 374 110z" />
<glyph unicode="D" horiz-adv-x="1195" d="M127 1441l19 -4h193l42 4q323 0 561 -281q152 -197 152 -447q0 -344 -303 -580q-192 -133 -406 -133h-258q-72 13 -72 72v1293q11 72 72 72v4zM203 1293v-1145h163q361 0 535 349q45 119 45 227q0 261 -231 455q-143 114 -425 114h-87z" />
<glyph unicode="E" horiz-adv-x="1094" d="M135 1442l19 -4h744l15 4q65 0 76 -83q-15 -69 -83 -69h-695v-512h455l54 4q51 0 68 -76q0 -50 -61 -76l-76 4h-440v-486h713q53 0 65 -80q-20 -68 -68 -68h-786q-72 13 -72 72v1294q11 72 72 72v4z" />
<glyph unicode="F" horiz-adv-x="1031" d="M127 1442l19 -4h744l15 4q65 0 76 -83q-15 -69 -83 -69h-695v-512h455l54 4q51 0 68 -76q0 -50 -61 -76l-76 4h-440v-539l4 -23q-17 -72 -72 -72h-8q-72 13 -72 72v1294q11 72 72 72v4z" />
<glyph unicode="G" horiz-adv-x="1292" d="M745 1436q229 0 412 -128q19 -26 19 -49v-4q0 -58 -76 -72q-12 0 -147 64q-88 34 -170 34h-61q-211 0 -404 -204q-125 -171 -125 -351v-15q0 -294 272 -480q142 -80 284 -80h15q140 0 280 76v344h-273q-71 12 -71 72v3q12 72 71 72h352q56 0 68 -72v-419q0 -92 -45 -114 q-193 -113 -375 -113h-22q-355 0 -594 329q-113 186 -113 389q0 361 321 597q197 121 382 121z" />
<glyph unicode="H" horiz-adv-x="1186" d="M110 1433h15q68 -14 68 -60v-598h712v587q12 71 68 71h11q68 -13 68 -68v-1301q0 -49 -72 -64h-4q-71 13 -71 72v560h-712v-564q0 -56 -71 -68h-4q-58 0 -72 76v1274q9 83 64 83z" />
<glyph unicode="I" horiz-adv-x="539" d="M132 1448l19 -3h142l15 3q76 -16 76 -76q-13 -76 -72 -76h-16v-1147h23q50 0 65 -73v-4q-13 -72 -72 -72h-180q-72 13 -72 72v4q15 73 65 73h23v1147h-16q-63 0 -72 80v4q0 47 72 68z" />
<glyph unicode="J" horiz-adv-x="1022" d="M862 1439h12q55 0 68 -72v-923q0 -239 -224 -383q-105 -61 -216 -61h-19q-220 0 -369 213q-68 113 -68 235q16 72 65 72h15q72 0 72 -118q6 -82 99 -182q91 -72 197 -72q211 0 289 220q11 40 11 80v923q13 68 68 68z" />
<glyph unicode="K" horiz-adv-x="1112" d="M134 1434h3q72 -12 72 -68v-653q700 699 706 699l27 4h7q68 -13 68 -68v-12q0 -37 -79 -102l-465 -468l533 -660l3 -23v-11q0 -56 -71 -68h-4q-45 0 -125 117l-445 540l-155 -159v-434q0 -56 -72 -68h-3q-58 0 -72 75v1284q14 75 72 75z" />
<glyph unicode="L" horiz-adv-x="997" d="M110 1433h15q68 -14 68 -60v-1226h617q61 0 72 -79q-20 -68 -72 -68h-692q-58 0 -72 76v1274q9 83 64 83z" />
<glyph unicode="M" horiz-adv-x="1490" d="M124 1432h15q59 0 83 -98l480 -1073q19 22 336 748l186 400q22 23 49 23h15q55 0 64 -83v-1273q-14 -76 -72 -76h-4q-71 12 -71 68v941h-4q-423 -960 -438 -983q-29 -26 -57 -26q-66 0 -117 159l-378 846h-4v-937q0 -56 -71 -68h-4q-58 0 -72 76v1273q9 83 64 83z" />
<glyph unicode="N" horiz-adv-x="1321" d="M102 1431h15q48 0 83 -75q56 -63 821 -1051q8 0 8 -11l3 -4h4v1073q13 68 68 68h11q56 0 68 -71v-1285q0 -62 -79 -75q-43 0 -132 132l-787 1005v-1065q0 -56 -72 -68h-3q-58 0 -72 75v1269q9 83 64 83z" />
<glyph unicode="O" horiz-adv-x="1595" d="M756 1435q363 0 607 -336q110 -191 110 -385q0 -359 -325 -597q-184 -117 -385 -117h-15q-370 0 -604 344q-106 174 -106 377q0 343 302 578q196 136 416 136zM185 710q0 -274 242 -461q151 -102 321 -102h19q268 0 453 238q106 153 106 333q0 309 -283 490 q-140 80 -287 80q-283 0 -469 -246q-102 -147 -102 -332z" />
<glyph unicode="P" horiz-adv-x="963" d="M110 1438h346q202 0 345 -209q53 -107 53 -193v-27q0 -189 -171 -326q-116 -80 -227 -80h-262v-535q0 -55 -72 -68h-4q-58 0 -72 76v1278q9 84 64 84zM194 1290v-539h235q190 0 262 182q15 38 15 91q0 167 -171 247q-42 19 -98 19h-243z" />
<glyph unicode="Q" horiz-adv-x="1599" d="M764 1435q363 0 608 -336q109 -190 109 -385q0 -233 -155 -442v-4q159 -156 159 -189v-7q0 -56 -76 -72q-44 0 -143 121q-29 23 -42 45q-212 -166 -453 -166h-15q-369 0 -604 344q-106 174 -106 377q0 343 302 578q197 136 416 136zM193 710q0 -274 242 -461 q151 -102 321 -102h19q188 0 344 125q-153 166 -170 193v26q13 68 68 68h11q38 0 125 -106l71 -72h4q106 162 106 337q0 309 -283 491q-139 79 -287 79q-283 0 -469 -246q-102 -147 -102 -332z" />
<glyph unicode="R" horiz-adv-x="976" d="M106 1435h315q201 0 329 -212q41 -82 41 -171v-15q0 -198 -193 -325l-37 -19q344 -593 344 -606v-19q0 -56 -72 -68h-4q-54 0 -113 129l-311 530h-215v-591q0 -56 -72 -68h-4q-58 0 -72 76v1275q9 84 64 84zM190 1291v-485h215q179 0 235 193l4 31v30q0 142 -159 216 q-45 15 -140 15h-155z" />
<glyph unicode="S" horiz-adv-x="926" d="M454 1437q186 0 310 -168l4 -16v-23q0 -49 -73 -61q-30 0 -103 81q-66 42 -126 42h-23q-126 0 -191 -134q-15 -32 -15 -65v-31q0 -145 175 -210q126 0 272 -118q141 -143 141 -314q0 -210 -180 -344q-110 -76 -244 -76q-217 0 -359 187l-8 31q13 72 73 72q40 0 103 -80 q94 -65 172 -65h34q152 0 245 172q15 56 15 84v38q0 151 -172 245l-195 54q-218 125 -218 328v27q0 200 214 313q80 31 149 31z" />
<glyph unicode="T" horiz-adv-x="1225" d="M102 1436h933q68 -13 68 -68v-15q0 -55 -83 -64h-376v-1221q0 -56 -72 -68h-3q-58 0 -72 76v1213h-383q-76 15 -76 75q16 72 64 72z" />
<glyph unicode="U" horiz-adv-x="1168" d="M104 1433h15q68 -14 68 -60v-806q0 -260 148 -348q93 -72 208 -72q221 0 333 227q23 71 23 148v840q12 71 68 71h11q68 -13 68 -68v-881q0 -225 -216 -393q-136 -91 -276 -91h-26q-235 0 -409 231q-79 124 -79 306v813q9 83 64 83z" />
<glyph unicode="V" horiz-adv-x="1246" d="M114 1441q62 0 102 -159l372 -986h3l417 1115q31 30 61 30h4q58 0 72 -76l-478 -1289q-17 -76 -76 -76h-3q-68 0 -103 148q-451 1190 -451 1213v8q0 60 80 72z" />
<glyph unicode="W" horiz-adv-x="1777" d="M102 1436h16q64 0 83 -114l280 -973h8q292 1031 311 1061q25 26 53 26h11q67 0 87 -136q27 -74 277 -955h4l307 1057q27 34 53 34h15q68 -14 68 -60v-19l-383 -1327q-31 -30 -60 -30h-4q-71 0 -91 140q-246 836 -277 959h-3l-307 -1065q-28 -34 -61 -34h-15 q-62 0 -84 144q-325 1106 -352 1220q16 72 64 72z" />
<glyph unicode="X" horiz-adv-x="1300" d="M93 1437h16q44 0 72 -56l425 -543l458 588q20 11 38 11h12q55 0 68 -72v-3q0 -33 -102 -152l-383 -493l477 -611l8 -30v-4q-13 -72 -72 -72h-4q-49 0 -83 72l-417 531l-459 -588q-20 -15 -42 -15h-4q-72 13 -72 72v11q0 25 163 224l322 417q-470 596 -481 619l-4 22 q16 72 64 72z" />
<glyph unicode="Y" horiz-adv-x="1153" d="M106 1433h16q49 0 79 -72l345 -516h4q372 562 387 573q20 15 34 15h23q46 0 64 -72q0 -32 -129 -209l-307 -458v-611q-9 -83 -64 -83h-16q-49 0 -68 61v621q0 14 -159 251l-269 405l-4 23q16 72 64 72z" />
<glyph unicode="Z" horiz-adv-x="1271" d="M98 1437h1021q55 0 68 -72v-3q0 -29 -83 -126l-842 -1088h853q72 -11 72 -72v-4q-13 -72 -72 -72h-1009q-60 0 -72 80q0 28 182 254l740 956h-846q-76 15 -76 75q16 72 64 72z" />
<glyph unicode="[" horiz-adv-x="779" d="M319 1581l40 -4h292l44 4q72 -25 72 -72v-12q0 -50 -64 -76l-68 4h-232v-1692h292q72 -16 72 -68v-12q0 -66 -84 -76h-356q-80 16 -80 80v1832q7 88 72 88v4z" />
<glyph unicode="\" horiz-adv-x="691" d="M76 1548h4q76 0 116 -172l508 -1388q-14 -80 -76 -80h-16q-61 0 -104 168q-472 1272 -508 1392q12 80 76 80z" />
<glyph unicode="]" horiz-adv-x="758" d="M94 1581l60 -4h276l44 4q72 -20 72 -76v-1860q0 -53 -76 -68h-368q-66 0 -76 84v4q0 49 76 72l20 -4h268v1692h-220l-76 -4q-68 23 -68 80q0 55 68 80z" />
<glyph unicode="^" horiz-adv-x="942" d="M384 1434h16q53 0 112 -116q232 -351 232 -372v-24q0 -56 -84 -68q-50 0 -140 168l-128 188l-220 -340q-34 -16 -56 -16q-54 0 -72 80q0 32 80 148q207 328 228 340z" />
<glyph unicode="_" horiz-adv-x="958" d="M75 -29h885q74 -13 74 -70v-12q-14 -70 -70 -70h-889q-63 0 -74 82q20 70 74 70z" />
<glyph unicode="`" horiz-adv-x="752" d="M283 1411h12q39 0 108 -84q180 -169 180 -192l4 -20q-16 -76 -76 -76h-8q-44 0 -164 136q-128 111 -128 156v12q0 52 72 68z" />
<glyph unicode="a" horiz-adv-x="1199" d="M554 1023q290 0 459 -284q52 -115 52 -239v-433q0 -55 -71 -67h-4q-48 0 -71 56v4l4 93v4q-165 -157 -355 -157h-29q-260 0 -434 261q-63 126 -63 254q0 285 280 452q119 56 232 56zM188 519v-11q0 -223 224 -336q71 -26 127 -26h29q186 0 307 186q44 88 44 168v15 q0 215 -212 329q-74 33 -153 33h-4q-226 0 -340 -235q-22 -73 -22 -123z" />
<glyph unicode="b" horiz-adv-x="1230" d="M141 1432h11q68 -15 68 -65v-491q165 159 371 159q199 0 362 -151q155 -163 155 -366q0 -291 -276 -458q-119 -60 -230 -60h-30q-209 0 -389 196q-110 147 -110 348v823q0 50 68 65zM220 529v-19q0 -231 242 -344q65 -19 117 -19h23q225 0 340 242q19 73 19 113v23 q0 230 -246 344q-75 19 -117 19h-15q-225 0 -340 -238q-23 -67 -23 -121z" />
<glyph unicode="c" horiz-adv-x="1036" d="M547 1026q198 0 360 -149q11 -20 11 -38v-4q-13 -71 -71 -71h-4q-27 0 -120 71q-83 42 -165 42h-22q-218 0 -330 -229q-26 -77 -26 -139q0 -222 229 -337q69 -26 146 -26q129 0 254 105l30 7h12q55 0 67 -71v-3q0 -77 -240 -169q-81 -15 -120 -15h-30q-207 0 -385 195 q-109 154 -109 318q0 250 221 420q141 93 292 93z" />
<glyph unicode="d" horiz-adv-x="1200" d="M982 1432h15q68 -14 68 -61v-748l4 -128q0 -148 -121 -310q-171 -185 -385 -185h-30q-209 0 -389 196q-110 156 -110 322q0 251 223 423q142 94 295 94q197 0 370 -155v427l-4 60q21 65 64 65zM181 529v-19q0 -231 242 -344q65 -19 117 -19h23q225 0 340 242 q19 73 19 113v23q0 230 -246 344q-75 19 -117 19h-15q-225 0 -340 -238q-23 -67 -23 -121z" />
<glyph unicode="e" horiz-adv-x="1166" d="M543 1025q296 0 460 -281q56 -110 56 -239v-19q-13 -75 -71 -75h-789q44 -149 190 -228q86 -33 161 -33q87 0 199 56h22q67 -13 67 -68v-11q0 -92 -269 -127h-26q-276 0 -442 258q-67 122 -67 255q0 281 266 448q129 64 243 64zM187 557h719q0 77 -90 199 q-123 116 -243 116h-41q-180 0 -296 -176q-40 -70 -49 -139z" />
<glyph unicode="f" horiz-adv-x="866" d="M598 1437h91q52 0 64 -80q0 -51 -76 -68h-57q-138 0 -182 -152l-3 -79v-53h163l60 3q48 0 65 -72v-11q0 -48 -69 -65h-219v-750l3 -42q0 -51 -75 -68q-52 0 -76 64l4 46v750h-198q-52 0 -64 80q0 38 61 68l75 -3h122v68q0 254 223 348z" />
<glyph unicode="g" horiz-adv-x="1208" d="M548 1021q227 0 394 -189q115 -158 115 -298l-4 -126v-449q0 -126 -193 -275q-149 -97 -312 -97q-279 0 -461 249q-33 55 -33 74v11q0 49 67 64h11q50 0 85 -93q134 -168 331 -168q237 0 357 216l7 48v167q-165 -152 -353 -152h-30q-205 0 -382 193q-108 153 -108 316 q0 248 219 416q140 93 290 93zM184 523v-18q0 -227 238 -338q64 -19 115 -19h22q222 0 335 238q18 71 18 111v23q0 226 -241 338q-75 18 -116 18h-14q-222 0 -335 -234q-22 -65 -22 -119z" />
<glyph unicode="h" horiz-adv-x="1125" d="M137 1430h15q68 -14 68 -60v-461q145 125 310 125q252 0 403 -238q57 -106 57 -200v-528q0 -56 -72 -68h-3q-54 0 -72 68v506q0 204 -211 294q-51 15 -102 15q-210 0 -295 -223q-15 -48 -15 -158v-434q0 -56 -72 -68h-3q-54 0 -72 68v1291q15 71 64 71z" />
<glyph unicode="i" horiz-adv-x="431" d="M177 1286q72 -18 72 -64v-22q0 -53 -79 -64q-51 0 -68 75q15 75 75 75zM177 1030q72 -18 72 -64v-898q0 -56 -72 -68h-4q-57 0 -71 75v869q9 86 75 86z" />
<glyph unicode="j" horiz-adv-x="656" d="M436 1277q74 -15 74 -74q0 -62 -78 -74q-66 19 -66 63v22q0 45 70 63zM440 1026q70 -14 70 -70v-928q0 -276 -262 -403q-92 -33 -159 -33l-4 4h-4l-3 -4h-4q-63 0 -74 81q0 55 81 67q208 0 277 210l8 111v895q0 58 74 70z" />
<glyph unicode="k" horiz-adv-x="1056" d="M141 1435h15q69 -15 69 -61v-746q535 354 624 405h19q60 0 72 -79q0 -46 -121 -110q-294 -199 -307 -201v-3l424 -538l4 -23v-3q-13 -72 -72 -72h-7q-44 0 -133 128l-341 424h-3l-159 -102v-386q0 -56 -72 -68h-4q-54 0 -72 68v1295q15 72 64 72z" />
<glyph unicode="l" horiz-adv-x="473" d="M129 1427h15q68 -14 68 -60v-1220h79q49 0 64 -72v-3q-12 -72 -72 -72h-146q-58 0 -72 75v1270q9 82 64 82z" />
<glyph unicode="m" horiz-adv-x="1675" d="M137 1006q70 -18 70 -62v-37q122 99 265 99q190 0 334 -176q59 109 242 165l84 11q230 0 364 -220q44 -92 44 -176v-548q0 -48 -70 -62h-3q-70 12 -70 70v532q0 181 -191 250l-51 7h-37q-152 0 -232 -176q-11 -39 -11 -66v-544q-13 -73 -69 -73h-4q-70 12 -70 66v452 q0 188 -51 235q-79 106 -206 106h-11q-175 0 -246 -187q-11 -45 -11 -118v-488q0 -54 -70 -66h-3q-56 0 -70 73v849q8 84 73 84z" />
<glyph unicode="n" horiz-adv-x="1197" d="M153 1023q71 -18 71 -64v-82q162 146 354 146q211 0 374 -176q119 -147 119 -309v-475q0 -49 -71 -63h-4q-71 13 -71 71v418q0 281 -242 370q-59 15 -105 15h-11q-203 0 -314 -210q-29 -64 -29 -205v-392q0 -55 -71 -67h-4q-57 0 -71 75v862q9 86 75 86z" />
<glyph unicode="o" horiz-adv-x="1170" d="M547 1018q197 0 357 -149q152 -160 152 -360q0 -286 -271 -450q-117 -59 -227 -59h-30q-205 0 -382 193q-108 153 -108 316q0 248 219 416q140 93 290 93zM187 520v-18q0 -204 197 -316q71 -37 152 -37h22q211 0 323 219q26 69 26 134v18q0 170 -156 286q-91 63 -208 63 q-231 0 -338 -241q-18 -59 -18 -108z" />
<glyph unicode="p" horiz-adv-x="1172" d="M566 1020q196 0 355 -148q152 -160 152 -359q0 -285 -270 -448q-117 -59 -226 -59h-30q-176 0 -344 152v-511q0 -47 -74 -63q-53 0 -70 74v822q0 384 363 518q45 14 144 22zM207 524v-19q0 -202 196 -314q71 -37 152 -37h22q211 0 322 218q26 69 26 133v19 q0 169 -155 285q-92 63 -208 63q-230 0 -336 -241q-19 -59 -19 -107z" />
<glyph unicode="q" horiz-adv-x="1178" d="M550 1010q195 0 354 -147q151 -147 151 -391v-818q-17 -74 -70 -74q-74 16 -74 63v508q-164 -151 -350 -151h-29q-204 0 -380 192q-107 152 -107 313q0 246 217 413q140 92 288 92zM192 516v-18q0 -202 196 -313q70 -37 151 -37h22q210 0 321 217q26 69 26 133v18 q0 168 -155 284q-91 63 -207 63q-229 0 -335 -240q-19 -58 -19 -107z" />
<glyph unicode="r" horiz-adv-x="925" d="M174 1031q72 -18 72 -64v-83q165 147 353 147q101 0 215 -49q30 -31 30 -60v-4q-12 -71 -71 -71h-4q-103 33 -155 33h-22q-221 0 -324 -229q-22 -61 -22 -139v-444q0 -56 -72 -68h-4q-57 0 -71 75v869q9 87 75 87z" />
<glyph unicode="s" horiz-adv-x="968" d="M445 1017q257 0 404 -233l3 -29v-4q0 -59 -74 -70q-49 0 -100 85q-103 100 -233 100q-171 0 -270 -163l-3 -19q0 -49 111 -59q426 -103 466 -118q107 -70 107 -178v-3q0 -154 -226 -282q-97 -44 -207 -44q-225 0 -381 211q-15 22 -15 41v22q0 54 82 63q35 0 100 -93 q99 -92 229 -92q156 0 259 148l7 22v4q0 48 -66 55q-497 111 -526 137q-92 70 -92 170q0 140 203 270q112 59 222 59z" />
<glyph unicode="t" horiz-adv-x="704" d="M270 1390h14q66 -14 66 -59v-330h151l33 4q51 0 69 -74q0 -50 -62 -73l-55 4h-136v-539q0 -141 92 -173l84 -7h41q48 0 62 -70v-3q-12 -70 -70 -70h-77q-175 0 -260 191q-15 47 -15 110v561h-73l-59 -4q-62 22 -62 73q12 70 66 70v4l37 -4h91v308q9 81 63 81z" />
<glyph unicode="u" horiz-adv-x="1188" d="M145 1027q71 -18 71 -64v-401q0 -257 146 -345q93 -71 207 -71q218 0 329 225q23 73 23 146v435q15 75 75 75q71 -16 71 -71v-892q0 -50 -71 -64h-4q-71 13 -71 71v71h-4q-156 -142 -337 -142h-26q-233 0 -405 229q-79 123 -79 303v409q9 86 75 86z" />
<glyph unicode="v" horiz-adv-x="1132" d="M97 1029h7q59 0 102 -124l322 -661q350 742 372 766q26 19 49 19q75 -14 75 -71v-4q0 -19 -165 -361l-278 -570q-30 -23 -53 -23h-3q-64 0 -113 143q-363 742 -383 800v18q13 68 68 68z" />
<glyph unicode="w" horiz-adv-x="1416" d="M108 1009q68 0 95 -148l181 -555h3q207 659 221 677q26 22 56 26q66 0 88 -122l188 -581h3q199 631 217 670q31 33 59 33q74 -15 74 -74l-291 -906q-31 -29 -59 -29h-3q-68 0 -96 144q-177 536 -177 552h-7l-214 -663q-25 -33 -59 -33h-3q-52 0 -74 66l-276 869 q15 74 74 74z" />
<glyph unicode="x" horiz-adv-x="968" d="M111 1006q45 0 114 -106q188 -225 228 -283h4q32 32 301 371q13 12 47 18q70 -17 70 -62v-22q0 -23 -132 -177l-195 -246q327 -393 327 -411v-22q0 -54 -70 -66h-3q-43 0 -96 84l-249 305q-294 -367 -309 -378q-18 -11 -37 -11h-3q-59 0 -70 77q0 29 140 187l187 239 l-320 400l-7 30q15 73 73 73z" />
<glyph unicode="y" horiz-adv-x="913" d="M751 1012q69 -13 69 -66v-4q-3 -25 -345 -840q-161 -401 -181 -426q-18 -14 -45 -21q-70 15 -70 60v17q0 13 157 391v3l-332 810v3q14 69 70 69q59 0 101 -138q227 -538 234 -566h3q274 669 290 687q25 21 49 21z" />
<glyph unicode="z" horiz-adv-x="1018" d="M104 1012l37 -4h639l34 4q66 -20 66 -63v-22q0 -23 -85 -115l-532 -668h551q66 -13 66 -66v-12q0 -54 -70 -66h-702q-59 0 -70 78q0 29 151 203l466 587h-495l-59 -4q-63 22 -63 74q12 70 66 70v4z" />
<glyph unicode="{" d="M683 1590h140q67 0 84 -61v-23q0 -48 -68 -64h-145q-72 0 -72 -76v-579q0 -47 -46 -121q49 -55 49 -130v-586q0 -61 73 -61h141q68 -14 68 -68v-15q0 -50 -72 -65h-149q-150 0 -205 167l-4 50v574q0 50 -53 61h-84q-76 15 -76 76q16 73 65 73h61q83 0 83 53v574 q0 166 168 217z" />
<glyph unicode="|" d="M504 1619h8q69 -13 69 -69v-1908q0 -48 -77 -65q-58 0 -73 81v1884q13 77 73 77z" />
<glyph unicode="}" d="M177 1578h154q141 0 198 -157l4 -34v-580q0 -64 86 -64h60q60 -18 60 -67v-15q0 -50 -71 -64h-79q-60 0 -60 -94v-554q0 -126 -157 -187l-45 -4h-150q-71 11 -71 71v4q12 71 67 71h139q71 0 71 60v562q0 85 49 146q-45 65 -45 120v580q0 60 -71 60h-143q-55 0 -67 71 q11 75 71 75z" />
<glyph unicode="~" d="M373 851h24q92 0 212 -81l38 -10h24l96 29q96 -19 96 -96q0 -97 -182 -120h-34q-91 0 -211 82l-39 9h-24l-91 -24h-10q-86 17 -86 87v14q0 72 106 96q38 14 81 14z" />
<glyph unicode="&#xa1;" horiz-adv-x="672" d="M300 1327h14q62 0 87 -63l7 -28q0 -85 -101 -98q-76 0 -91 98q20 91 84 91zM310 1065h4q66 -11 66 -66v-929q-10 -66 -66 -66h-7q-63 12 -63 63v935q0 52 66 63z" />
<glyph unicode="&#xa2;" horiz-adv-x="1105" d="M772 1387h11q66 -12 66 -66v-11l-117 -343q179 -82 179 -147v-3q-12 -70 -69 -70h-4q-27 0 -117 70l-37 14l-234 -673q42 -14 106 -14q126 0 249 102l29 8h11q54 0 66 -70v-4q0 -74 -234 -164q-79 -15 -117 -15h-29q-49 0 -132 22q-93 -286 -113 -300l-48 -18 q-73 17 -73 73q0 14 106 307q-223 166 -223 417q0 271 260 439q128 62 245 62l40 -3q117 354 132 365q24 22 47 22zM191 499q0 -156 128 -271h3l220 629h-4q-212 0 -322 -223q-25 -76 -25 -135z" />
<glyph unicode="&#xa3;" horiz-adv-x="946" d="M488 1473h39q182 0 309 -170l4 -27q-18 -77 -77 -77q-36 0 -101 73q-66 50 -135 50h-23q-153 0 -216 -181l-4 -50q0 -78 139 -317h232q77 -15 77 -77q-17 -74 -66 -74h-205l4 -27v-50q0 -126 -108 -340l-19 -46h390q7 0 42 81q32 31 62 31q78 -16 78 -78q0 -27 -74 -162 q-27 -23 -54 -23h-568q-59 0 -73 77q0 18 150 344q24 69 24 128l-4 65h-159q-73 14 -73 74q15 77 77 77h89v4q-112 204 -112 316q0 231 243 356q76 23 112 23z" />
<glyph unicode="&#xa4;" d="M254 1047h20q36 0 108 -80q64 36 124 36h24q73 0 136 -36q69 80 100 80h28q64 -20 64 -72v-8q0 -38 -80 -112q36 -69 36 -140q0 -63 -36 -148q80 -64 80 -104v-16q-21 -68 -68 -68h-20q-27 0 -104 80h-4q-64 -36 -144 -36q-53 0 -140 36q-65 -80 -108 -80h-8 q-72 14 -72 72v12q0 42 80 108q-36 71 -36 128v20q0 69 36 140q-80 65 -80 104v20q20 64 64 64zM382 715q0 -100 116 -140h28q109 0 136 124v28q-29 124 -124 124l-12 4q-144 -24 -144 -140z" />
<glyph unicode="&#xa5;" horiz-adv-x="1262" d="M144 1230h169q61 0 74 -77q0 -47 -70 -67q223 -344 294 -442h8q302 438 302 450h-4q-41 25 -41 55v18q19 63 74 63h144q61 0 73 -77q0 -33 -58 -70l-107 -159h73q85 -8 85 -70v-7q0 -53 -70 -66h-188l-107 -162h288q77 -15 77 -70v-4q0 -60 -74 -70v-4l-36 4h-354v-409 q0 -49 -74 -66h-3q-62 0 -85 59l4 63v346l-8 7h-350l-33 -4q-77 16 -77 74q0 60 77 74h291q-105 162 -110 162h-192q-66 19 -66 70q0 65 85 73h81q-105 165 -114 166q-52 23 -52 74q0 49 74 66z" />
<glyph unicode="&#xa6;" horiz-adv-x="770" d="M359 1615h8q69 -13 69 -69v-681q0 -56 -73 -69h-4q-59 0 -73 77v665q13 77 73 77zM363 396q73 -19 73 -65v-693q0 -48 -77 -65q-58 0 -73 81v654q9 88 77 88z" />
<glyph unicode="&#xa7;" d="M511 1440h35q165 0 291 -151l4 -23q-10 -63 -54 -63h-19q-20 0 -94 70q-67 43 -143 43q-181 0 -241 -202v-46q0 -155 175 -229q188 -29 237 -82q124 -110 124 -233v-50q0 -116 -136 -233q163 -124 163 -303q0 -204 -194 -322q-87 -43 -167 -43h-12q-182 0 -306 155l-4 24 q0 52 70 62q24 0 85 -62q76 -55 155 -55q162 0 233 171l12 66q0 182 -202 248q-121 15 -171 47q-167 113 -167 268v19q0 158 140 253q-163 129 -163 299v15q0 205 198 318q76 39 151 39zM313 520v-15q0 -132 148 -183l39 -4h23q123 0 175 148l4 39q0 143 -163 190l-39 4 q-130 0 -183 -144z" />
<glyph unicode="&#xa8;" horiz-adv-x="1024" d="M292 1309q80 -19 80 -80q-16 -80 -80 -80q-80 16 -80 80q19 80 80 80zM744 1309q80 -19 80 -80q-16 -80 -80 -80q-80 16 -80 80q19 80 80 80z" />
<glyph unicode="&#xa9;" horiz-adv-x="1674" d="M833 1441q361 0 599 -324q120 -183 120 -399q0 -386 -358 -621q-171 -98 -369 -98q-325 0 -561 279q-154 206 -154 440q0 352 309 591q196 132 414 132zM219 729v-18q0 -324 309 -528q157 -79 305 -79q314 0 516 283q98 158 98 335q0 318 -294 523q-157 87 -301 87h-38 q-281 0 -482 -256q-113 -163 -113 -347zM844 1230q189 0 350 -143q15 -20 15 -41v-8q0 -64 -79 -71h-3q-15 0 -125 79q-95 37 -165 37q-227 0 -343 -233q-23 -65 -23 -124v-27q0 -183 185 -305q95 -49 181 -49q134 0 267 110l30 7q75 -10 75 -71v-8q0 -72 -218 -162 q-96 -22 -154 -22q-298 0 -463 289q-53 116 -53 230q0 267 248 437q123 75 275 75z" />
<glyph unicode="&#xaa;" horiz-adv-x="648" d="M289 1397h32q150 0 228 -168l16 -76l-4 -64v-140l4 -24q-7 -27 -28 -36h-12q-22 0 -36 24v48q-86 -72 -172 -72h-8q-184 0 -248 196q-8 20 -8 60q0 176 196 248zM129 1137q0 -130 156 -172h32q117 0 168 140l4 40q0 118 -132 172l-48 8q-121 0 -176 -136z" />
<glyph unicode="&#xab;" horiz-adv-x="944" d="M510 812q44 -14 44 -32v-20q0 -20 -184 -236l-24 -32q212 -242 212 -268q-8 -44 -40 -44h-20q-35 26 -252 296l-4 20q0 22 120 160q120 152 140 152l4 4h4zM766 808q36 -19 36 -44v-4q0 -21 -204 -260l-4 -12q196 -228 208 -252v-20q-8 -40 -40 -40h-4q-31 0 -104 104 q-164 185 -164 208v20q204 258 252 296z" />
<glyph unicode="&#xac;" d="M147 752h712q72 -14 72 -72v-348q0 -53 -76 -68h-4q-76 14 -76 76v256h-616q-80 16 -80 80q17 76 68 76z" />
<glyph unicode="&#xae;" horiz-adv-x="1674" d="M828 1446q364 0 604 -325q121 -184 121 -400q0 -387 -360 -623q-173 -98 -372 -98q-328 0 -565 279q-156 208 -156 442q0 353 311 593q198 132 417 132zM210 732v-18q0 -325 311 -529q158 -79 307 -79q317 0 520 283q99 159 99 336q0 319 -296 525q-158 87 -304 87h-38 q-283 0 -485 -257q-114 -164 -114 -348zM616 1216h186q205 0 269 -208q8 -21 8 -64q0 -149 -156 -234q225 -388 235 -416v-7q-16 -45 -45 -45h-15q-34 0 -80 98l-201 347h-148v-396q-7 -49 -42 -49h-26q-34 19 -34 45v876q8 53 49 53zM669 1114v-329h95q160 0 197 98 q15 35 15 72q0 106 -121 151q-17 8 -49 8h-137z" />
<glyph unicode="&#xaf;" horiz-adv-x="806" d="M-12 1776h844q70 -13 70 -70v-12q-13 -70 -67 -70h-847q-60 0 -70 82q19 70 70 70z" />
<glyph unicode="&#xb0;" horiz-adv-x="674" d="M340 1341q-74 0 -127 -52.5t-53 -127.5t52.5 -126.5t127.5 -51.5t126.5 51.5t51.5 126.5t-52 127.5t-126 52.5zM339 1442q115 0 196 -81.5t81 -196.5q0 -114 -82 -196t-197 -82q-117 0 -197 81t-80 197t81.5 197t197.5 81z" />
<glyph unicode="&#xb1;" d="M513 1188h24q43 0 68 -68l-4 -40v-192h224q80 -13 80 -76v-8q0 -56 -72 -76l-28 4h-204v-188l4 -44q0 -54 -80 -72q-55 0 -80 68l4 48v188h-204l-24 -4q-76 19 -76 76v8q0 61 80 76h224v192l-4 36q22 72 68 72zM213 368l48 -4h536l36 4q72 -20 72 -76v-8q0 -51 -64 -76 l-68 4h-496l-64 -4q-68 23 -68 76v8q0 50 68 76z" />
<glyph unicode="&#xb2;" d="M506 1537q95 0 166 -86q37 -56 37 -116q0 -93 -90 -177l-197 -225h264q26 0 32 -33v-2q-5 -34 -34 -34h-343q-33 6 -33 34v2q0 16 33 47l274 313q23 33 23 75q0 90 -93 125q-16 5 -36 5h-5q-86 0 -124 -91q-5 -20 -7 -46q-12 -25 -32 -25h-3q-34 6 -34 32q0 106 101 173 q54 29 101 29z" />
<glyph unicode="&#xb3;" d="M503 1543q80 0 138 -72q32 -44 32 -97v-7q0 -74 -64 -131q93 -67 93 -170q0 -106 -100 -176q-52 -29 -103 -29h-5q-120 0 -187 124q-16 46 -16 82q0 25 38 33q27 0 32 -36q0 -77 81 -122q30 -11 57 -11q81 0 122 84q9 26 9 44v14q0 76 -84 118l-59 13q-18 14 -18 30v2 q0 34 48 34q35 0 74 47q14 30 14 56q0 58 -57 89q-21 11 -47 11q-67 0 -95 -72q-6 -52 -13 -52q-12 -14 -25 -14q-36 8 -36 30v9q0 94 94 149q36 18 77 20z" />
<glyph unicode="&#xb4;" horiz-adv-x="889" d="M516 1414q68 0 80 -88q0 -40 -184 -204q-68 -84 -108 -84h-12q-72 14 -72 72v16q0 34 140 160q113 128 156 128z" />
<glyph unicode="&#xb5;" horiz-adv-x="1180" d="M194 1019q70 -18 70 -63v-399q0 -257 146 -343q92 -71 205 -71q218 0 328 224q23 72 23 145v433q15 74 74 74q71 -16 71 -71v-887q0 -49 -71 -64h-3q-71 13 -71 71v71h-4q-156 -142 -336 -142h-26q-175 0 -336 146v-508q0 -47 -74 -63q-56 0 -71 78v1284q9 85 75 85z" />
<glyph unicode="&#xb6;" horiz-adv-x="1024" d="M403 1435h462q68 -15 68 -61v-19q0 -56 -72 -68h-11v-1211q-14 -76 -72 -76h-4q-72 12 -72 68v1219h-140v-1215q-12 -72 -72 -72h-4q-72 13 -72 72v674h-11q-186 0 -299 196q-34 75 -34 152q0 201 204 310q62 31 129 31z" />
<glyph unicode="&#xb7;" horiz-adv-x="508" d="M275 746q90 0 116 -107v-21q0 -64 -82 -101q-12 -6 -34 -6h-3q-96 0 -116 119q0 76 86 110q12 6 33 6z" />
<glyph unicode="&#x2219;" horiz-adv-x="508" d="M275 746q90 0 116 -107v-21q0 -64 -82 -101q-12 -6 -34 -6h-3q-96 0 -116 119q0 76 86 110q12 6 33 6z" />
<glyph unicode="&#xb8;" horiz-adv-x="1024" d="M548 37q66 -13 66 -59v-56q104 -69 104 -170q0 -146 -170 -188l-49 3h-52l-56 -3q-59 20 -59 59v14q12 63 63 63h121q66 0 66 52v3q0 40 -62 52q-42 20 -42 53v111q0 53 70 66z" />
<glyph unicode="&#xb9;" d="M535 1564h5q32 -7 32 -31v-611q-6 -34 -34 -34h-1q-34 7 -34 30v564q-48 -16 -63 -16q-22 0 -30 32v9q0 26 72 41z" />
<glyph unicode="&#xba;" horiz-adv-x="718" d="M370 1543q107 0 164 -115q31 -96 31 -177v-38q0 -100 -41 -201q-59 -92 -150 -92h-6q-98 0 -155 105q-36 92 -36 205v5q0 119 42 216q62 92 151 92zM236 1239v-17q0 -114 41 -191q40 -49 90 -49h5q111 0 129 171q5 27 7 80q0 95 -33 182q-41 65 -103 65q-76 0 -111 -83 q-25 -82 -25 -158z" />
<glyph unicode="&#xbb;" horiz-adv-x="944" d="M499 803q31 0 108 -108q160 -180 160 -204v-20q-195 -249 -256 -300h-28q-19 9 -28 28v20q0 25 204 256l4 16q-208 239 -208 264q10 48 44 48zM255 799q30 0 124 -128q144 -161 144 -188q0 -22 -204 -260q-39 -56 -64 -56h-4q-44 8 -44 44q0 25 108 148l104 128 q-197 229 -208 252v20q0 32 44 40z" />
<glyph unicode="&#xbc;" horiz-adv-x="1470" d="M1185 1442h12q56 0 68 -72v-4q0 -34 -125 -179q-96 -134 -902 -1172q-25 -15 -50 -15q-68 19 -68 65v23q0 23 145 201q813 1061 878 1138q20 15 42 15zM318 1434q25 0 45 -34l-3 -57v-654l3 -35q-13 -41 -45 -41q-26 0 -42 30v685l-65 -15h-19q-30 16 -30 41q0 48 110 65 q0 5 46 15zM1155 829q29 0 45 -38l-3 -38v-418h87q35 0 42 -50q-16 -38 -46 -38h-83v-217q-18 -30 -42 -30q-46 9 -46 46v201h-338q-38 8 -38 38v19q335 431 384 503q15 22 38 22zM1105 647l-236 -312h240v312h-4z" />
<glyph unicode="&#xbd;" horiz-adv-x="1492" d="M1172 1437h11q56 0 68 -72v-4q0 -34 -125 -178q-95 -133 -898 -1168q-25 -15 -50 -15q-68 19 -68 64v23q0 23 144 201q811 1057 876 1134q20 15 42 15zM307 1429q25 0 46 -34l-4 -57v-652l4 -34q-14 -42 -46 -42q-25 0 -42 31v682l-64 -15h-19q-30 16 -30 42q0 47 110 64 q0 5 45 15zM1077 815q171 0 243 -186l3 -38v-41q0 -98 -155 -247l-186 -216h296l15 4q42 -14 42 -30v-19q-8 -38 -38 -38h-417q-33 0 -42 45q0 15 182 213q212 235 212 265l4 27v34q-32 140 -155 140q-108 0 -156 -121q0 -64 -34 -76h-15q-27 0 -42 38q0 160 175 235z" />
<glyph unicode="&#xbe;" horiz-adv-x="1541" d="M367 1438q124 0 188 -129q15 -35 15 -64v-22q0 -83 -75 -155q109 -76 109 -204q0 -176 -196 -241l-53 -4h-7q-166 0 -234 196l-4 53q0 20 30 38h19q39 0 45 -83q44 -117 147 -117h12q112 0 151 132l4 30q0 109 -129 155q-68 0 -68 49q10 41 61 41q76 0 102 106v26 q0 71 -99 106h-22q-85 0 -117 -98v-34q-16 -30 -38 -30h-11q-38 7 -38 37v8q0 143 162 200zM1268 1430h12q55 0 68 -72v-3q0 -34 -125 -178q-95 -133 -894 -1162q-25 -15 -49 -15q-68 19 -68 64v23q0 23 143 200q807 1052 872 1128q20 15 41 15zM1238 823q29 0 45 -38 l-3 -38v-415h86q35 0 42 -49q-16 -38 -45 -38h-83v-215q-18 -30 -42 -30q-45 9 -45 45v200h-336q-38 8 -38 38v19q333 427 381 498q16 23 38 23zM1189 641l-234 -309h238v309h-4z" />
<glyph unicode="&#xbf;" horiz-adv-x="977" d="M441 1080h11q81 0 98 -105q-18 -98 -102 -98h-4q-84 0 -101 98v3q19 102 98 102zM441 775q75 -13 75 -72v-7q0 -256 -245 -400q-98 -93 -98 -222q0 -166 173 -256q65 -23 113 -23q164 0 253 162q21 35 34 143q35 42 68 42q75 -18 75 -72q0 -210 -207 -358 q-115 -64 -223 -64q-214 0 -354 185q-79 112 -79 248q0 244 245 392q102 92 102 260q31 42 68 42z" />
<glyph unicode="&#xc0;" horiz-adv-x="1220" d="M477 1786h7q46 0 133 -125q60 -64 60 -94q-13 -76 -71 -76h-16q-37 0 -140 144q-45 38 -45 83q19 68 72 68zM560 1438q69 0 102 -140q458 -1190 462 -1219v-11q0 -56 -72 -68h-4q-66 0 -94 129l-171 442h-442l-209 -548q-30 -23 -53 -23h-7q-72 13 -72 72v4l129 348 q338 879 367 976q34 38 64 38zM560 1150l-159 -431h326v4l-163 427h-4z" />
<glyph unicode="&#xc1;" horiz-adv-x="1212" d="M622 1778h3q72 -14 72 -64v-15q0 -32 -79 -117q-65 -98 -109 -98h-12q-55 0 -67 72v4q0 37 116 166q33 52 76 52zM558 1432q68 0 101 -140q456 -1185 460 -1213v-11q0 -56 -72 -68h-3q-67 0 -95 128l-169 441h-441l-207 -546q-30 -23 -53 -23h-7q-72 13 -72 72v3l128 347 q337 875 366 972q33 38 64 38zM558 1145l-159 -429h324v4l-162 425h-3z" />
<glyph unicode="&#xc2;" horiz-adv-x="1212" d="M550 1771h30q36 0 125 -121q60 -64 60 -98v-3q-11 -72 -72 -72h-7q-46 0 -121 113h-4q-80 -113 -120 -113h-11q-58 0 -72 75q0 33 117 166q36 53 75 53zM558 1432q68 0 101 -140q456 -1185 460 -1213v-11q0 -56 -72 -68h-3q-67 0 -95 128l-169 441h-441l-207 -546 q-30 -23 -53 -23h-7q-72 13 -72 72v3l128 347q337 875 366 972q33 38 64 38zM558 1145l-159 -429h324v4l-162 425h-3z" />
<glyph unicode="&#xc3;" horiz-adv-x="1216" d="M452 1695q79 0 189 -71l33 -4l76 23h7q72 -12 72 -72v-4q0 -70 -124 -90l-38 -4q-79 0 -181 72l-30 4l-83 -23q-75 14 -75 71v8q0 72 139 87zM558 1432q68 0 101 -140q456 -1185 460 -1213v-11q0 -56 -72 -68h-3q-67 0 -95 128l-169 441h-441l-207 -546q-30 -23 -53 -23 h-7q-72 13 -72 72v3l128 347q337 875 366 972q33 38 64 38zM558 1145l-159 -429h324v4l-162 425h-3z" />
<glyph unicode="&#xc4;" horiz-adv-x="1225" d="M411 1684h11q68 -15 68 -64v-11q0 -60 -76 -72q-71 14 -71 72v11q0 49 68 64zM697 1684h15q53 0 64 -79q0 -51 -75 -68q-72 13 -72 68v19q19 60 68 60zM558 1432q68 0 101 -140q456 -1185 460 -1213v-11q0 -56 -72 -68h-3q-67 0 -95 128l-169 441h-441l-207 -546 q-30 -23 -53 -23h-7q-72 13 -72 72v3l128 347q337 875 366 972q33 38 64 38zM558 1145l-159 -429h324v4l-162 425h-3z" />
<glyph unicode="&#xc5;" horiz-adv-x="1219" d="M555 1832h15q121 0 174 -147l4 -38v-11q0 -118 -140 -174l-45 -8q-113 0 -174 114q-19 41 -19 79q0 127 148 181zM487 1643q13 -71 72 -71q72 12 72 68v11q-11 64 -64 64h-12q-57 0 -68 -72zM559 1436q69 0 102 -140q457 -1189 461 -1217v-11q0 -56 -72 -68h-4 q-66 0 -94 128l-170 442h-442l-208 -547q-30 -23 -53 -23h-7q-72 13 -72 72v4l128 347q338 878 367 975q34 38 64 38zM559 1148l-159 -430h325v4l-162 426h-4z" />
<glyph unicode="&#xc6;" horiz-adv-x="1565" d="M780 1435h595q46 0 64 -72q-15 -75 -76 -75h-500v-568h390q69 -15 69 -61v-19q0 -56 -72 -68h-387v-424h504q58 0 72 -76q0 -56 -76 -72h-575q-58 0 -72 76v496h-277q-20 -24 -166 -296l-144 -253q-27 -23 -53 -23h-4q-60 0 -72 80q0 22 242 446l493 886q28 23 45 23z M519 720h197v352z" />
<glyph unicode="&#xc7;" horiz-adv-x="1399" d="M713 1432q223 0 404 -134q19 -25 19 -48q-13 -74 -74 -74q-17 0 -134 63q-119 44 -215 44q-264 0 -455 -241q-97 -161 -97 -315q0 -308 289 -489q128 -67 256 -67h11q162 0 323 100l18 4h8q70 -12 70 -70v-4q0 -93 -293 -167l-67 -7v-74q112 -74 112 -182 q0 -156 -182 -200l-52 4h-55l-60 -4q-63 21 -63 63v15q13 67 67 67h130q70 0 70 55v4q0 42 -67 55q-44 21 -44 56v141q-145 14 -315 118q-304 236 -304 582q0 366 334 597q178 108 366 108z" />
<glyph unicode="&#xc8;" horiz-adv-x="1039" d="M72 1436l19 -4h740l15 4q65 0 76 -83q-15 -68 -83 -68h-692v-510h454l53 3q51 0 68 -75q0 -49 -61 -76l-75 4h-439v-484h711q52 0 64 -79q-20 -68 -68 -68h-782q-72 13 -72 72v1288q11 72 72 72v4zM355 1829h8q45 0 132 -125q60 -64 60 -94q-13 -76 -71 -76h-15 q-38 0 -140 144q-46 38 -46 83q20 68 72 68z" />
<glyph unicode="&#xc9;" d="M72 1436l19 -4h740l15 4q65 0 76 -83q-15 -68 -83 -68h-692v-510h454l53 3q51 0 68 -75q0 -49 -61 -76l-75 4h-439v-484h711q52 0 64 -79q-20 -68 -68 -68h-782q-72 13 -72 72v1288q11 72 72 72v4zM476 1829h4q75 -15 75 -76q0 -32 -90 -132q-61 -87 -95 -87h-22 q-53 0 -65 80q0 27 118 162q36 53 75 53z" />
<glyph unicode="&#xca;" d="M72 1436l19 -4h740l15 4q65 0 76 -83q-15 -68 -83 -68h-692v-510h454l53 3q51 0 68 -75q0 -49 -61 -76l-75 4h-439v-484h711q52 0 64 -79q-20 -68 -68 -68h-782q-72 13 -72 72v1288q11 72 72 72v4zM461 1787h19q45 0 117 -102q76 -84 76 -109v-15q-14 -68 -61 -68h-26 q-32 0 -117 113q-78 -113 -114 -113h-26q-47 0 -61 68v15q0 32 159 204z" />
<glyph unicode="&#xcb;" horiz-adv-x="1027" d="M72 1436l19 -4h740l15 4q65 0 76 -83q-15 -68 -83 -68h-692v-510h454l53 3q51 0 68 -75q0 -49 -61 -76l-75 4h-439v-484h711q52 0 64 -79q-20 -68 -68 -68h-782q-72 13 -72 72v1288q11 72 72 72v4zM306 1704h11q68 -15 68 -64v-11q0 -60 -75 -72q-72 14 -72 72v11 q0 49 68 64zM593 1704h15q53 0 65 -79q0 -51 -76 -68q-72 12 -72 68v19q19 60 68 60z" />
<glyph unicode="&#xcc;" horiz-adv-x="657" d="M219 1818q44 0 121 -109q71 -77 71 -113q-15 -75 -75 -75q-45 0 -106 90q-86 97 -86 121v22q0 50 75 64zM182 1431l18 -4h140l15 4q75 -17 75 -76q-13 -75 -72 -75h-15v-1133h23q49 0 64 -72v-3q-13 -72 -72 -72h-176q-72 13 -72 72v3q15 72 64 72h23v1133h-15 q-63 0 -72 79v4q0 46 72 68z" />
<glyph unicode="&#xcd;" horiz-adv-x="657" d="M374 1828h4q75 -15 75 -76q0 -32 -90 -132q-61 -87 -95 -87h-22q-53 0 -64 80q0 27 117 162q36 53 75 53zM212 1435l19 -4h139l15 4q76 -16 76 -75q-13 -76 -72 -76h-15v-1137h23q49 0 64 -71v-4q-13 -72 -72 -72h-177q-72 13 -72 72v4q15 71 64 71h23v1137h-15 q-63 0 -72 79v4q0 47 72 68z" />
<glyph unicode="&#xce;" horiz-adv-x="657" d="M285 1783h30q48 0 136 -128q57 -59 57 -91q-13 -76 -72 -76h-7q-48 0 -114 102l-15 12q-74 -114 -121 -114h-7q-72 12 -72 72v4q0 36 113 162q40 57 72 57zM217 1436l19 -4h140l15 4q75 -17 75 -76q-13 -76 -71 -76h-15v-1137h22q50 0 64 -71v-4q-12 -72 -71 -72h-178 q-72 13 -72 72v4q15 71 65 71h22v1137h-15q-63 0 -72 80v4q0 46 72 68z" />
<glyph unicode="&#xcf;" horiz-adv-x="657" d="M144 1683h15q68 -14 68 -60v-19q0 -55 -72 -68q-75 15 -75 76q16 71 64 71zM434 1683h11q68 -15 68 -64v-11q0 -60 -75 -72q-72 14 -72 72v11q0 49 68 64zM212 1431l19 -4h139l15 4q75 -16 75 -76q-13 -75 -71 -75h-15v-1133h22q50 0 64 -72v-3q-12 -72 -71 -72h-177 q-72 13 -72 72v3q15 72 64 72h23v1133h-15q-63 0 -72 79v4q0 46 72 68z" />
<glyph unicode="&#xd0;" horiz-adv-x="1275" d="M471 1430q331 0 568 -289q143 -196 143 -430q0 -373 -350 -613q-180 -98 -358 -98h-252q-53 0 -71 68v587h-83q-68 15 -68 68v15q0 49 72 64h79v553q15 72 64 72h222zM297 1284v-482h283q71 -13 71 -68v-11q-13 -68 -68 -68h-286v-508h155q363 0 530 331q53 113 53 237 q0 306 -286 493q-120 76 -380 76h-72z" />
<glyph unicode="&#xd1;" horiz-adv-x="1288" d="M454 1701q78 0 189 -72l34 -4l71 23h12q72 -11 72 -72v-4q0 -70 -125 -90l-38 -4q-79 0 -181 72l-31 3l-83 -22q-75 14 -75 72v7q0 72 139 87zM64 1432h15q46 0 80 -68l839 -1077h4v1077q13 68 68 68h11q56 0 68 -71v-1289q-13 -72 -72 -72h-4q-51 0 -117 106l-809 1032 v-1070q0 -56 -71 -68h-4q-54 0 -72 68v1293q15 71 64 71z" />
<glyph unicode="&#xd2;" horiz-adv-x="1519" d="M646 1821h22q34 0 102 -94q82 -91 82 -124q-14 -75 -75 -75h-3q-47 0 -121 113q-71 70 -71 109q16 71 64 71zM714 1427q361 0 604 -334q109 -190 109 -383q0 -357 -323 -594q-184 -116 -383 -116h-15q-367 0 -601 342q-105 173 -105 375q0 341 300 575q196 135 414 135z M146 706q0 -273 241 -458q150 -102 319 -102h19q266 0 450 237q106 152 106 331q0 308 -282 488q-138 79 -285 79q-282 0 -466 -245q-102 -146 -102 -330z" />
<glyph unicode="&#xd3;" horiz-adv-x="1532" d="M768 1826h15q72 -15 72 -71q0 -39 -124 -173q-25 -49 -76 -49q-57 0 -71 75q0 37 109 154q40 64 75 64zM716 1431q362 0 606 -335q109 -190 109 -384q0 -358 -324 -595q-184 -117 -384 -117h-15q-368 0 -603 343q-105 174 -105 376q0 342 301 576q196 136 415 136z M147 708q0 -274 241 -459q150 -102 320 -102h19q267 0 452 237q105 152 105 332q0 308 -282 489q-139 79 -286 79q-283 0 -467 -245q-102 -147 -102 -331z" />
<glyph unicode="&#xd4;" horiz-adv-x="1523" d="M698 1803h31q35 0 123 -121q61 -64 61 -97v-4q-12 -71 -72 -71h-7q-46 0 -120 112h-4q-80 -112 -120 -112h-12q-57 0 -71 75q0 33 116 165q37 53 75 53zM714 1427q361 0 604 -334q109 -190 109 -383q0 -357 -323 -594q-184 -116 -383 -116h-15q-367 0 -601 342 q-105 173 -105 375q0 341 300 575q196 135 414 135zM146 706q0 -273 241 -458q150 -102 319 -102h19q266 0 450 237q106 152 106 331q0 308 -282 488q-138 79 -285 79q-282 0 -466 -245q-102 -146 -102 -330z" />
<glyph unicode="&#xd5;" horiz-adv-x="1528" d="M590 1772h18q72 0 166 -63l30 -8h18l76 23q75 -15 75 -75q0 -76 -143 -94h-26q-71 0 -166 64l-30 7h-18l-72 -19h-7q-68 14 -68 68v11q0 57 83 75q30 11 64 11zM714 1427q361 0 604 -334q109 -190 109 -383q0 -357 -323 -594q-184 -116 -383 -116h-15q-367 0 -601 342 q-105 173 -105 375q0 341 300 575q196 135 414 135zM146 706q0 -273 241 -458q150 -102 319 -102h19q266 0 450 237q106 152 106 331q0 308 -282 488q-138 79 -285 79q-282 0 -466 -245q-102 -146 -102 -330z" />
<glyph unicode="&#xd6;" horiz-adv-x="1540" d="M508 1706q51 0 68 -75q-17 -76 -71 -76q-76 17 -76 64v23q0 52 79 64zM934 1706q51 0 68 -75q-17 -76 -72 -76q-75 17 -75 64v23q0 52 79 64zM716 1431q362 0 606 -335q109 -190 109 -384q0 -358 -324 -595q-184 -117 -384 -117h-15q-368 0 -603 343q-105 174 -105 376 q0 342 301 576q196 136 415 136zM147 708q0 -274 241 -459q150 -102 320 -102h19q267 0 452 237q105 152 105 332q0 308 -282 489q-139 79 -286 79q-283 0 -467 -245q-102 -147 -102 -331z" />
<glyph unicode="&#xd7;" d="M308 938h15q48 0 153 -125l43 -38q160 163 182 163h39q60 0 81 -91q0 -58 -163 -201l-5 -5v-5q163 -148 163 -182l5 -19q-22 -96 -96 -96q-51 0 -158 125l-48 43q-144 -163 -196 -163h-24q-77 24 -77 76v24q0 47 101 130l62 67q-163 161 -163 182v29q17 86 86 86z" />
<glyph unicode="&#xd8;" horiz-adv-x="1561" d="M713 1426q267 0 492 -198q149 153 180 153h8q71 -18 71 -71v-7q0 -42 -105 -124l-60 -60q127 -195 127 -410q0 -356 -322 -593q-184 -116 -383 -116h-15q-232 0 -436 154h-3q-154 -150 -173 -150l-19 -4h-4q-59 0 -71 79q0 36 124 139q4 11 41 37q-165 210 -165 462 q0 340 300 574q196 135 413 135zM146 706q0 -195 128 -349l822 773v4q-179 146 -383 146q-281 0 -465 -244q-102 -147 -102 -330zM375 255q156 -109 331 -109h18q267 0 451 237q105 151 105 330q0 152 -86 304h-4z" />
<glyph unicode="&#xd9;" horiz-adv-x="1103" d="M444 1819q48 0 140 -131q53 -52 53 -87v-8q0 -58 -76 -71q-45 0 -132 124q-60 62 -60 94v8q0 55 75 71zM64 1428h15q68 -14 68 -61v-802q0 -259 147 -347q92 -71 207 -71q220 0 331 226q23 70 23 147v836q13 72 68 72h11q68 -13 68 -68v-878q0 -224 -215 -392 q-136 -90 -275 -90h-26q-234 0 -407 230q-79 124 -79 305v821q15 72 64 72z" />
<glyph unicode="&#xda;" horiz-adv-x="1107" d="M565 1819q72 -15 72 -71v-8q0 -35 -95 -135q-52 -83 -98 -83q-75 16 -75 71v8q0 36 94 136q52 82 102 82zM64 1428h15q68 -14 68 -61v-802q0 -259 147 -347q92 -71 207 -71q220 0 331 226q23 70 23 147v836q13 72 68 72h11q68 -13 68 -68v-878q0 -224 -215 -392 q-136 -90 -275 -90h-26q-234 0 -407 230q-79 124 -79 305v821q15 72 64 72z" />
<glyph unicode="&#xdb;" horiz-adv-x="1124" d="M514 1796h8q49 0 136 -124q61 -63 61 -99q-17 -72 -65 -72h-19q-41 0 -102 91q-5 0 -11 15l-4 4h-4q-85 -102 -94 -102l-23 -8h-19q-55 0 -68 72v4q0 38 132 182q0 29 72 37zM64 1433h15q68 -14 68 -60v-806q0 -260 148 -348q93 -72 208 -72q221 0 333 227q23 71 23 148 v840q12 71 68 71h11q68 -13 68 -68v-881q0 -225 -216 -393q-136 -91 -276 -91h-26q-235 0 -409 231q-79 124 -79 306v825q15 71 64 71z" />
<glyph unicode="&#xdc;" horiz-adv-x="1128" d="M352 1691h11q68 -15 68 -65v-11q0 -60 -75 -72q-72 14 -72 72v11q0 50 68 65zM639 1691h15q53 0 65 -80q0 -51 -76 -68q-72 13 -72 68v19q19 61 68 61zM64 1433h15q68 -14 68 -60v-806q0 -260 148 -348q93 -72 208 -72q221 0 333 227q23 71 23 148v840q12 71 68 71h11 q68 -13 68 -68v-881q0 -225 -216 -393q-136 -91 -276 -91h-26q-235 0 -409 231q-79 124 -79 306v825q15 71 64 71z" />
<glyph unicode="&#xdd;" horiz-adv-x="1107" d="M64 1433h16q49 0 79 -72l345 -516h4q372 562 387 573q20 15 34 15h23q46 0 64 -72q0 -32 -129 -209l-307 -458v-611q-9 -83 -64 -83h-16q-49 0 -68 61v621q0 14 -159 251l-269 405l-4 23q16 72 64 72zM598 1797h4q75 -15 75 -75q0 -33 -91 -133q-60 -87 -94 -87h-23 q-52 0 -64 80q0 27 117 162q37 53 76 53z" />
<glyph unicode="&#xde;" horiz-adv-x="1100" d="M84 1436h16q68 -14 68 -61v-280h390q296 0 394 -258q19 -60 19 -110v-18q0 -197 -193 -319q-99 -49 -171 -49l-26 4h-413v-277q0 -56 -72 -68h-4q-58 0 -72 76v1277q9 83 64 83zM168 947v-454h435q162 0 216 185l4 42q0 155 -166 216q-44 11 -110 11h-379z" />
<glyph unicode="&#xdf;" horiz-adv-x="1061" d="M379 1425h41q177 0 303 -168q68 -101 68 -217q0 -89 -60 -213v-38q0 -37 123 -175q90 -110 90 -236v-15q0 -219 -224 -333q-69 -30 -143 -30h-3q-184 0 -300 157l-3 26q16 71 71 71h7q34 0 90 -63q70 -45 138 -45q154 0 214 168l7 53v7q0 96 -108 210q-109 112 -109 220 q0 57 53 176q7 17 7 49v33q0 119 -135 195q-44 22 -104 22q-166 0 -229 -183l-7 -108v-913q0 -55 -71 -68h-4q-57 0 -71 75v939q0 283 266 386q53 18 93 18z" />
<glyph unicode="&#xe0;" horiz-adv-x="1147" d="M496 1385h25q32 0 146 -149q29 -31 29 -58v-8q0 -56 -73 -69q-44 0 -102 88q-84 93 -84 116v15q0 48 59 65zM529 999q283 0 448 -277q51 -113 51 -233v-423q0 -54 -69 -66h-4q-47 0 -69 55v3l3 91v4q-160 -153 -346 -153h-29q-254 0 -423 255q-62 123 -62 248 q0 279 273 441q117 55 227 55zM171 507v-11q0 -217 219 -328q69 -26 124 -26h29q181 0 299 182q44 86 44 165v14q0 210 -208 321q-72 33 -149 33h-4q-220 0 -332 -230q-22 -71 -22 -120z" />
<glyph unicode="&#xe1;" horiz-adv-x="1114" d="M594 1389q73 -17 73 -69v-7q0 -31 -80 -121q-60 -91 -113 -91h-4q-46 0 -62 69v8q0 33 113 160q38 51 73 51zM500 999q283 0 448 -277q51 -113 51 -233v-423q0 -54 -69 -66h-4q-47 0 -69 55v3l3 91v4q-160 -153 -346 -153h-29q-254 0 -423 255q-62 123 -62 248 q0 279 273 441q117 55 227 55zM142 507v-11q0 -217 219 -328q69 -26 124 -26h29q181 0 299 182q44 86 44 165v14q0 210 -208 321q-72 33 -149 33h-4q-220 0 -332 -230q-22 -71 -22 -120z" />
<glyph unicode="&#xe2;" horiz-adv-x="1140" d="M495 1392l3 -3h4l4 3q51 0 124 -106q70 -75 70 -110q-13 -73 -73 -73q-48 0 -118 106l-3 4h-8q-70 -110 -121 -110q-73 14 -73 73q0 37 103 147q44 69 88 69zM502 1004q285 0 451 -278q51 -114 51 -235v-425q0 -54 -70 -66h-3q-48 0 -70 55v4l4 91v4q-162 -154 -348 -154 h-30q-255 0 -425 256q-62 124 -62 250q0 280 275 443q117 55 227 55zM143 509v-11q0 -218 220 -329q69 -26 124 -26h30q182 0 300 183q44 86 44 165v15q0 210 -209 322q-72 33 -150 33h-4q-221 0 -333 -231q-22 -71 -22 -121z" />
<glyph unicode="&#xe3;" horiz-adv-x="1122" d="M408 1354h19q70 0 162 -63l29 -7h18l74 22q74 -15 74 -74q0 -74 -140 -92h-26q-69 0 -162 63l-29 7h-19l-70 -18h-7q-66 13 -66 66v11q0 55 81 74q29 11 62 11zM504 1008q286 0 452 -280q52 -114 52 -235v-427q0 -54 -70 -66h-4q-47 0 -69 55v4l3 92v4 q-162 -155 -349 -155h-30q-256 0 -426 258q-63 124 -63 250q0 281 276 445q118 55 228 55zM143 511v-11q0 -219 221 -331q70 -26 125 -26h30q183 0 301 184q45 87 45 166v15q0 211 -210 323q-73 34 -151 34h-4q-222 0 -334 -232q-23 -72 -23 -122z" />
<glyph unicode="&#xe4;" horiz-adv-x="1136" d="M355 1246h11q66 -15 66 -62v-11q0 -59 -73 -70q-70 13 -70 70v11q0 47 66 62zM634 1246h15q51 0 62 -77q0 -49 -73 -66q-70 12 -70 66v18q18 59 66 59zM502 1004q285 0 451 -278q51 -114 51 -235v-425q0 -54 -70 -66h-3q-48 0 -70 55v4l4 91v4q-162 -154 -348 -154h-30 q-255 0 -425 256q-62 124 -62 250q0 280 275 443q117 55 227 55zM143 509v-11q0 -218 220 -329q69 -26 124 -26h30q182 0 300 183q44 86 44 165v15q0 210 -209 322q-72 33 -150 33h-4q-221 0 -333 -231q-22 -71 -22 -121z" />
<glyph unicode="&#xe5;" horiz-adv-x="1131" d="M517 1447q105 0 165 -110q18 -39 18 -77q0 -123 -143 -175l-37 -4h-14q-118 0 -169 143l-4 36v11q0 124 151 173zM447 1268v-15q17 -58 59 -58h14q56 0 66 69q-12 70 -69 70q-70 -12 -70 -66zM502 1004q285 0 451 -278q51 -114 51 -235v-425q0 -54 -70 -66h-3 q-48 0 -70 55v4l4 91v4q-162 -154 -348 -154h-30q-255 0 -425 256q-62 124 -62 250q0 280 275 443q117 55 227 55zM143 509v-11q0 -218 220 -329q69 -26 124 -26h30q182 0 300 183q44 86 44 165v15q0 210 -209 322q-72 33 -150 33h-4q-221 0 -333 -231q-22 -71 -22 -121z " />
<glyph unicode="&#xe6;" horiz-adv-x="1961" d="M500 1004q263 0 431 -245h4q90 155 277 219q84 22 150 22q279 0 442 -270q54 -113 54 -212v-47q-12 -69 -69 -69h-767v-4q37 -121 139 -190q95 -62 197 -62q88 0 197 55l19 3q73 -17 73 -73q0 -93 -241 -127l-52 -4q-192 0 -354 150v-81q0 -62 -76 -69h-4q-38 0 -62 58 l4 88v11q-161 -153 -347 -153h-29q-255 0 -424 255q-62 123 -62 248q0 280 274 442q117 55 226 55zM142 511v-11q0 -217 219 -328q70 -26 125 -26h29q181 0 299 183q44 85 44 164v14q0 210 -208 322q-72 33 -150 33h-3q-221 0 -333 -230q-22 -72 -22 -121zM1011 544h698v4 q0 96 -117 219q-112 87 -234 87q-187 0 -303 -175q-44 -82 -44 -135z" />
<glyph unicode="&#xe7;" horiz-adv-x="986" d="M507 996q193 0 349 -145q11 -19 11 -37v-3q-12 -69 -69 -69h-4q-26 0 -116 69q-81 40 -160 40h-22q-211 0 -320 -222q-25 -75 -25 -134q0 -216 222 -328q67 -25 141 -25q126 0 248 102l29 7h11q53 0 65 -69v-4q0 -74 -233 -163l-76 -11v-48q109 -72 109 -178 q0 -153 -178 -196l-51 4h-55l-58 -4q-62 21 -62 62v14q13 66 66 66h127q69 0 69 54v4q0 41 -65 54q-44 21 -44 55v116q-90 13 -222 102q-185 166 -185 389q0 243 215 407q137 91 283 91z" />
<glyph unicode="&#xe8;" horiz-adv-x="1127" d="M498 1004q290 0 451 -275q55 -108 55 -234v-19q-13 -73 -70 -73h-773q44 -146 187 -223q84 -33 158 -33q84 0 194 55h22q66 -13 66 -66v-11q0 -91 -264 -125h-26q-270 0 -432 253q-66 120 -66 249q0 276 260 440q127 62 238 62zM150 546h704q0 75 -88 194 q-121 114 -238 114h-41q-176 0 -289 -172q-40 -69 -48 -136zM465 1381h26q32 0 147 -150q29 -31 29 -58v-8q0 -57 -73 -69q-45 0 -103 88q-84 93 -84 117v14q0 48 58 66z" />
<glyph unicode="&#xe9;" horiz-adv-x="1118" d="M498 1004q290 0 451 -275q55 -108 55 -234v-19q-13 -73 -70 -73h-773q44 -146 187 -223q84 -33 158 -33q84 0 194 55h22q66 -13 66 -66v-11q0 -91 -264 -125h-26q-270 0 -432 253q-66 120 -66 249q0 276 260 440q127 62 238 62zM150 546h704q0 75 -88 194 q-121 114 -238 114h-41q-176 0 -289 -172q-40 -69 -48 -136zM594 1385q73 -17 73 -70v-7q0 -30 -81 -121q-60 -91 -113 -91h-4q-47 0 -62 69v8q0 33 113 161q38 51 74 51z" />
<glyph unicode="&#xea;" horiz-adv-x="1144" d="M498 1004q290 0 451 -275q55 -108 55 -234v-19q-13 -73 -70 -73h-773q44 -146 187 -223q84 -33 158 -33q84 0 194 55h22q66 -13 66 -66v-11q0 -91 -264 -125h-26q-270 0 -432 253q-66 120 -66 249q0 276 260 440q127 62 238 62zM150 546h704q0 75 -88 194 q-121 114 -238 114h-41q-176 0 -289 -172q-40 -69 -48 -136zM495 1392l3 -3h4l4 3q51 0 124 -106q70 -75 70 -110q-13 -73 -73 -73q-48 0 -118 106l-3 4h-8q-70 -110 -121 -110q-73 14 -73 73q0 37 103 147q44 69 88 69z" />
<glyph unicode="&#xeb;" horiz-adv-x="1122" d="M355 1243h11q65 -15 65 -62v-11q0 -58 -73 -70q-69 14 -69 70v11q0 47 66 62zM632 1243h15q51 0 62 -77q0 -49 -73 -66q-69 12 -69 66v19q18 58 65 58zM497 1002q289 0 450 -274q55 -108 55 -234v-19q-13 -73 -70 -73h-771q44 -146 186 -223q84 -33 158 -33q84 0 193 55 h22q66 -13 66 -66v-11q0 -90 -263 -124h-26q-269 0 -431 252q-66 120 -66 249q0 275 260 439q126 62 237 62zM150 545h702q0 75 -88 193q-120 114 -238 114h-40q-175 0 -289 -172q-39 -68 -47 -135z" />
<glyph unicode="&#xec;" horiz-adv-x="514" d="M139 1344h25q32 0 147 -150q29 -32 29 -59v-7q0 -57 -73 -70q-45 0 -103 88q-84 94 -84 117v15q0 48 59 66zM237 1003q70 -17 70 -62v-875q0 -54 -70 -66h-3q-56 0 -70 73v846q9 84 73 84z" />
<glyph unicode="&#xed;" horiz-adv-x="514" d="M307 1353q74 -17 74 -70v-7q0 -31 -81 -122q-61 -92 -114 -92h-4q-47 0 -62 70v8q0 33 114 161q38 52 73 52zM238 1007q69 -18 69 -62v-879q0 -54 -69 -66h-4q-56 0 -70 74v849q9 84 74 84z" />
<glyph unicode="&#xee;" horiz-adv-x="514" d="M222 1348l4 -3h4l3 3q52 0 126 -107q70 -76 70 -110q-13 -74 -74 -74q-48 0 -118 107l-4 3h-7q-71 -110 -122 -110q-74 14 -74 74q0 36 103 147q45 70 89 70zM233 1012q70 -18 70 -63v-882q0 -55 -70 -67h-3q-57 0 -71 74v853q9 85 74 85z" />
<glyph unicode="&#xef;" horiz-adv-x="514" d="M237 1008q70 -18 70 -63v-879q0 -54 -70 -66h-4q-56 0 -70 74v849q9 85 74 85zM86 1273h11q66 -15 66 -63v-11q0 -58 -73 -70q-70 14 -70 70v11q0 48 66 63zM366 1273h14q52 0 63 -78q0 -49 -74 -66q-69 12 -69 66v19q18 59 66 59z" />
<glyph unicode="&#xf0;" horiz-adv-x="1118" d="M748 1403h7q66 -14 66 -66v-14q0 -46 -169 -132v-4l279 -429q73 -123 73 -256q0 -282 -267 -443q-116 -59 -224 -59h-29q-203 0 -378 191q-106 150 -106 311q0 244 216 410q139 92 286 92l103 -11v4l-77 117q-132 -84 -158 -84h-15q-48 0 -62 69v4q0 50 110 103l48 29 q-41 61 -41 80v19q18 58 66 58h15q36 0 84 -80q149 91 173 91zM147 513v-18q0 -201 194 -312q70 -36 150 -36h22q208 0 319 216q25 68 25 132v18q0 140 -128 264q-101 80 -231 80q-228 0 -333 -238q-18 -58 -18 -106z" />
<glyph unicode="&#xf1;" horiz-adv-x="1108" d="M399 1361h18q70 0 161 -62l29 -8h19l73 22q73 -14 73 -73q0 -74 -139 -91h-26q-69 0 -161 62l-29 7h-18l-70 -18h-7q-66 13 -66 66v11q0 55 81 73q29 11 62 11zM73 1002q70 -18 70 -62v-80q159 142 347 142q206 0 366 -172q117 -144 117 -303v-465q0 -48 -69 -62h-4 q-70 12 -70 70v409q0 275 -237 362q-58 15 -103 15h-11q-199 0 -307 -205q-29 -63 -29 -201v-384q0 -54 -70 -66h-3q-56 0 -70 73v845q8 84 73 84z" />
<glyph unicode="&#xf2;" horiz-adv-x="1118" d="M502 1004q194 0 352 -147q150 -157 150 -355q0 -282 -267 -443q-116 -59 -224 -59h-29q-203 0 -378 191q-106 150 -106 311q0 244 216 410q139 92 286 92zM147 513v-18q0 -201 194 -312q70 -36 150 -36h22q208 0 319 216q25 68 25 132v18q0 167 -153 282q-91 62 -206 62 q-228 0 -333 -238q-18 -58 -18 -106zM469 1392h26q31 0 146 -150q30 -31 30 -58v-8q0 -57 -74 -69q-45 0 -102 88q-85 93 -85 117v14q0 48 59 66z" />
<glyph unicode="&#xf3;" horiz-adv-x="1118" d="M594 1389q73 -17 73 -69v-7q0 -31 -80 -121q-60 -91 -113 -91h-4q-46 0 -62 69v8q0 33 113 160q38 51 73 51zM500 999q192 0 350 -146q149 -157 149 -353q0 -281 -266 -442q-115 -58 -223 -58h-29q-201 0 -375 190q-106 150 -106 310q0 243 215 408q138 91 285 91z M146 510v-18q0 -199 193 -310q70 -36 150 -36h21q208 0 318 215q25 68 25 131v18q0 167 -153 281q-90 62 -204 62q-227 0 -332 -237q-18 -58 -18 -106z" />
<glyph unicode="&#xf4;" horiz-adv-x="1118" d="M492 1385l4 -3h4l3 3q51 0 124 -105q69 -75 69 -110q-12 -73 -73 -73q-47 0 -116 106l-4 4h-7q-70 -110 -120 -110q-73 15 -73 73q0 37 102 146q43 69 87 69zM500 999q192 0 350 -146q149 -157 149 -353q0 -281 -266 -442q-115 -58 -223 -58h-29q-201 0 -375 190 q-106 150 -106 310q0 243 215 408q138 91 285 91zM146 510v-18q0 -199 193 -310q70 -36 150 -36h21q208 0 318 215q25 68 25 131v18q0 167 -153 281q-90 62 -204 62q-227 0 -332 -237q-18 -58 -18 -106z" />
<glyph unicode="&#xf5;" horiz-adv-x="1118" d="M502 1004q194 0 352 -147q150 -157 150 -355q0 -282 -267 -443q-116 -59 -224 -59h-29q-203 0 -378 191q-106 150 -106 311q0 244 216 410q139 92 286 92zM147 513v-18q0 -201 194 -312q70 -36 150 -36h22q208 0 319 216q25 68 25 132v18q0 167 -153 282q-91 62 -206 62 q-228 0 -333 -238q-18 -58 -18 -106zM407 1348h18q70 0 161 -62l30 -7h18l73 22q73 -15 73 -73q0 -75 -139 -92h-25q-69 0 -162 62l-29 8h-18l-70 -19h-7q-66 13 -66 66v11q0 55 80 73q30 11 63 11z" />
<glyph unicode="&#xf6;" horiz-adv-x="1114" d="M354 1240h11q65 -15 65 -62v-11q0 -58 -73 -70q-69 14 -69 70v11q0 47 66 62zM631 1240h14q51 0 62 -77q0 -49 -73 -66q-69 12 -69 66v18q18 59 66 59zM500 999q192 0 350 -146q149 -157 149 -353q0 -281 -266 -442q-115 -58 -223 -58h-29q-201 0 -375 190 q-106 150 -106 310q0 243 215 408q138 91 285 91zM146 510v-18q0 -199 193 -310q70 -36 150 -36h21q208 0 318 215q25 68 25 131v18q0 167 -153 281q-90 62 -204 62q-227 0 -332 -237q-18 -58 -18 -106z" />
<glyph unicode="&#xf7;" d="M522 1132h4q92 0 112 -100v-16q-22 -100 -100 -100h-8q-108 11 -108 108v8q24 100 100 100zM226 800h608q76 -14 76 -76v-12q0 -50 -72 -68h-616q-72 14 -72 72v16q0 53 76 68zM526 528h8q87 0 104 -112v-4q0 -81 -108 -104q-108 23 -108 100v20q0 76 104 100z" />
<glyph unicode="&#xf8;" horiz-adv-x="1169" d="M963 1012h4q58 0 69 -77q0 -29 -102 -127q113 -138 113 -309q0 -281 -266 -441q-114 -58 -222 -58h-29q-137 0 -284 102q-81 -98 -120 -98h-14q-51 0 -62 76q0 30 98 124q-98 135 -98 295q0 242 215 407q137 91 284 91q146 0 283 -91q86 106 131 106zM196 509v-18 q0 -90 50 -182h4l477 492q-72 50 -182 50q-227 0 -331 -236q-18 -58 -18 -106zM832 706l-484 -502q94 -58 190 -58h21q207 0 317 214q25 68 25 131v18q0 108 -69 197z" />
<glyph unicode="&#xf9;" horiz-adv-x="1109" d="M468 1389h25q32 0 147 -150q29 -31 29 -58v-8q0 -57 -73 -69q-45 0 -103 88q-84 93 -84 117v14q0 48 59 66zM73 1002q70 -18 70 -63v-391q0 -251 142 -336q90 -69 201 -69q214 0 322 219q22 71 22 142v424q14 74 73 74q69 -17 69 -70v-870q0 -48 -69 -62h-4 q-69 12 -69 69v70h-4q-153 -139 -329 -139h-25q-227 0 -395 223q-77 120 -77 296v398q8 85 73 85z" />
<glyph unicode="&#xfa;" horiz-adv-x="1105" d="M599 1399q73 -16 73 -69v-8q0 -30 -81 -121q-60 -92 -114 -92h-3q-47 0 -63 70v7q0 34 114 162q38 51 74 51zM73 1006q70 -17 70 -62v-393q0 -252 143 -338q91 -70 203 -70q214 0 323 221q22 71 22 143v426q14 73 73 73q70 -16 70 -69v-875q0 -48 -70 -62h-3 q-70 12 -70 70v70h-4q-153 -140 -330 -140h-26q-228 0 -397 224q-77 121 -77 298v400q8 84 73 84z" />
<glyph unicode="&#xfb;" horiz-adv-x="1114" d="M498 1403l4 -4h4l3 4q52 0 126 -107q70 -76 70 -111q-12 -74 -74 -74q-47 0 -118 107l-4 4h-7q-71 -111 -122 -111q-74 15 -74 74q0 37 104 148q44 70 88 70zM74 1012q70 -18 70 -63v-395q0 -254 144 -340q91 -70 203 -70q216 0 325 221q22 72 22 144v429q15 74 74 74 q70 -17 70 -71v-878q0 -49 -70 -63h-4q-70 13 -70 70v70h-4q-154 -140 -332 -140h-26q-229 0 -398 225q-78 121 -78 299v403q9 85 74 85z" />
<glyph unicode="&#xfc;" horiz-adv-x="1109" d="M355 1244h11q66 -15 66 -62v-11q0 -59 -74 -70q-69 14 -69 70v11q0 47 66 62zM633 1244h14q51 0 63 -77q0 -49 -74 -66q-69 12 -69 66v18q18 59 66 59zM73 1002q70 -18 70 -62v-391q0 -252 142 -337q90 -69 202 -69q213 0 321 219q22 71 22 143v424q15 73 74 73 q69 -16 69 -69v-871q0 -48 -69 -62h-4q-70 12 -70 70v69h-3q-153 -139 -330 -139h-25q-227 0 -395 223q-77 120 -77 296v399q8 84 73 84z" />
<glyph unicode="&#xfd;" horiz-adv-x="990" d="M617 1406q73 -17 73 -70v-7q0 -31 -81 -121q-60 -92 -113 -92h-4q-47 0 -62 70v7q0 33 113 161q38 52 74 52zM803 1017q74 -14 74 -70v-3q-4 -27 -363 -884q-170 -420 -191 -447q-18 -15 -47 -22q-74 16 -74 62v19q0 13 165 410v4l-348 850v4q15 73 73 73q63 0 107 -146 q238 -565 245 -594h4q288 703 304 722q26 22 51 22z" />
<glyph unicode="&#xfe;" horiz-adv-x="1131" d="M73 1394h14q66 -14 66 -59v-482q161 154 361 154q195 0 353 -147q151 -158 151 -357q0 -283 -269 -445q-115 -59 -224 -59h-29q-176 0 -343 151v-507q0 -47 -73 -63q-55 0 -70 77v1656q9 81 63 81zM157 514v-18q0 -201 195 -313q70 -36 151 -36h22q209 0 320 217 q26 68 26 132v18q0 168 -155 284q-91 62 -206 62q-229 0 -334 -239q-19 -58 -19 -107z" />
<glyph unicode="&#xff;" horiz-adv-x="990" d="M302 1241h11q66 -15 66 -62v-11q0 -58 -73 -70q-70 14 -70 70v11q0 47 66 62zM579 1241h15q51 0 62 -77q0 -49 -73 -66q-69 12 -69 66v18q18 59 65 59zM791 1000q73 -14 73 -70v-3q-4 -27 -361 -880q-169 -418 -190 -445q-18 -15 -48 -22q-73 16 -73 62v18q0 13 165 409 v4l-347 846v4q14 73 73 73q63 0 106 -146q237 -562 244 -591h4q287 700 303 719q25 22 51 22z" />
<glyph unicode="&#x100;" horiz-adv-x="1184" d="M142 1697h844q70 -13 70 -70v-12q-13 -70 -67 -70h-847q-60 0 -70 82q19 70 70 70zM556 1428q69 0 102 -139q454 -1182 458 -1210v-11q0 -56 -71 -68h-4q-66 0 -94 128l-169 439h-440l-206 -544q-30 -23 -53 -23h-8q-71 13 -71 71v4l128 346q335 873 364 969q34 38 64 38 zM556 1142l-158 -428h323v4l-161 424h-4z" />
<glyph unicode="&#x101;" horiz-adv-x="1199" d="M144 1297h844q70 -13 70 -70v-12q-13 -70 -67 -70h-847q-60 0 -70 82q19 70 70 70zM554 1023q290 0 459 -284q52 -115 52 -239v-433q0 -55 -71 -67h-4q-48 0 -71 56v4l4 93v4q-165 -157 -355 -157h-29q-260 0 -434 261q-63 126 -63 254q0 285 280 452q119 56 232 56z M188 519v-11q0 -223 224 -336q71 -26 127 -26h29q186 0 307 186q44 88 44 168v15q0 215 -212 329q-74 33 -153 33h-4q-226 0 -340 -235q-22 -73 -22 -123z" />
<glyph unicode="&#x102;" horiz-adv-x="1202" d="M350 1806h12q52 0 84 -84q52 -60 120 -60q102 0 148 112q30 32 60 32h8q76 -13 76 -76v-4q0 -82 -156 -192q-75 -28 -132 -28h-8q-192 0 -284 204v24q15 72 72 72zM556 1428q69 0 102 -139q454 -1182 458 -1210v-11q0 -56 -71 -68h-4q-66 0 -94 128l-169 439h-440 l-206 -544q-30 -23 -53 -23h-8q-71 13 -71 71v4l128 346q335 873 364 969q34 38 64 38zM556 1142l-158 -428h323v4l-161 424h-4z" />
<glyph unicode="&#x103;" horiz-adv-x="1118" d="M306 1414h12q52 0 84 -84q52 -60 120 -60q102 0 148 112q30 32 60 32h8q76 -13 76 -76v-4q0 -82 -156 -192q-75 -28 -132 -28h-8q-192 0 -284 204v24q15 72 72 72zM512 1023q290 0 459 -284q52 -115 52 -239v-433q0 -55 -71 -67h-4q-48 0 -71 56v4l4 93v4 q-165 -157 -355 -157h-29q-260 0 -434 261q-63 126 -63 254q0 285 280 452q119 56 232 56zM146 519v-11q0 -223 224 -336q71 -26 127 -26h29q186 0 307 186q44 88 44 168v15q0 215 -212 329q-74 33 -153 33h-4q-226 0 -340 -235q-22 -73 -22 -123z" />
<glyph unicode="&#x104;" horiz-adv-x="1338" d="M572 1437q68 0 100 -130q479 -1247 479 -1269l4 -27v-95q0 -64 -84 -77q-31 -18 -31 -50v-8q0 -42 58 -49h145q73 -13 73 -73v-4q-15 -73 -65 -73h-161q-145 0 -196 161l-7 46q0 112 119 188v19q-16 68 -207 564h-449l-211 -556q-30 -23 -53 -23h-8q-73 13 -73 73v3 l130 353q343 891 372 989q35 38 65 38zM572 1146l-161 -437h330v4l-165 433h-4z" />
<glyph unicode="&#x105;" horiz-adv-x="1241" d="M517 1007q292 0 461 -284q53 -117 53 -240v-446l-4 -4l4 -4v-112q0 -60 -90 -79q-23 -17 -23 -37v-19q10 -45 56 -45h143q58 0 71 -75q-16 -71 -64 -71h-157q-143 0 -195 161l-4 45q0 107 117 180l-4 52l7 90v19q-165 -157 -356 -157h-30q-261 0 -434 262 q-64 126 -64 255q0 286 281 453q120 56 232 56zM150 501v-11q0 -223 225 -337q71 -26 127 -26h30q187 0 308 187q45 88 45 169v15q0 215 -214 329q-74 34 -154 34h-3q-227 0 -341 -236q-23 -73 -23 -124z" />
<glyph unicode="&#x106;" horiz-adv-x="1251" d="M833 1863q68 0 80 -88q0 -40 -184 -204q-68 -84 -108 -84h-12q-72 14 -72 72v16q0 34 140 160q113 128 156 128zM714 1436q223 0 416 -136q15 -29 15 -45v-8q0 -64 -79 -72h-4l-132 68q-132 42 -216 42q-269 0 -465 -246q-98 -165 -98 -321q0 -315 295 -499 q131 -68 261 -68h11q166 0 336 106h23q68 -15 68 -68v-11q0 -80 -253 -155q-79 -23 -166 -23h-19q-355 0 -594 329q-113 190 -113 389q0 373 340 608q182 110 374 110z" />
<glyph unicode="&#x107;" horiz-adv-x="973" d="M622 1467q68 0 80 -88q0 -40 -184 -204q-68 -84 -108 -84h-12q-72 14 -72 72v16q0 34 140 160q113 128 156 128zM513 1026q198 0 360 -149q11 -20 11 -38v-4q-13 -71 -71 -71h-4q-27 0 -120 71q-83 42 -165 42h-22q-218 0 -330 -229q-26 -77 -26 -139q0 -222 229 -337 q69 -26 146 -26q129 0 254 105l30 7h12q55 0 67 -71v-3q0 -77 -240 -169q-81 -15 -120 -15h-30q-207 0 -385 195q-109 154 -109 318q0 250 221 420q141 93 292 93z" />
<glyph unicode="&#x108;" horiz-adv-x="1254" d="M672 1814h28q48 0 136 -128q64 -64 64 -100v-12q-15 -72 -72 -72h-12q-45 0 -128 120h-4q-83 -120 -128 -120h-12q-72 15 -72 72v12q0 38 120 168q38 60 80 60zM714 1436q223 0 416 -136q15 -29 15 -45v-8q0 -64 -79 -72h-4l-132 68q-132 42 -216 42q-269 0 -465 -246 q-98 -165 -98 -321q0 -315 295 -499q131 -68 261 -68h11q166 0 336 106h23q68 -15 68 -68v-11q0 -80 -253 -155q-79 -23 -166 -23h-19q-355 0 -594 329q-113 190 -113 389q0 373 340 608q182 110 374 110z" />
<glyph unicode="&#x109;" horiz-adv-x="982" d="M509 1449h28q48 0 136 -128q64 -64 64 -100v-12q-15 -72 -72 -72h-12q-45 0 -128 120h-4q-83 -120 -128 -120h-12q-72 15 -72 72v12q0 38 120 168q38 60 80 60zM513 1026q198 0 360 -149q11 -20 11 -38v-4q-13 -71 -71 -71h-4q-27 0 -120 71q-83 42 -165 42h-22 q-218 0 -330 -229q-26 -77 -26 -139q0 -222 229 -337q69 -26 146 -26q129 0 254 105l30 7h12q55 0 67 -71v-3q0 -77 -240 -169q-81 -15 -120 -15h-30q-207 0 -385 195q-109 154 -109 318q0 250 221 420q141 93 292 93z" />
<glyph unicode="&#x10a;" horiz-adv-x="1259" d="M719 1780q90 0 116 -107v-21q0 -64 -82 -101q-12 -6 -34 -6h-3q-96 0 -116 119q0 76 86 110q12 6 33 6zM714 1436q223 0 416 -136q15 -29 15 -45v-8q0 -64 -79 -72h-4l-132 68q-132 42 -216 42q-269 0 -465 -246q-98 -165 -98 -321q0 -315 295 -499q131 -68 261 -68h11 q166 0 336 106h23q68 -15 68 -68v-11q0 -80 -253 -155q-79 -23 -166 -23h-19q-355 0 -594 329q-113 190 -113 389q0 373 340 608q182 110 374 110z" />
<glyph unicode="&#x10b;" horiz-adv-x="973" d="M534 1379q90 0 116 -107v-21q0 -64 -82 -101q-12 -6 -34 -6h-3q-96 0 -116 119q0 76 86 110q12 6 33 6zM513 1026q198 0 360 -149q11 -20 11 -38v-4q-13 -71 -71 -71h-4q-27 0 -120 71q-83 42 -165 42h-22q-218 0 -330 -229q-26 -77 -26 -139q0 -222 229 -337 q69 -26 146 -26q129 0 254 105l30 7h12q55 0 67 -71v-3q0 -77 -240 -169q-81 -15 -120 -15h-30q-207 0 -385 195q-109 154 -109 318q0 250 221 420q141 93 292 93z" />
<glyph unicode="&#x10c;" horiz-adv-x="1241" d="M556 1813h12q45 0 128 -120h4q83 120 128 120h12q72 -15 72 -72v-12q0 -35 -96 -140q-60 -88 -104 -88h-28q-47 0 -132 124q-68 68 -68 104v12q15 72 72 72zM714 1436q223 0 416 -136q15 -29 15 -45v-8q0 -64 -79 -72h-4l-132 68q-132 42 -216 42q-269 0 -465 -246 q-98 -165 -98 -321q0 -315 295 -499q131 -68 261 -68h11q166 0 336 106h23q68 -15 68 -68v-11q0 -80 -253 -155q-79 -23 -166 -23h-19q-355 0 -594 329q-113 190 -113 389q0 373 340 608q182 110 374 110z" />
<glyph unicode="&#x10d;" horiz-adv-x="990" d="M363 1439h12q45 0 128 -120h4q83 120 128 120h12q72 -15 72 -72v-12q0 -35 -96 -140q-60 -88 -104 -88h-28q-47 0 -132 124q-68 68 -68 104v12q15 72 72 72zM513 1026q198 0 360 -149q11 -20 11 -38v-4q-13 -71 -71 -71h-4q-27 0 -120 71q-83 42 -165 42h-22 q-218 0 -330 -229q-26 -77 -26 -139q0 -222 229 -337q69 -26 146 -26q129 0 254 105l30 7h12q55 0 67 -71v-3q0 -77 -240 -169q-81 -15 -120 -15h-30q-207 0 -385 195q-109 154 -109 318q0 250 221 420q141 93 292 93z" />
<glyph unicode="&#x10e;" horiz-adv-x="1162" d="M322 1818h12q45 0 128 -120h4q83 120 128 120h12q72 -15 72 -72v-12q0 -35 -96 -140q-60 -88 -104 -88h-28q-47 0 -132 124q-68 68 -68 104v12q15 72 72 72zM72 1441l19 -4h193l42 4q323 0 561 -281q152 -197 152 -447q0 -344 -303 -580q-192 -133 -406 -133h-258 q-72 13 -72 72v1293q11 72 72 72v4zM148 1293v-1145h163q361 0 535 349q45 119 45 227q0 261 -231 455q-143 114 -425 114h-87z" />
<glyph unicode="&#x10f;" horiz-adv-x="1343" d="M1154 1514h28q83 0 112 -236v-20q0 -129 -144 -248q-29 -16 -44 -16q-18 7 -28 24v12q60 144 60 236v12q0 62 -48 144v20q15 72 64 72zM948 1432h15q68 -14 68 -61v-748l4 -128q0 -148 -121 -310q-171 -185 -385 -185h-30q-209 0 -389 196q-110 156 -110 322 q0 251 223 423q142 94 295 94q197 0 370 -155v427l-4 60q21 65 64 65zM147 529v-19q0 -231 242 -344q65 -19 117 -19h23q225 0 340 242q19 73 19 113v23q0 230 -246 344q-75 19 -117 19h-15q-225 0 -340 -238q-23 -67 -23 -121z" />
<glyph unicode="&#x110;" horiz-adv-x="1303" d="M185 847v518q11 72 72 72v4l19 -4h193l42 4q323 0 561 -281q152 -197 152 -447q0 -344 -303 -580q-192 -133 -406 -133h-258q-72 13 -72 72v623h-49l-64 -4q-68 24 -68 80q13 76 72 76h109zM333 847h183l36 4q56 0 76 -80q0 -55 -68 -80l-60 4h-167v-547h163 q361 0 535 349q45 119 45 227q0 261 -231 455q-143 114 -425 114h-87v-446z" />
<glyph unicode="&#x111;" horiz-adv-x="1343" d="M178 529v-19q0 -231 242 -344q65 -19 117 -19h23q225 0 340 242q19 73 19 113v23q0 230 -246 344q-75 19 -117 19h-15q-225 0 -340 -238q-23 -67 -23 -121zM919 1309l-4 58q21 65 64 65h15q68 -14 68 -61v-62h127l36 4q56 0 76 -80q0 -55 -68 -80l-60 4h-111v-534l4 -128 q0 -148 -121 -310q-171 -185 -385 -185h-30q-209 0 -389 196q-110 156 -110 322q0 251 223 423q142 94 295 94q197 0 370 -155v277h-110l-64 -4q-68 24 -68 80q13 76 72 76v4l40 -4h130z" />
<glyph unicode="&#x112;" horiz-adv-x="1100" d="M129 1436l19 -4h740l15 4q65 0 76 -83q-15 -68 -83 -68h-692v-510h454l53 3q51 0 68 -75q0 -49 -61 -76l-75 4h-439v-484h711q52 0 64 -79q-20 -68 -68 -68h-782q-72 13 -72 72v1288q11 72 72 72v4zM85 1727h844q70 -13 70 -70v-12q-13 -70 -67 -70h-847q-60 0 -70 82 q19 70 70 70z" />
<glyph unicode="&#x113;" horiz-adv-x="1105" d="M498 1004q290 0 451 -275q55 -108 55 -234v-19q-13 -73 -70 -73h-773q44 -146 187 -223q84 -33 158 -33q84 0 194 55h22q66 -13 66 -66v-11q0 -91 -264 -125h-26q-270 0 -432 253q-66 120 -66 249q0 276 260 440q127 62 238 62zM150 546h704q0 75 -88 194 q-121 114 -238 114h-41q-176 0 -289 -172q-40 -69 -48 -136zM85 1318h844q70 -13 70 -70v-12q-13 -70 -67 -70h-847q-60 0 -70 82q19 70 70 70z" />
<glyph unicode="&#x114;" horiz-adv-x="1052" d="M107 1436l19 -4h740l15 4q65 0 76 -83q-15 -68 -83 -68h-692v-510h454l53 3q51 0 68 -75q0 -49 -61 -76l-75 4h-439v-484h711q52 0 64 -79q-20 -68 -68 -68h-782q-72 13 -72 72v1288q11 72 72 72v4zM292 1824h12q52 0 84 -84q52 -60 120 -60q102 0 148 112q30 32 60 32h8 q76 -13 76 -76v-4q0 -82 -156 -192q-75 -28 -132 -28h-8q-192 0 -284 204v24q15 72 72 72z" />
<glyph unicode="&#x115;" horiz-adv-x="1101" d="M507 1004q290 0 451 -275q55 -108 55 -234v-19q-13 -73 -70 -73h-773q44 -146 187 -223q84 -33 158 -33q84 0 194 55h22q66 -13 66 -66v-11q0 -91 -264 -125h-26q-270 0 -432 253q-66 120 -66 249q0 276 260 440q127 62 238 62zM159 546h704q0 75 -88 194 q-121 114 -238 114h-41q-176 0 -289 -172q-40 -69 -48 -136zM301 1436h12q52 0 84 -84q52 -60 120 -60q102 0 148 112q30 32 60 32h8q76 -13 76 -76v-4q0 -82 -156 -192q-75 -28 -132 -28h-8q-192 0 -284 204v24q15 72 72 72z" />
<glyph unicode="&#x116;" horiz-adv-x="1070" d="M103 1436l19 -4h740l15 4q65 0 76 -83q-15 -68 -83 -68h-692v-510h454l53 3q51 0 68 -75q0 -49 -61 -76l-75 4h-439v-484h711q52 0 64 -79q-20 -68 -68 -68h-782q-72 13 -72 72v1288q11 72 72 72v4zM504 1785q90 0 116 -107v-21q0 -64 -82 -101q-12 -6 -34 -6h-3 q-96 0 -116 119q0 76 86 110q12 6 33 6z" />
<glyph unicode="&#x117;" horiz-adv-x="1105" d="M520 1004q290 0 451 -275q55 -108 55 -234v-19q-13 -73 -70 -73h-773q44 -146 187 -223q84 -33 158 -33q84 0 194 55h22q66 -13 66 -66v-11q0 -91 -264 -125h-26q-270 0 -432 253q-66 120 -66 249q0 276 260 440q127 62 238 62zM172 546h704q0 75 -88 194 q-121 114 -238 114h-41q-176 0 -289 -172q-40 -69 -48 -136zM543 1349q90 0 116 -107v-21q0 -64 -82 -101q-12 -6 -34 -6h-3q-96 0 -116 119q0 76 86 110q12 6 33 6z" />
<glyph unicode="&#x118;" horiz-adv-x="1052" d="M591 0h-488q-72 13 -72 72v1288q11 72 72 72v4l19 -4h740l15 4q65 0 76 -83q-15 -68 -83 -68h-692v-510h454l53 3q51 0 68 -75q0 -49 -61 -76l-75 4h-439v-484h711q52 0 64 -79q-20 -68 -68 -68h-155l2 -10v-103q0 -58 -81 -70q-25 -18 -25 -46q0 -53 67 -53h102l15 4 q70 -16 70 -67v-7q0 -46 -56 -67l-74 4h-36l-56 -4q-71 0 -144 92q-25 48 -25 84v28q0 96 106 155v4z" />
<glyph unicode="&#x119;" horiz-adv-x="1122" d="M172 546h704q0 75 -88 194q-121 114 -238 114h-41q-176 0 -289 -172q-40 -69 -48 -136zM522 0h-2q-270 0 -432 253q-66 120 -66 249q0 276 260 440q127 62 238 62q290 0 451 -275q55 -108 55 -234v-19q-13 -73 -70 -73h-773q44 -146 187 -223q84 -33 158 -33q84 0 194 55 h22q66 -13 66 -66v-11q0 -69 -151 -105q2 -6 3 -12v-103q0 -58 -81 -70q-25 -18 -25 -46q0 -53 67 -53h102l15 4q70 -16 70 -67v-7q0 -46 -56 -67l-74 4h-36l-56 -4q-71 0 -144 92q-25 48 -25 84v28q0 96 106 155v4z" />
<glyph unicode="&#x11a;" horiz-adv-x="1065" d="M107 1436l19 -4h740l15 4q65 0 76 -83q-15 -68 -83 -68h-692v-510h454l53 3q51 0 68 -75q0 -49 -61 -76l-75 4h-439v-484h711q52 0 64 -79q-20 -68 -68 -68h-782q-72 13 -72 72v1288q11 72 72 72v4zM357 1818h12q45 0 128 -120h4q83 120 128 120h12q72 -15 72 -72v-12 q0 -35 -96 -140q-60 -88 -104 -88h-28q-47 0 -132 124q-68 68 -68 104v12q15 72 72 72z" />
<glyph unicode="&#x11b;" horiz-adv-x="1136" d="M542 1004q290 0 451 -275q55 -108 55 -234v-19q-13 -73 -70 -73h-773q44 -146 187 -223q84 -33 158 -33q84 0 194 55h22q66 -13 66 -66v-11q0 -91 -264 -125h-26q-270 0 -432 253q-66 120 -66 249q0 276 260 440q127 62 238 62zM194 546h704q0 75 -88 194 q-121 114 -238 114h-41q-176 0 -289 -172q-40 -69 -48 -136zM415 1422h12q45 0 128 -120h4q83 120 128 120h12q72 -15 72 -72v-12q0 -35 -96 -140q-60 -88 -104 -88h-28q-47 0 -132 124q-68 68 -68 104v12q15 72 72 72z" />
<glyph unicode="&#x11c;" horiz-adv-x="1285" d="M707 1836h28q48 0 136 -128q64 -64 64 -100v-12q-15 -72 -72 -72h-12q-45 0 -128 120h-4q-83 -120 -128 -120h-12q-72 15 -72 72v12q0 38 120 168q38 60 80 60zM738 1436q229 0 412 -128q19 -26 19 -49v-4q0 -58 -76 -72q-12 0 -147 64q-88 34 -170 34h-61 q-211 0 -404 -204q-125 -171 -125 -351v-15q0 -294 272 -480q142 -80 284 -80h15q140 0 280 76v344h-273q-71 12 -71 72v3q12 72 71 72h352q56 0 68 -72v-419q0 -92 -45 -114q-193 -113 -375 -113h-22q-355 0 -594 329q-113 186 -113 389q0 361 321 597q197 121 382 121z " />
<glyph unicode="&#x11d;" horiz-adv-x="1167" d="M527 1454h28q48 0 136 -128q64 -64 64 -100v-12q-15 -72 -72 -72h-12q-45 0 -128 120h-4q-83 -120 -128 -120h-12q-72 15 -72 72v12q0 38 120 168q38 60 80 60zM532 1021q227 0 394 -189q115 -158 115 -298l-4 -126v-449q0 -126 -193 -275q-149 -97 -312 -97 q-279 0 -461 249q-33 55 -33 74v11q0 49 67 64h11q50 0 85 -93q134 -168 331 -168q237 0 357 216l7 48v167q-165 -152 -353 -152h-30q-205 0 -382 193q-108 153 -108 316q0 248 219 416q140 93 290 93zM168 523v-18q0 -227 238 -338q64 -19 115 -19h22q222 0 335 238 q18 71 18 111v23q0 226 -241 338q-75 18 -116 18h-14q-222 0 -335 -234q-22 -65 -22 -119z" />
<glyph unicode="&#x11e;" horiz-adv-x="1246" d="M490 1807h12q52 0 84 -84q52 -60 120 -60q102 0 148 112q30 32 60 32h8q76 -13 76 -76v-4q0 -82 -156 -192q-75 -28 -132 -28h-8q-192 0 -284 204v24q15 72 72 72zM725 1436q229 0 412 -128q19 -26 19 -49v-4q0 -58 -76 -72q-12 0 -147 64q-88 34 -170 34h-61 q-211 0 -404 -204q-125 -171 -125 -351v-15q0 -294 272 -480q142 -80 284 -80h15q140 0 280 76v344h-273q-71 12 -71 72v3q12 72 71 72h352q56 0 68 -72v-419q0 -92 -45 -114q-193 -113 -375 -113h-22q-355 0 -594 329q-113 186 -113 389q0 361 321 597q197 121 382 121z " />
<glyph unicode="&#x11f;" horiz-adv-x="1140" d="M336 1436h12q52 0 84 -84q52 -60 120 -60q102 0 148 112q30 32 60 32h8q76 -13 76 -76v-4q0 -82 -156 -192q-75 -28 -132 -28h-8q-192 0 -284 204v24q15 72 72 72zM545 1021q227 0 394 -189q115 -158 115 -298l-4 -126v-449q0 -126 -193 -275q-149 -97 -312 -97 q-279 0 -461 249q-33 55 -33 74v11q0 49 67 64h11q50 0 85 -93q134 -168 331 -168q237 0 357 216l7 48v167q-165 -152 -353 -152h-30q-205 0 -382 193q-108 153 -108 316q0 248 219 416q140 93 290 93zM181 523v-18q0 -227 238 -338q64 -19 115 -19h22q222 0 335 238 q18 71 18 111v23q0 226 -241 338q-75 18 -116 18h-14q-222 0 -335 -234q-22 -65 -22 -119z" />
<glyph unicode="&#x120;" horiz-adv-x="1272" d="M750 1793q90 0 116 -107v-21q0 -64 -82 -101q-12 -6 -34 -6h-3q-96 0 -116 119q0 76 86 110q12 6 33 6zM729 1436q229 0 412 -128q19 -26 19 -49v-4q0 -58 -76 -72q-12 0 -147 64q-88 34 -170 34h-61q-211 0 -404 -204q-125 -171 -125 -351v-15q0 -294 272 -480 q142 -80 284 -80h15q140 0 280 76v344h-273q-71 12 -71 72v3q12 72 71 72h352q56 0 68 -72v-419q0 -92 -45 -114q-193 -113 -375 -113h-22q-355 0 -594 329q-113 186 -113 389q0 361 321 597q197 121 382 121z" />
<glyph unicode="&#x121;" horiz-adv-x="1149" d="M579 1407q90 0 116 -107v-21q0 -64 -82 -101q-12 -6 -34 -6h-3q-96 0 -116 119q0 76 86 110q12 6 33 6zM554 1021q227 0 394 -189q115 -158 115 -298l-4 -126v-449q0 -126 -193 -275q-149 -97 -312 -97q-279 0 -461 249q-33 55 -33 74v11q0 49 67 64h11q50 0 85 -93 q134 -168 331 -168q237 0 357 216l7 48v167q-165 -152 -353 -152h-30q-205 0 -382 193q-108 153 -108 316q0 248 219 416q140 93 290 93zM190 523v-18q0 -227 238 -338q64 -19 115 -19h22q222 0 335 238q18 71 18 111v23q0 226 -241 338q-75 18 -116 18h-14 q-222 0 -335 -234q-22 -65 -22 -119z" />
<glyph unicode="&#x122;" horiz-adv-x="1276" d="M671 3q-308 30 -523 326q-113 186 -113 389q0 361 321 597q197 121 382 121q229 0 412 -128q19 -26 19 -49v-4q0 -58 -76 -72q-12 0 -147 64q-88 34 -170 34h-61q-211 0 -404 -204q-125 -171 -125 -351v-15q0 -294 272 -480q142 -80 284 -80h15q140 0 280 76v344h-273 q-71 12 -71 72v3q12 72 71 72h352q56 0 68 -72v-419q0 -92 -45 -114q-170 -100 -332 -111v-31q104 -69 104 -170q0 -146 -170 -188l-49 3h-52l-56 -3q-59 20 -59 59v14q12 63 63 63h121q66 0 66 52v3q0 40 -62 52q-42 20 -42 53v94z" />
<glyph unicode="&#x123;" horiz-adv-x="1184" d="M636 1669q28 -8 28 -32v-8q-59 -141 -60 -244q0 -60 48 -140l4 -20q0 -64 -84 -80q-96 0 -124 252q0 134 144 256zM567 1021q227 0 394 -189q115 -158 115 -298l-4 -126v-449q0 -126 -193 -275q-149 -97 -312 -97q-279 0 -461 249q-33 55 -33 74v11q0 49 67 64h11 q50 0 85 -93q134 -168 331 -168q237 0 357 216l7 48v167q-165 -152 -353 -152h-30q-205 0 -382 193q-108 153 -108 316q0 248 219 416q140 93 290 93zM203 523v-18q0 -227 238 -338q64 -19 115 -19h22q222 0 335 238q18 71 18 111v23q0 226 -241 338q-75 18 -116 18h-14 q-222 0 -335 -234q-22 -65 -22 -119z" />
<glyph unicode="&#x124;" horiz-adv-x="1176" d="M558 1836h28q48 0 136 -128q64 -64 64 -100v-12q-15 -72 -72 -72h-12q-45 0 -128 120h-4q-83 -120 -128 -120h-12q-72 15 -72 72v12q0 38 120 168q38 60 80 60zM104 1433h15q68 -14 68 -60v-598h712v587q12 71 68 71h11q68 -13 68 -68v-1301q0 -49 -72 -64h-4 q-71 13 -71 72v560h-712v-564q0 -56 -71 -68h-4q-58 0 -72 76v1274q9 83 64 83z" />
<glyph unicode="&#x125;" horiz-adv-x="1074" d="M518 1752h28q48 0 136 -128q64 -64 64 -100v-12q-15 -72 -72 -72h-12q-45 0 -128 120h-4q-83 -120 -128 -120h-12q-72 15 -72 72v12q0 38 120 168q38 60 80 60zM99 1430h15q68 -14 68 -60v-461q145 125 310 125q252 0 403 -238q57 -106 57 -200v-528q0 -56 -72 -68h-3 q-54 0 -72 68v506q0 204 -211 294q-51 15 -102 15q-210 0 -295 -223q-15 -48 -15 -158v-434q0 -56 -72 -68h-3q-54 0 -72 68v1291q15 71 64 71z" />
<glyph unicode="&#x126;" horiz-adv-x="1303" d="M137 1192v158q9 83 64 83h15q68 -14 68 -60v-183h712v172q12 71 68 71h11q68 -13 68 -68v-173l24 2q78 0 101 -80q0 -52 -85 -80l-40 2v-972q0 -49 -72 -64h-4q-71 13 -71 72v560h-712v-564q0 -56 -71 -68h-4q-58 0 -72 76v959l-29 -1q-90 24 -90 80q17 76 95 76v4z M284 1038v-263h712v263h-712z" />
<glyph unicode="&#x127;" horiz-adv-x="1330" d="M291 1287v72q15 71 64 71h15q68 -14 68 -60v-83h425l36 4q59 0 76 -80q0 -52 -64 -80l-68 4h-405v-226q145 125 310 125q252 0 403 -238q57 -106 57 -200v-528q0 -56 -72 -68h-3q-54 0 -72 68v506q0 204 -211 294q-51 15 -102 15q-210 0 -295 -223q-15 -48 -15 -158v-434 q0 -56 -72 -68h-3q-54 0 -72 68v1067h-128l-64 -4q-68 24 -68 80q13 76 72 76v4l40 -4h148z" />
<glyph unicode="&#x128;" horiz-adv-x="621" d="M193 1739q79 0 189 -71l33 -4l76 23h7q72 -12 72 -72v-4q0 -70 -124 -90l-38 -4q-79 0 -181 72l-30 4l-83 -23q-75 14 -75 71v8q0 72 139 87zM194 1448l19 -3h142l15 3q76 -16 76 -76q-13 -76 -72 -76h-16v-1147h23q50 0 65 -73v-4q-13 -72 -72 -72h-180q-72 13 -72 72v4 q15 73 65 73h23v1147h-16q-63 0 -72 80v4q0 47 72 68z" />
<glyph unicode="&#x129;" horiz-adv-x="616" d="M193 1329q79 0 189 -71l33 -4l76 23h7q72 -12 72 -72v-4q0 -70 -124 -90l-38 -4q-79 0 -181 72l-30 4l-83 -23q-75 14 -75 71v8q0 72 139 87zM296 1030q72 -18 72 -64v-898q0 -56 -72 -68h-4q-57 0 -71 75v869q9 86 75 86z" />
<glyph unicode="&#x12a;" horiz-adv-x="683" d="M94 1718l40 -4h400l36 4q56 0 76 -80q0 -55 -68 -80l-60 4h-364l-64 -4q-68 24 -68 80q13 76 72 76v4zM238 1448l19 -3h142l15 3q76 -16 76 -76q-13 -76 -72 -76h-16v-1147h23q50 0 65 -73v-4q-13 -72 -72 -72h-180q-72 13 -72 72v4q15 73 65 73h23v1147h-16 q-63 0 -72 80v4q0 47 72 68z" />
<glyph unicode="&#x12b;" horiz-adv-x="744" d="M116 1313l40 -4h400l36 4q56 0 76 -80q0 -55 -68 -80l-60 4h-364l-64 -4q-68 24 -68 80q13 76 72 76v4zM349 1030q72 -18 72 -64v-898q0 -56 -72 -68h-4q-57 0 -71 75v869q9 86 75 86z" />
<glyph unicode="&#x12c;" horiz-adv-x="647" d="M102 1832h12q52 0 84 -84q52 -60 120 -60q102 0 148 112q30 32 60 32h8q76 -13 76 -76v-4q0 -82 -156 -192q-75 -28 -132 -28h-8q-192 0 -284 204v24q15 72 72 72zM224 1448l19 -3h142l15 3q76 -16 76 -76q-13 -76 -72 -76h-16v-1147h23q50 0 65 -73v-4q-13 -72 -72 -72 h-180q-72 13 -72 72v4q15 73 65 73h23v1147h-16q-63 0 -72 80v4q0 47 72 68z" />
<glyph unicode="&#x12d;" horiz-adv-x="647" d="M94 1422h12q52 0 84 -84q52 -60 120 -60q102 0 148 112q30 32 60 32h8q76 -13 76 -76v-4q0 -82 -156 -192q-75 -28 -132 -28h-8q-192 0 -284 204v24q15 72 72 72zM296 1030q72 -18 72 -64v-898q0 -56 -72 -68h-4q-57 0 -71 75v869q9 86 75 86z" />
<glyph unicode="&#x12e;" horiz-adv-x="511" d="M172 0h-40q-72 13 -72 72v4q15 73 65 73h23v1147h-16q-63 0 -72 80v4q0 47 72 68l19 -3h142l15 3q76 -16 76 -76q-13 -76 -72 -76h-16v-1147h23q50 0 65 -73v-4q-13 -72 -72 -72h-2v-65q0 -58 -81 -70q-25 -18 -25 -46q0 -53 67 -53h102l15 4q70 -16 70 -67v-7 q0 -46 -56 -67l-74 4h-36l-56 -4q-71 0 -144 92q-25 48 -25 84v28q0 96 106 155v4z" />
<glyph unicode="&#x12f;" horiz-adv-x="466" d="M203 1286q72 -18 72 -64v-22q0 -53 -79 -64q-51 0 -68 75q15 75 75 75zM135 50q-4 11 -7 25v869q9 86 75 86q72 -18 72 -64v-898q0 -7 -1 -14q0 -3 1 -6v-103q0 -58 -81 -70q-25 -18 -25 -46q0 -53 67 -53h102l15 4q70 -16 70 -67v-7q0 -46 -56 -67l-74 4h-36l-56 -4 q-71 0 -144 92q-25 48 -25 84v28q0 96 106 155v4z" />
<glyph unicode="&#x130;" horiz-adv-x="462" d="M235 1793q90 0 116 -107v-21q0 -64 -82 -101q-12 -6 -34 -6h-3q-96 0 -116 119q0 76 86 110q12 6 33 6zM132 1448l19 -3h142l15 3q76 -16 76 -76q-13 -76 -72 -76h-16v-1147h23q50 0 65 -73v-4q-13 -72 -72 -72h-180q-72 13 -72 72v4q15 73 65 73h23v1147h-16 q-63 0 -72 80v4q0 47 72 68z" />
<glyph unicode="&#x131;" horiz-adv-x="514" d="M309 970h8q46 -10 46 -43v-878q-9 -49 -49 -49h-2q-49 10 -49 43v809q-69 -23 -90 -23q-32 0 -43 47v13q0 38 103 59z" />
<glyph unicode="&#x132;" horiz-adv-x="1435" d="M1260 1443h12q55 0 68 -72v-923q0 -239 -224 -383q-105 -61 -216 -61h-19q-220 0 -369 213q-68 113 -68 235q16 72 65 72h15q72 0 72 -118q6 -82 99 -182q91 -72 197 -72q211 0 289 220q11 40 11 80v923q13 68 68 68zM132 1448l19 -3h142l15 3q76 -16 76 -76 q-13 -76 -72 -76h-16v-1147h23q50 0 65 -73v-4q-13 -72 -72 -72h-180q-72 13 -72 72v4q15 73 65 73h23v1147h-16q-63 0 -72 80v4q0 47 72 68z" />
<glyph unicode="&#x133;" horiz-adv-x="761" d="M550 1277q74 -15 74 -74q0 -62 -78 -74q-66 19 -66 63v22q0 45 70 63zM554 1026q70 -14 70 -70v-928q0 -276 -262 -403q-92 -33 -159 -33l-4 4h-4l-3 -4h-4q-63 0 -74 81q0 55 81 67q208 0 277 210l8 111v895q0 58 74 70zM155 1286q72 -18 72 -64v-22q0 -53 -79 -64 q-51 0 -68 75q15 75 75 75zM155 1030q72 -18 72 -64v-898q0 -56 -72 -68h-4q-57 0 -71 75v869q9 86 75 86z" />
<glyph unicode="&#x134;" horiz-adv-x="1166" d="M861 1810h28q48 0 136 -128q64 -64 64 -100v-12q-15 -72 -72 -72h-12q-45 0 -128 120h-4q-83 -120 -128 -120h-12q-72 15 -72 72v12q0 38 120 168q38 60 80 60zM877 1443h12q55 0 68 -72v-923q0 -239 -224 -383q-105 -61 -216 -61h-19q-220 0 -369 213q-68 113 -68 235 q16 72 65 72h15q72 0 72 -118q6 -82 99 -182q91 -72 197 -72q211 0 289 220q11 40 11 80v923q13 68 68 68z" />
<glyph unicode="&#x135;" horiz-adv-x="810" d="M478 1405h28q48 0 136 -128q64 -64 64 -100v-12q-15 -72 -72 -72h-12q-45 0 -128 120h-4q-83 -120 -128 -120h-12q-72 15 -72 72v12q0 38 120 168q38 60 80 60zM501 1026q70 -14 70 -70v-928q0 -276 -262 -403q-92 -33 -159 -33l-4 4h-4l-3 -4h-4q-63 0 -74 81 q0 55 81 67q208 0 277 210l8 111v895q0 58 74 70z" />
<glyph unicode="&#x136;" horiz-adv-x="1104" d="M118 1434h3q72 -12 72 -68v-653q700 699 706 699l27 4h7q68 -13 68 -68v-12q0 -37 -79 -102l-465 -468l533 -660l3 -23v-11q0 -56 -71 -68h-4q-45 0 -125 117l-445 540l-155 -159v-434q0 -56 -72 -68h-3q-58 0 -72 75v1284q14 75 72 75zM584 40q104 -69 104 -170 q0 -146 -170 -188l-49 3h-52l-56 -3q-59 20 -59 59v14q12 63 63 63h121q66 0 66 52v3q0 40 -62 52q-42 20 -42 53q0 58 41.5 73.5t94.5 -11.5z" />
<glyph unicode="&#x137;" horiz-adv-x="1026" d="M124 1435h15q69 -15 69 -61v-746q535 354 624 405h19q60 0 72 -79q0 -46 -121 -110q-294 -199 -307 -201v-3l424 -538l4 -23v-3q-13 -72 -72 -72h-7q-44 0 -133 128l-341 424h-3l-159 -102v-386q0 -56 -72 -68h-4q-54 0 -72 68v1295q15 72 64 72zM549 49 q104 -69 104 -170q0 -146 -170 -188l-49 3h-52l-56 -3q-59 20 -59 59v14q12 63 63 63h121q66 0 66 52v3q0 40 -62 52q-42 20 -42 53q0 58 41.5 73.5t94.5 -11.5z" />
<glyph unicode="&#x138;" horiz-adv-x="1043" d="M140 1073l21 1q56 -14 60 -81v-365q535 354 624 405h19q60 0 72 -79q0 -46 -121 -110q-294 -199 -307 -201v-3l424 -538l4 -23v-3q-13 -72 -72 -72h-7q-44 0 -133 128l-341 424h-3l-159 -102v-386q0 -56 -72 -68h-4q-54 0 -72 68v927q12 65 67 78z" />
<glyph unicode="&#x139;" horiz-adv-x="947" d="M498 1824q68 0 80 -88q0 -40 -184 -204q-68 -84 -108 -84h-12q-72 14 -72 72v16q0 34 140 160q113 128 156 128zM95 1433h15q68 -14 68 -60v-1226h617q61 0 72 -79q-20 -68 -72 -68h-692q-58 0 -72 76v1274q9 83 64 83z" />
<glyph unicode="&#x13a;" horiz-adv-x="466" d="M312 1837q68 0 80 -88q0 -40 -184 -204q-68 -84 -108 -84h-12q-72 14 -72 72v16q0 34 140 160q113 128 156 128zM142 1427h15q68 -14 68 -60v-1220h79q49 0 64 -72v-3q-12 -72 -72 -72h-146q-58 0 -72 75v1270q9 82 64 82z" />
<glyph unicode="&#x13b;" horiz-adv-x="929" d="M86 1433h15q68 -14 68 -60v-1226h617q61 0 72 -79q-20 -68 -72 -68h-692q-58 0 -72 76v1274q9 83 64 83zM544 -56q104 -69 104 -170q0 -146 -170 -188l-49 3h-52l-56 -3q-59 20 -59 59v14q12 63 63 63h121q66 0 66 52v3q0 40 -62 52q-42 20 -42 53q0 58 41.5 73.5 t94.5 -11.5z" />
<glyph unicode="&#x13c;" horiz-adv-x="515" d="M191 1427h15q68 -14 68 -60v-1220h79q49 0 64 -72v-3q-12 -72 -72 -72h-146q-58 0 -72 75v1270q9 82 64 82zM329 -60q104 -69 104 -170q0 -146 -170 -188l-49 3h-52l-56 -3q-59 20 -59 59v14q12 63 63 63h121q66 0 66 52v3q0 40 -62 52q-42 20 -42 53q0 58 41.5 73.5 t94.5 -11.5z" />
<glyph unicode="&#x13d;" horiz-adv-x="973" d="M719 1576h28q83 0 112 -236v-20q0 -129 -144 -248q-29 -16 -44 -16q-18 7 -28 24v12q60 144 60 236v12q0 62 -48 144v20q15 72 64 72zM130 1433h15q68 -14 68 -60v-1226h617q61 0 72 -79q-20 -68 -72 -68h-692q-58 0 -72 76v1274q9 83 64 83z" />
<glyph unicode="&#x13e;" horiz-adv-x="559" d="M372 1567h28q83 0 112 -236v-20q0 -129 -144 -248q-29 -16 -44 -16q-18 7 -28 24v12q60 144 60 236v12q0 62 -48 144v20q15 72 64 72zM138 1427h15q68 -14 68 -60v-1220h79q49 0 64 -72v-3q-12 -72 -72 -72h-146q-58 0 -72 75v1270q9 82 64 82z" />
<glyph unicode="&#x13f;" horiz-adv-x="1004" d="M635 869q90 0 116 -107v-21q0 -64 -82 -101q-12 -6 -34 -6h-3q-96 0 -116 119q0 76 86 110q12 6 33 6zM130 1433h15q68 -14 68 -60v-1226h617q61 0 72 -79q-20 -68 -72 -68h-692q-58 0 -72 76v1274q9 83 64 83z" />
<glyph unicode="&#x140;" horiz-adv-x="665" d="M468 834q90 0 116 -107v-21q0 -64 -82 -101q-12 -6 -34 -6h-3q-96 0 -116 119q0 76 86 110q12 6 33 6zM129 1427h15q68 -14 68 -60v-1220h79q49 0 64 -72v-3q-12 -72 -72 -72h-146q-58 0 -72 75v1270q9 82 64 82z" />
<glyph unicode="&#x141;" horiz-adv-x="1079" d="M185 697v653q9 83 64 83h15q68 -14 68 -60v-568q238 174 260 174h20q50 0 68 -72v-12q0 -49 -120 -120l-228 -165v-463h617q61 0 72 -79q-20 -68 -72 -68h-692q-58 0 -72 76v430q-45 -31 -49 -31l-20 -4q-80 16 -80 80q0 57 149 146z" />
<glyph unicode="&#x142;" horiz-adv-x="695" d="M370 772q184 132 203 132h20q50 0 68 -72v-12q0 -49 -120 -120l-171 -124v-429h79q49 0 64 -72v-3q-12 -72 -72 -72h-146q-58 0 -72 75v395q-100 -70 -106 -70l-20 -4q-80 16 -80 80q0 58 152 148l54 40v681q9 82 64 82h15q68 -14 68 -60v-595z" />
<glyph unicode="&#x143;" horiz-adv-x="1285" d="M824 1758q68 0 80 -88q0 -40 -184 -204q-68 -84 -108 -84h-12q-72 14 -72 72v16q0 34 140 160q113 128 156 128zM99 1431h15q48 0 83 -75q56 -63 821 -1051q8 0 8 -11l3 -4h4v1073q13 68 68 68h11q56 0 68 -71v-1285q0 -62 -79 -75q-43 0 -132 132l-787 1005v-1065 q0 -56 -72 -68h-3q-58 0 -72 75v1269q9 83 64 83z" />
<glyph unicode="&#x144;" horiz-adv-x="1096" d="M648 1525q68 0 80 -88q0 -40 -184 -204q-68 -84 -108 -84h-12q-72 14 -72 72v16q0 34 140 160q113 128 156 128zM104 1002q70 -18 70 -62v-80q159 142 347 142q206 0 366 -172q117 -144 117 -303v-465q0 -48 -69 -62h-4q-70 12 -70 70v409q0 275 -237 362q-58 15 -103 15 h-11q-199 0 -307 -205q-29 -63 -29 -201v-384q0 -54 -70 -66h-3q-56 0 -70 73v845q8 84 73 84z" />
<glyph unicode="&#x145;" horiz-adv-x="1307" d="M130 1431h15q48 0 83 -75q56 -63 821 -1051q8 0 8 -11l3 -4h4v1073q13 68 68 68h11q56 0 68 -71v-1285q0 -62 -79 -75q-43 0 -132 132l-787 1005v-1065q0 -56 -72 -68h-3q-58 0 -72 75v1269q9 83 64 83zM733 49q104 -69 104 -170q0 -146 -170 -188l-49 3h-52l-56 -3 q-59 20 -59 59v14q12 63 63 63h121q66 0 66 52v3q0 40 -62 52q-42 20 -42 53q0 58 41.5 73.5t94.5 -11.5z" />
<glyph unicode="&#x146;" horiz-adv-x="1140" d="M592 45q104 -69 104 -170q0 -146 -170 -188l-49 3h-52l-56 -3q-59 20 -59 59v14q12 63 63 63h121q66 0 66 52v3q0 40 -62 52q-42 20 -42 53q0 58 41.5 73.5t94.5 -11.5zM108 1002q70 -18 70 -62v-80q159 142 347 142q206 0 366 -172q117 -144 117 -303v-465 q0 -48 -69 -62h-4q-70 12 -70 70v409q0 275 -237 362q-58 15 -103 15h-11q-199 0 -307 -205q-29 -63 -29 -201v-384q0 -54 -70 -66h-3q-56 0 -70 73v845q8 84 73 84z" />
<glyph unicode="&#x147;" horiz-adv-x="1321" d="M498 1690h12q45 0 128 -120h4q83 120 128 120h12q72 -15 72 -72v-12q0 -35 -96 -140q-60 -88 -104 -88h-28q-47 0 -132 124q-68 68 -68 104v12q15 72 72 72zM117 1431h15q48 0 83 -75q56 -63 821 -1051q8 0 8 -11l3 -4h4v1073q13 68 68 68h11q56 0 68 -71v-1285 q0 -62 -79 -75q-43 0 -132 132l-787 1005v-1065q0 -56 -72 -68h-3q-58 0 -72 75v1269q9 83 64 83z" />
<glyph unicode="&#x148;" horiz-adv-x="1114" d="M406 1439h12q45 0 128 -120h4q83 120 128 120h12q72 -15 72 -72v-12q0 -35 -96 -140q-60 -88 -104 -88h-28q-47 0 -132 124q-68 68 -68 104v12q15 72 72 72zM113 1002q70 -18 70 -62v-80q159 142 347 142q206 0 366 -172q117 -144 117 -303v-465q0 -48 -69 -62h-4 q-70 12 -70 70v409q0 275 -237 362q-58 15 -103 15h-11q-199 0 -307 -205q-29 -63 -29 -201v-384q0 -54 -70 -66h-3q-56 0 -70 73v845q8 84 73 84z" />
<glyph unicode="&#x149;" horiz-adv-x="1427" d="M129 1276h28q83 0 112 -236v-20q0 -129 -144 -248q-29 -16 -44 -16q-18 7 -28 24v12q60 144 60 236v12q0 62 -48 144v20q15 72 64 72zM364 1002q70 -18 70 -62v-80q159 142 347 142q206 0 366 -172q117 -144 117 -303v-465q0 -48 -69 -62h-4q-70 12 -70 70v409 q0 275 -237 362q-58 15 -103 15h-11q-199 0 -307 -205q-29 -63 -29 -201v-384q0 -54 -70 -66h-3q-56 0 -70 73v845q8 84 73 84z" />
<glyph unicode="&#x14a;" horiz-adv-x="1268" d="M613 1433q230 0 415 -181q135 -157 151 -302l7 -49l-3 -117v-207l3 -98q-14 -131 -90 -238q-151 -184 -370 -184q-156 0 -267 94l-8 34v11q13 68 68 68h7l125 -49l75 -8h8q172 0 268 166q37 55 37 215v230q0 324 -275 438q-79 26 -136 26h-22q-237 0 -374 -234 q-45 -82 -45 -252v-728q0 -56 -72 -68h-3q-58 0 -72 75v1271q9 83 64 83h15q68 -14 68 -60v-128q190 192 426 192z" />
<glyph unicode="&#x14b;" horiz-adv-x="1140" d="M1012 50q-4 -212 -228 -299l-87 -15q-73 16 -73 62v22q0 54 83 61q110 0 160 138q0 23 3 42v418q0 275 -237 362q-58 15 -103 15h-11q-199 0 -307 -205q-29 -63 -29 -201v-384q0 -54 -70 -66h-3q-56 0 -70 73v845q8 84 73 84q70 -18 70 -62v-80q159 142 347 142 q206 0 366 -172q117 -144 117 -303v-465q0 -6 -1 -12z" />
<glyph unicode="&#x14c;" horiz-adv-x="1580" d="M340 1704h844q70 -13 70 -70v-12q-13 -70 -67 -70h-847q-60 0 -70 82q19 70 70 70zM749 1435q363 0 607 -336q110 -191 110 -385q0 -359 -325 -597q-184 -117 -385 -117h-15q-370 0 -604 344q-106 174 -106 377q0 343 302 578q196 136 416 136zM178 710q0 -274 242 -461 q151 -102 321 -102h19q268 0 453 238q106 153 106 333q0 309 -283 490q-140 80 -287 80q-283 0 -469 -246q-102 -147 -102 -332z" />
<glyph unicode="&#x14d;" horiz-adv-x="1188" d="M133 1325h844q70 -13 70 -70v-12q-13 -70 -67 -70h-847q-60 0 -70 82q19 70 70 70zM553 1018q197 0 357 -149q152 -160 152 -360q0 -286 -271 -450q-117 -59 -227 -59h-30q-205 0 -382 193q-108 153 -108 316q0 248 219 416q140 93 290 93zM193 520v-18q0 -204 197 -316 q71 -37 152 -37h22q211 0 323 219q26 69 26 134v18q0 170 -156 286q-91 63 -208 63q-231 0 -338 -241q-18 -59 -18 -108z" />
<glyph unicode="&#x14e;" horiz-adv-x="1563" d="M557 1836h12q52 0 84 -84q52 -60 120 -60q102 0 148 112q30 32 60 32h8q76 -13 76 -76v-4q0 -82 -156 -192q-75 -28 -132 -28h-8q-192 0 -284 204v24q15 72 72 72zM758 1435q363 0 607 -336q110 -191 110 -385q0 -359 -325 -597q-184 -117 -385 -117h-15q-370 0 -604 344 q-106 174 -106 377q0 343 302 578q196 136 416 136zM187 710q0 -274 242 -461q151 -102 321 -102h19q268 0 453 238q106 153 106 333q0 309 -283 490q-140 80 -287 80q-283 0 -469 -246q-102 -147 -102 -332z" />
<glyph unicode="&#x14f;" horiz-adv-x="1127" d="M341 1436h12q52 0 84 -84q52 -60 120 -60q102 0 148 112q30 32 60 32h8q76 -13 76 -76v-4q0 -82 -156 -192q-75 -28 -132 -28h-8q-192 0 -284 204v24q15 72 72 72zM549 1018q197 0 357 -149q152 -160 152 -360q0 -286 -271 -450q-117 -59 -227 -59h-30q-205 0 -382 193 q-108 153 -108 316q0 248 219 416q140 93 290 93zM189 520v-18q0 -204 197 -316q71 -37 152 -37h22q211 0 323 219q26 69 26 134v18q0 170 -156 286q-91 63 -208 63q-231 0 -338 -241q-18 -59 -18 -108z" />
<glyph unicode="&#x150;" horiz-adv-x="1580" d="M567 1843h4q76 -13 76 -72v-20q0 -21 -168 -240q-18 -20 -36 -20h-8q-33 0 -44 44v8q105 263 128 284q27 16 48 16zM815 1831q80 -16 80 -80q0 -32 -108 -168q-67 -104 -96 -104h-12q-33 0 -44 44q0 17 112 272q35 36 68 36zM749 1435q363 0 607 -336q110 -191 110 -385 q0 -359 -325 -597q-184 -117 -385 -117h-15q-370 0 -604 344q-106 174 -106 377q0 343 302 578q196 136 416 136zM178 710q0 -274 242 -461q151 -102 321 -102h19q268 0 453 238q106 153 106 333q0 309 -283 490q-140 80 -287 80q-283 0 -469 -246q-102 -147 -102 -332z" />
<glyph unicode="&#x151;" horiz-adv-x="1135" d="M430 1469h4q76 -13 76 -72v-20q0 -21 -168 -240q-18 -20 -36 -20h-8q-33 0 -44 44v8q105 263 128 284q27 16 48 16zM678 1457q80 -16 80 -80q0 -32 -108 -168q-67 -104 -96 -104h-12q-33 0 -44 44q0 17 112 272q35 36 68 36zM544 1018q197 0 357 -149q152 -160 152 -360 q0 -286 -271 -450q-117 -59 -227 -59h-30q-205 0 -382 193q-108 153 -108 316q0 248 219 416q140 93 290 93zM184 520v-18q0 -204 197 -316q71 -37 152 -37h22q211 0 323 219q26 69 26 134v18q0 170 -156 286q-91 63 -208 63q-231 0 -338 -241q-18 -59 -18 -108z" />
<glyph unicode="&#x152;" horiz-adv-x="2157" d="M204 710q0 -274 199 -461q123 -102 262 -102h16q219 0 371 238q87 153 87 333q0 309 -232 490q-115 80 -235 80q-232 0 -384 -246q-84 -147 -84 -332zM1141 289q-59 -93 -148 -172q-151 -117 -315 -117h-13q-303 0 -494 344q-87 174 -87 377q0 343 247 578 q161 136 341 136q277 0 469 -291v222q11 72 72 72v4l19 -4h744l15 4q65 0 76 -83q-15 -69 -83 -69h-695v-512h455l54 4q51 0 68 -76q0 -50 -61 -76l-76 4h-440v-486h713q53 0 65 -80q-20 -68 -68 -68h-786q-72 13 -72 72v217z" />
<glyph unicode="&#x153;" horiz-adv-x="2025" d="M193 525v-18q0 -204 197 -316q71 -37 152 -37h22q211 0 323 219q26 69 26 134v18q0 170 -156 286q-91 63 -208 63q-231 0 -338 -241q-18 -59 -18 -108zM1069 551h704q0 75 -88 194q-121 114 -238 114h-41q-176 0 -289 -172q-40 -69 -48 -136zM990 251q-68 -108 -199 -187 q-117 -59 -227 -59h-30q-205 0 -382 193q-108 153 -108 316q0 248 219 416q140 93 290 93q197 0 357 -149q49 -51 82 -106q64 102 187 179q127 62 238 62q290 0 451 -275q55 -108 55 -234v-19q-13 -73 -70 -73h-773q44 -146 187 -223q84 -33 158 -33q84 0 194 55h22 q66 -13 66 -66v-11q0 -91 -264 -125h-26q-266 0 -427 246z" />
<glyph unicode="&#x154;" horiz-adv-x="986" d="M551 1859q68 0 80 -88q0 -40 -184 -204q-68 -84 -108 -84h-12q-72 14 -72 72v16q0 34 140 160q113 128 156 128zM99 1435h315q201 0 329 -212q41 -82 41 -171v-15q0 -198 -193 -325l-37 -19q344 -593 344 -606v-19q0 -56 -72 -68h-4q-54 0 -113 129l-311 530h-215v-591 q0 -56 -72 -68h-4q-58 0 -72 76v1275q9 84 64 84zM183 1291v-485h215q179 0 235 193l4 31v30q0 142 -159 216q-45 15 -140 15h-155z" />
<glyph unicode="&#x155;" horiz-adv-x="928" d="M573 1507q68 0 80 -88q0 -40 -184 -204q-68 -84 -108 -84h-12q-72 14 -72 72v16q0 34 140 160q113 128 156 128zM143 1031q72 -18 72 -64v-83q165 147 353 147q101 0 215 -49q30 -31 30 -60v-4q-12 -71 -71 -71h-4q-103 33 -155 33h-22q-221 0 -324 -229 q-22 -61 -22 -139v-444q0 -56 -72 -68h-4q-57 0 -71 75v869q9 87 75 87z" />
<glyph unicode="&#x156;" horiz-adv-x="995" d="M104 1435h315q201 0 329 -212q41 -82 41 -171v-15q0 -198 -193 -325l-37 -19q344 -593 344 -606v-19q0 -56 -72 -68h-4q-54 0 -113 129l-311 530h-215v-591q0 -56 -72 -68h-4q-58 0 -72 76v1275q9 84 64 84zM188 1291v-485h215q179 0 235 193l4 31v30q0 142 -159 216 q-45 15 -140 15h-155zM544 81q104 -69 104 -170q0 -146 -170 -188l-49 3h-52l-56 -3q-59 20 -59 59v14q12 63 63 63h121q66 0 66 52v3q0 40 -62 52q-42 20 -42 53q0 58 41.5 73.5t94.5 -11.5z" />
<glyph unicode="&#x157;" horiz-adv-x="854" d="M95 1031q72 -18 72 -64v-83q165 147 353 147q101 0 215 -49q30 -31 30 -60v-4q-12 -71 -71 -71h-4q-103 33 -155 33h-22q-221 0 -324 -229q-22 -61 -22 -139v-444q0 -56 -72 -68h-4q-57 0 -71 75v869q9 87 75 87zM381 76q104 -69 104 -170q0 -146 -170 -188l-49 3h-52 l-56 -3q-59 20 -59 59v14q12 63 63 63h121q66 0 66 52v3q0 40 -62 52q-42 20 -42 53q0 58 41.5 73.5t94.5 -11.5z" />
<glyph unicode="&#x158;" horiz-adv-x="1003" d="M216 1831h12q45 0 128 -120h4q83 120 128 120h12q72 -15 72 -72v-12q0 -35 -96 -140q-60 -88 -104 -88h-28q-47 0 -132 124q-68 68 -68 104v12q15 72 72 72zM99 1435h315q201 0 329 -212q41 -82 41 -171v-15q0 -198 -193 -325l-37 -19q344 -593 344 -606v-19 q0 -56 -72 -68h-4q-54 0 -113 129l-311 530h-215v-591q0 -56 -72 -68h-4q-58 0 -72 76v1275q9 84 64 84zM183 1291v-485h215q179 0 235 193l4 31v30q0 142 -159 216q-45 15 -140 15h-155z" />
<glyph unicode="&#x159;" horiz-adv-x="885" d="M261 1431h12q45 0 128 -120h4q83 120 128 120h12q72 -15 72 -72v-12q0 -35 -96 -140q-60 -88 -104 -88h-28q-47 0 -132 124q-68 68 -68 104v12q15 72 72 72zM113 1031q72 -18 72 -64v-83q165 147 353 147q101 0 215 -49q30 -31 30 -60v-4q-12 -71 -71 -71h-4 q-103 33 -155 33h-22q-221 0 -324 -229q-22 -61 -22 -139v-444q0 -56 -72 -68h-4q-57 0 -71 75v869q9 87 75 87z" />
<glyph unicode="&#x15a;" horiz-adv-x="929" d="M587 1863q68 0 80 -88q0 -40 -184 -204q-68 -84 -108 -84h-12q-72 14 -72 72v16q0 34 140 160q113 128 156 128zM482 1437q186 0 310 -168l4 -16v-23q0 -49 -73 -61q-30 0 -103 81q-66 42 -126 42h-23q-126 0 -191 -134q-15 -32 -15 -65v-31q0 -145 175 -210 q126 0 272 -118q141 -143 141 -314q0 -210 -180 -344q-110 -76 -244 -76q-217 0 -359 187l-8 31q13 72 73 72q40 0 103 -80q94 -65 172 -65h34q152 0 245 172q15 56 15 84v38q0 151 -172 245l-195 54q-218 125 -218 328v27q0 200 214 313q80 31 149 31z" />
<glyph unicode="&#x15b;" horiz-adv-x="980" d="M582 1444q68 0 80 -88q0 -40 -184 -204q-68 -84 -108 -84h-12q-72 14 -72 72v16q0 34 140 160q113 128 156 128zM485 1017q257 0 404 -233l3 -29v-4q0 -59 -74 -70q-49 0 -100 85q-103 100 -233 100q-171 0 -270 -163l-3 -19q0 -49 111 -59q426 -103 466 -118 q107 -70 107 -178v-3q0 -154 -226 -282q-97 -44 -207 -44q-225 0 -381 211q-15 22 -15 41v22q0 54 82 63q35 0 100 -93q99 -92 229 -92q156 0 259 148l7 22v4q0 48 -66 55q-497 111 -526 137q-92 70 -92 170q0 140 203 270q112 59 222 59z" />
<glyph unicode="&#x15c;" horiz-adv-x="885" d="M435 1805h28q48 0 136 -128q64 -64 64 -100v-12q-15 -72 -72 -72h-12q-45 0 -128 120h-4q-83 -120 -128 -120h-12q-72 15 -72 72v12q0 38 120 168q38 60 80 60zM460 1437q186 0 310 -168l4 -16v-23q0 -49 -73 -61q-30 0 -103 81q-66 42 -126 42h-23q-126 0 -191 -134 q-15 -32 -15 -65v-31q0 -145 175 -210q126 0 272 -118q141 -143 141 -314q0 -210 -180 -344q-110 -76 -244 -76q-217 0 -359 187l-8 31q13 72 73 72q40 0 103 -80q94 -65 172 -65h34q152 0 245 172q15 56 15 84v38q0 151 -172 245l-195 54q-218 125 -218 328v27 q0 200 214 313q80 31 149 31z" />
<glyph unicode="&#x15d;" horiz-adv-x="969" d="M474 1391h28q48 0 136 -128q64 -64 64 -100v-12q-15 -72 -72 -72h-12q-45 0 -128 120h-4q-83 -120 -128 -120h-12q-72 15 -72 72v12q0 38 120 168q38 60 80 60zM485 1017q257 0 404 -233l3 -29v-4q0 -59 -74 -70q-49 0 -100 85q-103 100 -233 100q-171 0 -270 -163 l-3 -19q0 -49 111 -59q426 -103 466 -118q107 -70 107 -178v-3q0 -154 -226 -282q-97 -44 -207 -44q-225 0 -381 211q-15 22 -15 41v22q0 54 82 63q35 0 100 -93q99 -92 229 -92q156 0 259 148l7 22v4q0 48 -66 55q-497 111 -526 137q-92 70 -92 170q0 140 203 270 q112 59 222 59z" />
<glyph unicode="&#x15e;" horiz-adv-x="903" d="M359 2q-185 19 -311 185l-8 31q13 72 73 72q40 0 103 -80q94 -65 172 -65h34q152 0 245 172q15 56 15 84v38q0 151 -172 245l-195 54q-218 125 -218 328v27q0 200 214 313q80 31 149 31q186 0 310 -168l4 -16v-23q0 -49 -73 -61q-30 0 -103 81q-66 42 -126 42h-23 q-126 0 -191 -134q-15 -32 -15 -65v-31q0 -145 175 -210q126 0 272 -118q141 -143 141 -314q0 -210 -180 -344q-73 -50 -156 -67v-38q104 -69 104 -170q0 -146 -170 -188l-49 3h-52l-56 -3q-59 20 -59 59v14q12 63 63 63h121q66 0 66 52v3q0 40 -62 52q-42 20 -42 53v93z " />
<glyph unicode="&#x15f;" horiz-adv-x="978" d="M553 7v-45q104 -69 104 -170q0 -146 -170 -188l-49 3h-52l-56 -3q-59 20 -59 59v14q12 63 63 63h121q66 0 66 52v3q0 40 -62 52q-42 20 -42 53v103q-193 21 -331 208q-15 22 -15 41v22q0 54 82 63q35 0 100 -93q99 -92 229 -92q156 0 259 148l7 22v4q0 48 -66 55 q-497 111 -526 137q-92 70 -92 170q0 140 203 270q112 59 222 59q257 0 404 -233l3 -29v-4q0 -59 -74 -70q-49 0 -100 85q-103 100 -233 100q-171 0 -270 -163l-3 -19q0 -49 111 -59q426 -103 466 -118q107 -70 107 -178v-3q0 -154 -226 -282q-58 -26 -121 -37z" />
<glyph unicode="&#x160;" horiz-adv-x="924" d="M309 1822h12q45 0 128 -120h4q83 120 128 120h12q72 -15 72 -72v-12q0 -35 -96 -140q-60 -88 -104 -88h-28q-47 0 -132 124q-68 68 -68 104v12q15 72 72 72zM455 1437q186 0 310 -168l4 -16v-23q0 -49 -73 -61q-30 0 -103 81q-66 42 -126 42h-23q-126 0 -191 -134 q-15 -32 -15 -65v-31q0 -145 175 -210q126 0 272 -118q141 -143 141 -314q0 -210 -180 -344q-110 -76 -244 -76q-217 0 -359 187l-8 31q13 72 73 72q40 0 103 -80q94 -65 172 -65h34q152 0 245 172q15 56 15 84v38q0 151 -172 245l-195 54q-218 125 -218 328v27 q0 200 214 313q80 31 149 31z" />
<glyph unicode="&#x161;" horiz-adv-x="977" d="M340 1444h12q45 0 128 -120h4q83 120 128 120h12q72 -15 72 -72v-12q0 -35 -96 -140q-60 -88 -104 -88h-28q-47 0 -132 124q-68 68 -68 104v12q15 72 72 72zM476 1017q257 0 404 -233l3 -29v-4q0 -59 -74 -70q-49 0 -100 85q-103 100 -233 100q-171 0 -270 -163l-3 -19 q0 -49 111 -59q426 -103 466 -118q107 -70 107 -178v-3q0 -154 -226 -282q-97 -44 -207 -44q-225 0 -381 211q-15 22 -15 41v22q0 54 82 63q35 0 100 -93q99 -92 229 -92q156 0 259 148l7 22v4q0 48 -66 55q-497 111 -526 137q-92 70 -92 170q0 140 203 270q112 59 222 59z " />
<glyph unicode="&#x162;" horiz-adv-x="1219" d="M108 1436h933q68 -13 68 -68v-15q0 -55 -83 -64h-376v-1221q0 -56 -72 -68h-3q-58 0 -72 76v1213h-383q-76 15 -76 75q16 72 64 72zM533 -73h28q83 0 112 -143v-12q0 -78 -144 -150q-29 -10 -44 -10q-18 4 -28 15v7q60 87 60 143v7q0 38 -48 87v12q15 44 64 44z" />
<glyph unicode="&#x163;" horiz-adv-x="730" d="M292 1390h14q66 -14 66 -59v-330h151l33 4q51 0 69 -74q0 -50 -62 -73l-55 4h-136v-539q0 -141 92 -173l84 -7h41q48 0 62 -70v-3q-12 -70 -70 -70h-77q-175 0 -260 191q-15 47 -15 110v561h-73l-59 -4q-62 22 -62 73q12 70 66 70v4l37 -4h91v308q9 81 63 81zM392 -47h28 q83 0 112 -143v-12q0 -78 -144 -150q-29 -10 -44 -10q-18 4 -28 15v7q60 87 60 143v7q0 38 -48 87v12q15 44 64 44z" />
<glyph unicode="&#x164;" horiz-adv-x="1224" d="M446 1836h12q45 0 128 -120h4q83 120 128 120h12q72 -15 72 -72v-12q0 -35 -96 -140q-60 -88 -104 -88h-28q-47 0 -132 124q-68 68 -68 104v12q15 72 72 72zM117 1436h933q68 -13 68 -68v-15q0 -55 -83 -64h-376v-1221q0 -56 -72 -68h-3q-58 0 -72 76v1213h-383 q-76 15 -76 75q16 72 64 72z" />
<glyph unicode="&#x165;" horiz-adv-x="757" d="M195 1800h12q45 0 128 -120h4q83 120 128 120h12q72 -15 72 -72v-12q0 -35 -96 -140q-60 -88 -104 -88h-28q-47 0 -132 124q-68 68 -68 104v12q15 72 72 72zM319 1390h14q66 -14 66 -59v-330h151l33 4q51 0 69 -74q0 -50 -62 -73l-55 4h-136v-539q0 -141 92 -173l84 -7 h41q48 0 62 -70v-3q-12 -70 -70 -70h-77q-175 0 -260 191q-15 47 -15 110v561h-73l-59 -4q-62 22 -62 73q12 70 66 70v4l37 -4h91v308q9 81 63 81z" />
<glyph unicode="&#x166;" horiz-adv-x="1197" d="M507 641h-285l-64 -4q-68 24 -68 80q13 76 72 76v4l40 -4h305v496h-383q-76 15 -76 75q16 72 64 72h933q68 -13 68 -68v-15q0 -55 -83 -64h-376v-496h268l36 4q59 0 76 -80q0 -52 -64 -80l-68 4h-248v-573q0 -56 -72 -68h-3q-58 0 -72 76v565z" />
<glyph unicode="&#x167;" horiz-adv-x="748" d="M242 618v244h-73l-59 -4q-62 22 -62 73q12 70 66 70v4l37 -4h91v308q9 81 63 81h14q66 -14 66 -59v-330h151l33 4q51 0 69 -74q0 -50 -62 -73l-55 4h-136v-244h148l34 4q52 0 71 -80q0 -55 -64 -80l-56 4h-133v-143q0 -141 92 -173l84 -7h41q48 0 62 -70v-3 q-12 -70 -70 -70h-77q-175 0 -260 191q-15 47 -15 110v165h-66l-60 -4q-64 24 -64 80q12 76 68 76v4l37 -4h85z" />
<glyph unicode="&#x168;" horiz-adv-x="1219" d="M130 1433h15q68 -14 68 -60v-806q0 -260 148 -348q93 -72 208 -72q221 0 333 227q23 71 23 148v840q12 71 68 71h11q68 -13 68 -68v-881q0 -225 -216 -393q-136 -91 -276 -91h-26q-235 0 -409 231q-79 124 -79 306v813q9 83 64 83zM461 1715h19q70 0 162 -63l29 -7h18 l74 22q74 -15 74 -74q0 -74 -140 -92h-26q-69 0 -162 63l-29 7h-19l-70 -18h-7q-66 13 -66 66v11q0 55 81 74q29 11 62 11z" />
<glyph unicode="&#x169;" horiz-adv-x="1131" d="M421 1314h19q70 0 162 -63l29 -7h18l74 22q74 -15 74 -74q0 -74 -140 -92h-26q-69 0 -162 63l-29 7h-19l-70 -18h-7q-66 13 -66 66v11q0 55 81 74q29 11 62 11zM117 1002q70 -18 70 -63v-391q0 -251 142 -336q90 -69 201 -69q214 0 322 219q22 71 22 142v424q14 74 73 74 q69 -17 69 -70v-870q0 -48 -69 -62h-4q-69 12 -69 69v70h-4q-153 -139 -329 -139h-25q-227 0 -395 223q-77 120 -77 296v398q8 85 73 85z" />
<glyph unicode="&#x16a;" horiz-adv-x="1135" d="M99 1433h15q68 -14 68 -60v-806q0 -260 148 -348q93 -72 208 -72q221 0 333 227q23 71 23 148v840q12 71 68 71h11q68 -13 68 -68v-881q0 -225 -216 -393q-136 -91 -276 -91h-26q-235 0 -409 231q-79 124 -79 306v813q9 83 64 83zM208 1712l33 -4h606l30 4q50 0 64 -80 q0 -52 -54 -80l-57 4h-572l-54 -4q-57 24 -57 80q11 76 61 76v4z" />
<glyph unicode="&#x16b;" horiz-adv-x="1135" d="M108 1002q70 -18 70 -63v-391q0 -251 142 -336q90 -69 201 -69q214 0 322 219q22 71 22 142v424q14 74 73 74q69 -17 69 -70v-870q0 -48 -69 -62h-4q-69 12 -69 69v70h-4q-153 -139 -329 -139h-25q-227 0 -395 223q-77 120 -77 296v398q8 85 73 85zM252 1299l521 1 q80 -14 80 -71v-12q-9 -70 -76 -70h-538q-64 0 -71 82q13 70 84 70z" />
<glyph unicode="&#x16c;" horiz-adv-x="1149" d="M341 1800h12q52 0 84 -84q52 -60 120 -60q102 0 148 112q30 32 60 32h8q76 -13 76 -76v-4q0 -82 -156 -192q-75 -28 -132 -28h-8q-192 0 -284 204v24q15 72 72 72zM99 1433h15q68 -14 68 -60v-806q0 -260 148 -348q93 -72 208 -72q221 0 333 227q23 71 23 148v840 q12 71 68 71h11q68 -13 68 -68v-881q0 -225 -216 -393q-136 -91 -276 -91h-26q-235 0 -409 231q-79 124 -79 306v813q9 83 64 83z" />
<glyph unicode="&#x16d;" horiz-adv-x="1171" d="M328 1396h12q52 0 84 -84q52 -60 120 -60q102 0 148 112q30 32 60 32h8q76 -13 76 -76v-4q0 -82 -156 -192q-75 -28 -132 -28h-8q-192 0 -284 204v24q15 72 72 72zM135 1002q70 -18 70 -63v-391q0 -251 142 -336q90 -69 201 -69q214 0 322 219q22 71 22 142v424 q14 74 73 74q69 -17 69 -70v-870q0 -48 -69 -62h-4q-69 12 -69 69v70h-4q-153 -139 -329 -139h-25q-227 0 -395 223q-77 120 -77 296v398q8 85 73 85z" />
<glyph unicode="&#x16e;" horiz-adv-x="1127" d="M95 1433h15q68 -14 68 -60v-806q0 -260 148 -348q93 -72 208 -72q221 0 333 227q23 71 23 148v840q12 71 68 71h11q68 -13 68 -68v-881q0 -225 -216 -393q-136 -91 -276 -91h-26q-235 0 -409 231q-79 124 -79 306v813q9 83 64 83zM542 1832h15q121 0 174 -147l4 -38v-11 q0 -118 -140 -174l-45 -8q-113 0 -174 114q-19 41 -19 79q0 127 148 181zM474 1643q13 -71 72 -71q72 12 72 68v11q-11 64 -64 64h-12q-57 0 -68 -72z" />
<glyph unicode="&#x16f;" horiz-adv-x="1180" d="M135 1002q70 -18 70 -63v-391q0 -251 142 -336q90 -69 201 -69q214 0 322 219q22 71 22 142v424q14 74 73 74q69 -17 69 -70v-870q0 -48 -69 -62h-4q-69 12 -69 69v70h-4q-153 -139 -329 -139h-25q-227 0 -395 223q-77 120 -77 296v398q8 85 73 85zM547 1405h15 q121 0 174 -147l4 -38v-11q0 -118 -140 -174l-45 -8q-113 0 -174 114q-19 41 -19 79q0 127 148 181zM479 1216q13 -71 72 -71q72 12 72 68v11q-11 64 -64 64h-12q-57 0 -68 -72z" />
<glyph unicode="&#x170;" horiz-adv-x="1175" d="M555 1834h4q76 -13 76 -72v-20q0 -21 -168 -240q-18 -20 -36 -20h-8q-33 0 -44 44v8q105 263 128 284q27 16 48 16zM803 1822q80 -16 80 -80q0 -32 -108 -168q-67 -104 -96 -104h-12q-33 0 -44 44q0 17 112 272q35 36 68 36zM121 1433h15q68 -14 68 -60v-806 q0 -260 148 -348q93 -72 208 -72q221 0 333 227q23 71 23 148v840q12 71 68 71h11q68 -13 68 -68v-881q0 -225 -216 -393q-136 -91 -276 -91h-26q-235 0 -409 231q-79 124 -79 306v813q9 83 64 83z" />
<glyph unicode="&#x171;" horiz-adv-x="1144" d="M515 1403h4q76 -13 76 -72v-20q0 -21 -168 -240q-18 -20 -36 -20h-8q-33 0 -44 44v8q105 263 128 284q27 16 48 16zM763 1391q80 -16 80 -80q0 -32 -108 -168q-67 -104 -96 -104h-12q-33 0 -44 44q0 17 112 272q35 36 68 36zM117 1002q70 -18 70 -63v-391 q0 -251 142 -336q90 -69 201 -69q214 0 322 219q22 71 22 142v424q14 74 73 74q69 -17 69 -70v-870q0 -48 -69 -62h-4q-69 12 -69 69v70h-4q-153 -139 -329 -139h-25q-227 0 -395 223q-77 120 -77 296v398q8 85 73 85z" />
<glyph unicode="&#x172;" horiz-adv-x="1202" d="M496 3q-201 24 -355 228q-79 124 -79 306v813q9 83 64 83h15q68 -14 68 -60v-806q0 -260 148 -348q93 -72 208 -72q221 0 333 227q23 71 23 148v840q12 71 68 71h11q68 -13 68 -68v-881q0 -225 -216 -393q-107 -71 -216 -87v-95q0 -58 -81 -70q-25 -18 -25 -46 q0 -53 67 -53h102l15 4q70 -16 70 -67v-7q0 -46 -56 -67l-74 4h-36l-56 -4q-71 0 -144 92q-25 48 -25 84v28q0 96 106 155v4z" />
<glyph unicode="&#x173;" horiz-adv-x="1211" d="M1025 69q2 -6 3 -13v-103q0 -58 -81 -70q-25 -18 -25 -46q0 -53 67 -53h102l15 4q70 -16 70 -67v-7q0 -46 -56 -67l-74 4h-36l-56 -4q-71 0 -144 92q-25 48 -25 84v28q0 96 106 155v4l-2 30q-6 12 -6 29v70h-4q-153 -139 -329 -139h-25q-227 0 -395 223q-77 120 -77 296 v398q8 85 73 85q70 -18 70 -63v-391q0 -251 142 -336q90 -69 201 -69q214 0 322 219q22 71 22 142v424q14 74 73 74q69 -17 69 -70v-863z" />
<glyph unicode="&#x174;" horiz-adv-x="1778" d="M861 1840h28q48 0 136 -128q64 -64 64 -100v-12q-15 -72 -72 -72h-12q-45 0 -128 120h-4q-83 -120 -128 -120h-12q-72 15 -72 72v12q0 38 120 168q38 60 80 60zM112 1436h16q64 0 83 -114l280 -973h8q292 1031 311 1061q25 26 53 26h11q67 0 87 -136q27 -74 277 -955h4 l307 1057q27 34 53 34h15q68 -14 68 -60v-19l-383 -1327q-31 -30 -60 -30h-4q-71 0 -91 140q-246 836 -277 959h-3l-307 -1065q-28 -34 -61 -34h-15q-62 0 -84 144q-325 1106 -352 1220q16 72 64 72z" />
<glyph unicode="&#x175;" horiz-adv-x="1422" d="M667 1369h28q48 0 136 -128q64 -64 64 -100v-12q-15 -72 -72 -72h-12q-45 0 -128 120h-4q-83 -120 -128 -120h-12q-72 15 -72 72v12q0 38 120 168q38 60 80 60zM118 1009q68 0 95 -148l181 -555h3q207 659 221 677q26 22 56 26q66 0 88 -122l188 -581h3q199 631 217 670 q31 33 59 33q74 -15 74 -74l-291 -906q-31 -29 -59 -29h-3q-68 0 -96 144q-177 536 -177 552h-7l-214 -663q-25 -33 -59 -33h-3q-52 0 -74 66l-276 869q15 74 74 74z" />
<glyph unicode="&#x176;" horiz-adv-x="1167" d="M536 1792h28q48 0 136 -128q64 -64 64 -100v-12q-15 -72 -72 -72h-12q-45 0 -128 120h-4q-83 -120 -128 -120h-12q-72 15 -72 72v12q0 38 120 168q38 60 80 60zM104 1433h16q49 0 79 -72l345 -516h4q372 562 387 573q20 15 34 15h23q46 0 64 -72q0 -32 -129 -209 l-307 -458v-611q-9 -83 -64 -83h-16q-49 0 -68 61v621q0 14 -159 251l-269 405l-4 23q16 72 64 72z" />
<glyph unicode="&#x177;" horiz-adv-x="964" d="M475 1395h28q48 0 136 -128q64 -64 64 -100v-12q-15 -72 -72 -72h-12q-45 0 -128 120h-4q-83 -120 -128 -120h-12q-72 15 -72 72v12q0 38 120 168q38 60 80 60zM808 1012q69 -13 69 -66v-4q-3 -25 -345 -840q-161 -401 -181 -426q-18 -14 -45 -21q-70 15 -70 60v17 q0 13 157 391v3l-332 810v3q14 69 70 69q59 0 101 -138q227 -538 234 -566h3q274 669 290 687q25 21 49 21z" />
<glyph unicode="&#x178;" horiz-adv-x="1149" d="M104 1433h16q49 0 79 -72l345 -516h4q372 562 387 573q20 15 34 15h23q46 0 64 -72q0 -32 -129 -209l-307 -458v-611q-9 -83 -64 -83h-16q-49 0 -68 61v621q0 14 -159 251l-269 405l-4 23q16 72 64 72zM395 1687h15q68 -14 68 -60v-19q0 -55 -72 -68q-75 15 -75 76 q16 71 64 71zM685 1687h11q68 -15 68 -64v-11q0 -60 -75 -72q-72 14 -72 72v11q0 49 68 64z" />
<glyph unicode="&#x179;" horiz-adv-x="1272" d="M701 1807q73 -17 73 -70v-7q0 -31 -81 -121q-60 -92 -113 -92h-4q-47 0 -62 70v7q0 33 113 161q38 52 74 52zM95 1437h1021q55 0 68 -72v-3q0 -29 -83 -126l-842 -1088h853q72 -11 72 -72v-4q-13 -72 -72 -72h-1009q-60 0 -72 80q0 28 182 254l740 956h-846 q-76 15 -76 75q16 72 64 72z" />
<glyph unicode="&#x17a;" horiz-adv-x="973" d="M568 1389q73 -17 73 -70v-7q0 -31 -81 -121q-60 -92 -113 -92h-4q-47 0 -62 70v7q0 33 113 161q38 52 74 52zM110 1012l37 -4h639l34 4q66 -20 66 -63v-22q0 -23 -85 -115l-532 -668h551q66 -13 66 -66v-12q0 -54 -70 -66h-702q-59 0 -70 78q0 29 151 203l466 587h-495 l-59 -4q-63 22 -63 74q12 70 66 70v4z" />
<glyph unicode="&#x17b;" horiz-adv-x="1325" d="M640 1797q90 0 116 -107v-21q0 -64 -82 -101q-12 -6 -34 -6h-3q-96 0 -116 119q0 76 86 110q12 6 33 6zM108 1437h1021q55 0 68 -72v-3q0 -29 -83 -126l-842 -1088h853q72 -11 72 -72v-4q-13 -72 -72 -72h-1009q-60 0 -72 80q0 28 182 254l740 956h-846q-76 15 -76 75 q16 72 64 72z" />
<glyph unicode="&#x17c;" horiz-adv-x="1004" d="M482 1357q90 0 116 -107v-21q0 -64 -82 -101q-12 -6 -34 -6h-3q-96 0 -116 119q0 76 86 110q12 6 33 6zM106 1012l37 -4h639l34 4q66 -20 66 -63v-22q0 -23 -85 -115l-532 -668h551q66 -13 66 -66v-12q0 -54 -70 -66h-702q-59 0 -70 78q0 29 151 203l466 587h-495l-59 -4 q-63 22 -63 74q12 70 66 70v4z" />
<glyph unicode="&#x17d;" horiz-adv-x="1294" d="M494 1836h12q45 0 128 -120h4q83 120 128 120h12q72 -15 72 -72v-12q0 -35 -96 -140q-60 -88 -104 -88h-28q-47 0 -132 124q-68 68 -68 104v12q15 72 72 72zM112 1437h1021q55 0 68 -72v-3q0 -29 -83 -126l-842 -1088h853q72 -11 72 -72v-4q-13 -72 -72 -72h-1009 q-60 0 -72 80q0 28 182 254l740 956h-846q-76 15 -76 75q16 72 64 72z" />
<glyph unicode="&#x17e;" horiz-adv-x="978" d="M349 1458h12q45 0 128 -120h4q83 120 128 120h12q72 -15 72 -72v-12q0 -35 -96 -140q-60 -88 -104 -88h-28q-47 0 -132 124q-68 68 -68 104v12q15 72 72 72zM106 1012l37 -4h639l34 4q66 -20 66 -63v-22q0 -23 -85 -115l-532 -668h551q66 -13 66 -66v-12q0 -54 -70 -66 h-702q-59 0 -70 78q0 29 151 203l466 587h-495l-59 -4q-63 22 -63 74q12 70 66 70v4z" />
<glyph unicode="&#x17f;" horiz-adv-x="616" d="M385 1437h91q52 0 64 -80q0 -51 -76 -68h-57q-138 0 -182 -152l-3 -79v-53v-145v-750l3 -42q0 -51 -75 -68q-52 0 -76 64l4 46v750l-4 145v68q0 254 223 348z" />
<glyph unicode="&#x192;" horiz-adv-x="973" d="M704 1424h96q56 0 68 -84q0 -54 -80 -72h-60q-146 0 -192 -160l-4 -84v-56h172l64 4q51 0 68 -76v-12q0 -50 -72 -68h-232v-760l4 -96q-15 -106 -80 -192q-118 -124 -256 -124h-84q-59 0 -72 76q12 80 76 80h52q136 0 192 120q16 41 16 136v760h-208q-56 0 -68 84 q0 40 64 72l80 -4h128v72q0 269 236 368z" />
<glyph unicode="&#x1fa;" horiz-adv-x="1266" d="M545 1467q11 -61 62 -61q62 10 62 58v10q-9 55 -55 55h-10q-50 0 -59 -62zM603 1096l-159 -410h325v3l-162 407h-4zM673 1322q19 -32 32 -85q457 -1135 461 -1162v-10q0 -54 -72 -65h-4q-66 0 -94 122l-170 422h-442l-208 -522q-30 -22 -53 -22h-7q-72 12 -72 69v4 l128 331q319 791 363 918q-45 24 -75 80q-16 36 -16 68q0 86 78 133q-20 15 -29 55v6q0 30 102 145q34 47 66 47q66 -15 66 -63v-6q0 -28 -73 -109q-19 -29 -37 -48q104 -1 150 -127l3 -33v-9q0 -91 -97 -139z" />
<glyph unicode="&#x1fb;" horiz-adv-x="1171" d="M638 1798q73 -17 73 -70v-7q0 -31 -81 -121q-60 -92 -113 -92h-4q-47 0 -62 70v7q0 33 113 161q38 52 74 52zM557 1447q105 0 165 -110q18 -39 18 -77q0 -123 -143 -175l-37 -4h-14q-118 0 -169 143l-4 36v11q0 124 151 173zM487 1268v-15q17 -58 59 -58h14q56 0 66 69 q-12 70 -69 70q-70 -12 -70 -66zM542 1004q285 0 451 -278q51 -114 51 -235v-425q0 -54 -70 -66h-3q-48 0 -70 55v4l4 91v4q-162 -154 -348 -154h-30q-255 0 -425 256q-62 124 -62 250q0 280 275 443q117 55 227 55zM183 509v-11q0 -218 220 -329q69 -26 124 -26h30 q182 0 300 183q44 86 44 165v15q0 210 -209 322q-72 33 -150 33h-4q-221 0 -333 -231q-22 -71 -22 -121z" />
<glyph unicode="&#x1fc;" horiz-adv-x="1615" d="M1029 1830q73 -17 73 -70v-7q0 -31 -81 -121q-60 -92 -113 -92h-4q-47 0 -62 70v7q0 33 113 161q38 52 74 52zM837 1435h595q46 0 64 -72q-15 -75 -76 -75h-500v-568h390q69 -15 69 -61v-19q0 -56 -72 -68h-387v-424h504q58 0 72 -76q0 -56 -76 -72h-575q-58 0 -72 76 v496h-277q-20 -24 -166 -296l-144 -253q-27 -23 -53 -23h-4q-60 0 -72 80q0 22 242 446l493 886q28 23 45 23zM576 720h197v352z" />
<glyph unicode="&#x1fd;" horiz-adv-x="2042" d="M1082 1363q73 -17 73 -70v-7q0 -31 -81 -121q-60 -92 -113 -92h-4q-47 0 -62 70v7q0 33 113 161q38 52 74 52zM544 1004q263 0 431 -245h4q90 155 277 219q84 22 150 22q279 0 442 -270q54 -113 54 -212v-47q-12 -69 -69 -69h-767v-4q37 -121 139 -190q95 -62 197 -62 q88 0 197 55l19 3q73 -17 73 -73q0 -93 -241 -127l-52 -4q-192 0 -354 150v-81q0 -62 -76 -69h-4q-38 0 -62 58l4 88v11q-161 -153 -347 -153h-29q-255 0 -424 255q-62 123 -62 248q0 280 274 442q117 55 226 55zM186 511v-11q0 -217 219 -328q70 -26 125 -26h29 q181 0 299 183q44 85 44 164v14q0 210 -208 322q-72 33 -150 33h-3q-221 0 -333 -230q-22 -72 -22 -121zM1055 544h698v4q0 96 -117 219q-112 87 -234 87q-187 0 -303 -175q-44 -82 -44 -135z" />
<glyph unicode="&#x1fe;" horiz-adv-x="1655" d="M876 1825q73 -17 73 -70v-7q0 -31 -81 -121q-60 -92 -113 -92h-4q-47 0 -62 70v7q0 33 113 161q38 52 74 52zM775 1426q267 0 492 -198q149 153 180 153h8q71 -18 71 -71v-7q0 -42 -105 -124l-60 -60q127 -195 127 -410q0 -356 -322 -593q-184 -116 -383 -116h-15 q-232 0 -436 154h-3q-154 -150 -173 -150l-19 -4h-4q-59 0 -71 79q0 36 124 139q4 11 41 37q-165 210 -165 462q0 340 300 574q196 135 413 135zM208 706q0 -195 128 -349l822 773v4q-179 146 -383 146q-281 0 -465 -244q-102 -147 -102 -330zM437 255q156 -109 331 -109h18 q267 0 451 237q105 151 105 330q0 152 -86 304h-4z" />
<glyph unicode="&#x1ff;" horiz-adv-x="1188" d="M650 1412q73 -17 73 -70v-7q0 -31 -81 -121q-60 -92 -113 -92h-4q-47 0 -62 70v7q0 33 113 161q38 52 74 52zM961 1012h4q58 0 69 -77q0 -29 -102 -127q113 -138 113 -309q0 -281 -266 -441q-114 -58 -222 -58h-29q-137 0 -284 102q-81 -98 -120 -98h-14q-51 0 -62 76 q0 30 98 124q-98 135 -98 295q0 242 215 407q137 91 284 91q146 0 283 -91q86 106 131 106zM194 509v-18q0 -90 50 -182h4l477 492q-72 50 -182 50q-227 0 -331 -236q-18 -58 -18 -106zM830 706l-484 -502q94 -58 190 -58h21q207 0 317 214q25 68 25 131v18q0 108 -69 197z " />
<glyph unicode="&#x2c6;" horiz-adv-x="1024" d="M513 1431h28q48 0 136 -128q64 -64 64 -100v-12q-15 -72 -72 -72h-12q-45 0 -128 120h-4q-83 -120 -128 -120h-12q-72 15 -72 72v12q0 38 120 168q38 60 80 60z" />
<glyph unicode="&#x2c7;" horiz-adv-x="1024" d="M358 1430h12q45 0 128 -120h4q83 120 128 120h12q72 -15 72 -72v-12q0 -35 -96 -140q-60 -88 -104 -88h-28q-47 0 -132 124q-68 68 -68 104v12q15 72 72 72z" />
<glyph unicode="&#x2c9;" horiz-adv-x="1059" d="M309 1322l40 -4h400l36 4q56 0 76 -80q0 -55 -68 -80l-60 4h-364l-64 -4q-68 24 -68 80q13 76 72 76v4z" />
<glyph unicode="&#x2d8;" horiz-adv-x="1024" d="M301 1365h12q52 0 84 -84q52 -60 120 -60q102 0 148 112q30 32 60 32h8q76 -13 76 -76v-4q0 -82 -156 -192q-75 -28 -132 -28h-8q-192 0 -284 204v24q15 72 72 72z" />
<glyph unicode="&#x2d9;" horiz-adv-x="1024" d="M539 1362q90 0 116 -107v-21q0 -64 -82 -101q-12 -6 -34 -6h-3q-96 0 -116 119q0 76 86 110q12 6 33 6z" />
<glyph unicode="&#x2da;" horiz-adv-x="1024" d="M517 1447q105 0 165 -110q18 -39 18 -77q0 -123 -143 -175l-37 -4h-14q-118 0 -169 143l-4 36v11q0 124 151 173zM447 1268v-15q17 -58 59 -58h14q56 0 66 69q-12 70 -69 70q-70 -12 -70 -66z" />
<glyph unicode="&#x2db;" horiz-adv-x="1024" d="M500 47h7q54 0 67 -70v-103q0 -58 -81 -70q-25 -18 -25 -46q0 -53 67 -53h102l15 4q70 -16 70 -67v-7q0 -46 -56 -67l-74 4h-36l-56 -4q-71 0 -144 92q-25 48 -25 84v28q0 96 106 155v4l-4 56q21 60 67 60z" />
<glyph unicode="&#x2dc;" horiz-adv-x="1024" d="M452 1695q79 0 189 -71l33 -4l76 23h7q72 -12 72 -72v-4q0 -70 -124 -90l-38 -4q-79 0 -181 72l-30 4l-83 -23q-75 14 -75 71v8q0 72 139 87z" />
<glyph unicode="&#x2dd;" horiz-adv-x="1024" d="M440 1429h4q76 -13 76 -72v-20q0 -21 -168 -240q-18 -20 -36 -20h-8q-33 0 -44 44v8q105 263 128 284q27 16 48 16zM688 1417q80 -16 80 -80q0 -32 -108 -168q-67 -104 -96 -104h-12q-33 0 -44 44q0 17 112 272q35 36 68 36z" />
<glyph unicode="&#x384;" horiz-adv-x="392" d="M281 1425q73 -17 73 -70v-7q0 -31 -81 -121q-60 -92 -113 -92h-4q-47 0 -62 70v7q0 33 113 161q38 52 74 52z" />
<glyph unicode="&#x385;" horiz-adv-x="797" d="M474 1390q73 -17 73 -70v-7q0 -31 -81 -121q-60 -92 -113 -92h-4q-47 0 -62 70v7q0 33 113 161q38 52 74 52zM182 1309q80 -19 80 -80q-16 -80 -80 -80q-80 16 -80 80q19 80 80 80zM634 1309q80 -19 80 -80q-16 -80 -80 -80q-80 16 -80 80q19 80 80 80z" />
<glyph unicode="&#x386;" horiz-adv-x="1254" d="M369 1521q73 -17 73 -70v-7q0 -31 -81 -121q-60 -92 -113 -92h-4q-47 0 -62 70v7q0 33 113 161q38 52 74 52zM591 1428q69 0 102 -139q454 -1182 458 -1210v-11q0 -56 -71 -68h-4q-66 0 -94 128l-169 439h-440l-206 -544q-30 -23 -53 -23h-8q-71 13 -71 71v4l128 346 q335 873 364 969q34 38 64 38zM591 1142l-158 -428h323v4l-161 424h-4z" />
<glyph unicode="&#x387;" horiz-adv-x="405" d="M204 1002q90 0 116 -107v-21q0 -64 -82 -101q-12 -6 -34 -6h-3q-96 0 -116 119q0 76 86 110q12 6 33 6z" />
<glyph unicode="&#x388;" horiz-adv-x="1347" d="M393 1436l19 -4h740l15 4q65 0 76 -83q-15 -68 -83 -68h-692v-510h454l53 3q51 0 68 -75q0 -49 -61 -76l-75 4h-439v-484h711q52 0 64 -79q-20 -68 -68 -68h-782q-72 13 -72 72v1288q11 72 72 72v4zM219 1460q73 -17 73 -70v-7q0 -31 -81 -121q-60 -92 -113 -92h-4 q-47 0 -62 70v7q0 33 113 161q38 52 74 52z" />
<glyph unicode="&#x389;" horiz-adv-x="1466" d="M228 1425q73 -17 73 -70v-7q0 -31 -81 -121q-60 -92 -113 -92h-4q-47 0 -62 70v7q0 33 113 161q38 52 74 52zM390 1437h15q68 -14 68 -60v-598h712v587q12 71 68 71h11q68 -13 68 -68v-1301q0 -49 -72 -64h-4q-71 13 -71 72v560h-712v-564q0 -56 -71 -68h-4q-58 0 -72 76 v1274q9 83 64 83z" />
<glyph unicode="&#x38a;" horiz-adv-x="748" d="M210 1452q73 -17 73 -70v-7q0 -31 -81 -121q-60 -92 -113 -92h-4q-47 0 -62 70v7q0 33 113 161q38 52 74 52zM392 1448l19 -3h142l15 3q76 -16 76 -76q-13 -76 -72 -76h-16v-1147h23q50 0 65 -73v-4q-13 -72 -72 -72h-180q-72 13 -72 72v4q15 73 65 73h23v1147h-16 q-63 0 -72 80v4q0 47 72 68z" />
<glyph unicode="&#x38c;" horiz-adv-x="1734" d="M219 1448q73 -17 73 -70v-7q0 -31 -81 -121q-60 -92 -113 -92h-4q-47 0 -62 70v7q0 33 113 161q38 52 74 52zM912 1435q363 0 607 -336q110 -191 110 -385q0 -359 -325 -597q-184 -117 -385 -117h-15q-370 0 -604 344q-106 174 -106 377q0 343 302 578q196 136 416 136z M341 710q0 -274 242 -461q151 -102 321 -102h19q268 0 453 238q106 153 106 333q0 309 -283 490q-140 80 -287 80q-283 0 -469 -246q-102 -147 -102 -332z" />
<glyph unicode="&#x38e;" horiz-adv-x="1457" d="M237 1443q73 -17 73 -70v-7q0 -31 -81 -121q-60 -92 -113 -92h-4q-47 0 -62 70v7q0 33 113 161q38 52 74 52zM439 1433h16q49 0 79 -72l345 -516h4q372 562 387 573q20 15 34 15h23q46 0 64 -72q0 -32 -129 -209l-307 -458v-611q-9 -83 -64 -83h-16q-49 0 -68 61v621 q0 14 -159 251l-269 405l-4 23q16 72 64 72z" />
<glyph unicode="&#x38f;" horiz-adv-x="1646" d="M781 1437q367 0 613 -340q111 -198 111 -373q0 -339 -263 -568h-4v-4h164q73 -14 73 -64v-16q-15 -68 -69 -68h-492q-60 0 -72 80q19 68 69 68q106 0 289 157q160 187 160 407q0 272 -244 469q-162 103 -320 103h-30q-273 0 -461 -248q-103 -159 -103 -324 q0 -331 305 -514q52 -32 175 -61q46 -19 46 -72q-20 -69 -73 -69h-484q-76 15 -76 76q17 73 73 73h160v3q-93 70 -164 180q-107 186 -107 392q0 336 309 579q199 134 415 134zM204 1439q73 -17 73 -70v-7q0 -31 -81 -121q-60 -92 -113 -92h-4q-47 0 -62 70v7q0 33 113 161 q38 52 74 52z" />
<glyph unicode="&#x390;" horiz-adv-x="740" d="M417 1777q73 -17 73 -70v-7q0 -31 -81 -121q-60 -92 -113 -92h-4q-47 0 -62 70v7q0 33 113 161q38 52 74 52zM125 1696q80 -19 80 -80q-16 -80 -80 -80q-80 16 -80 80q19 80 80 80zM577 1696q80 -19 80 -80q-16 -80 -80 -80q-80 16 -80 80q19 80 80 80zM269 1448l19 -3 h142l15 3q76 -16 76 -76q-13 -76 -72 -76h-16v-1147h23q50 0 65 -73v-4q-13 -72 -72 -72h-180q-72 13 -72 72v4q15 73 65 73h23v1147h-16q-63 0 -72 80v4q0 47 72 68z" />
<glyph unicode="&#x391;" horiz-adv-x="1246" d="M591 1428q69 0 102 -139q454 -1182 458 -1210v-11q0 -56 -71 -68h-4q-66 0 -94 128l-169 439h-440l-206 -544q-30 -23 -53 -23h-8q-71 13 -71 71v4l128 346q335 873 364 969q34 38 64 38zM591 1142l-158 -428h323v4l-161 424h-4z" />
<glyph unicode="&#x392;" horiz-adv-x="991" d="M125 1432l18 -3h230l15 3q172 0 294 -162q61 -90 61 -196v-11q0 -129 -102 -245q245 -135 245 -392q0 -258 -268 -396q-86 -30 -154 -30h-339q-72 13 -72 72v1285q11 72 72 72v3zM200 1282v-423h139q185 0 238 132q15 38 15 76v11q0 146 -170 200l-79 4h-143zM200 712 v-565h196q216 0 290 124q49 69 49 155v7q0 203 -222 272l-106 7h-207z" />
<glyph unicode="&#x393;" horiz-adv-x="1030" d="M121 1433h730q68 -14 68 -60v-19q0 -56 -72 -68h-643v-1218q0 -56 -71 -68h-4q-58 0 -72 76v1274q9 83 64 83z" />
<glyph unicode="&#x394;" horiz-adv-x="1242" d="M595 1432h12q59 0 87 -117q460 -1200 468 -1239v-4q0 -47 -57 -72l-83 4h-842l-80 -4q-60 22 -60 79l499 1323q28 30 56 30zM599 1148l-378 -997h760q-374 995 -382 997z" />
<glyph unicode="&#x395;" horiz-adv-x="1109" d="M129 1436l19 -4h740l15 4q65 0 76 -83q-15 -68 -83 -68h-692v-510h454l53 3q51 0 68 -75q0 -49 -61 -76l-75 4h-439v-484h711q52 0 64 -79q-20 -68 -68 -68h-782q-72 13 -72 72v1288q11 72 72 72v4z" />
<glyph unicode="&#x396;" horiz-adv-x="1342" d="M147 1437h1021q55 0 68 -72v-3q0 -29 -83 -126l-842 -1088h853q72 -11 72 -72v-4q-13 -72 -72 -72h-1009q-60 0 -72 80q0 28 182 254l740 956h-846q-76 15 -76 75q16 72 64 72z" />
<glyph unicode="&#x397;" horiz-adv-x="1223" d="M139 1437h15q68 -14 68 -60v-598h712v587q12 71 68 71h11q68 -13 68 -68v-1301q0 -49 -72 -64h-4q-71 13 -71 72v560h-712v-564q0 -56 -71 -68h-4q-58 0 -72 76v1274q9 83 64 83z" />
<glyph unicode="&#x398;" horiz-adv-x="1611" d="M786 1431q362 0 606 -335q109 -190 109 -384q0 -358 -324 -595q-184 -117 -384 -117h-15q-368 0 -603 343q-105 174 -105 376q0 342 301 576q196 136 415 136zM217 708q0 -274 241 -459q150 -102 320 -102h19q267 0 452 237q105 152 105 332q0 308 -282 489 q-139 79 -286 79q-283 0 -467 -245q-102 -147 -102 -331zM428 787h715q72 -13 72 -71v-4q-13 -72 -72 -72h-719q-68 15 -68 68v15q0 49 72 64z" />
<glyph unicode="&#x399;" horiz-adv-x="581" d="M181 1448l19 -3h142l15 3q76 -16 76 -76q-13 -76 -72 -76h-16v-1147h23q50 0 65 -73v-4q-13 -72 -72 -72h-180q-72 13 -72 72v4q15 73 65 73h23v1147h-16q-63 0 -72 80v4q0 47 72 68z" />
<glyph unicode="&#x39a;" horiz-adv-x="1118" d="M118 1434h3q72 -12 72 -68v-653q700 699 706 699l27 4h7q68 -13 68 -68v-12q0 -37 -79 -102l-465 -468l533 -660l3 -23v-11q0 -56 -71 -68h-4q-45 0 -125 117l-445 540l-155 -159v-434q0 -56 -72 -68h-3q-58 0 -72 75v1284q14 75 72 75z" />
<glyph unicode="&#x39b;" horiz-adv-x="1232" d="M593 1438h11q60 0 87 -117q463 -1205 471 -1245v-4q-13 -72 -72 -72h-4q-52 0 -76 68q-406 1086 -413 1086l-425 -1124q-31 -30 -61 -30h-4q-60 0 -72 80l501 1328q28 30 57 30z" />
<glyph unicode="&#x39c;" horiz-adv-x="1479" d="M124 1432h15q59 0 83 -98l480 -1073q19 22 336 748l186 400q22 23 49 23h15q55 0 64 -83v-1273q-14 -76 -72 -76h-4q-71 12 -71 68v941h-4q-423 -960 -438 -983q-29 -26 -57 -26q-66 0 -117 159l-378 846h-4v-937q0 -56 -71 -68h-4q-58 0 -72 76v1273q9 83 64 83z" />
<glyph unicode="&#x39d;" horiz-adv-x="1329" d="M130 1431h15q48 0 83 -75q56 -63 821 -1051q8 0 8 -11l3 -4h4v1073q13 68 68 68h11q56 0 68 -71v-1285q0 -62 -79 -75q-43 0 -132 132l-787 1005v-1065q0 -56 -72 -68h-3q-58 0 -72 75v1269q9 83 64 83z" />
<glyph unicode="&#x39e;" horiz-adv-x="1158" d="M108 1432h876q68 -13 68 -68v-15q0 -55 -83 -64h-849q-76 15 -76 75q16 72 64 72zM230 803h636q72 -12 72 -72v-3q-13 -72 -72 -72h-636q-58 0 -72 75q18 72 72 72zM116 148h864q72 -13 72 -68v-12q-13 -68 -68 -68h-868q-58 0 -72 76q18 72 72 72z" />
<glyph unicode="&#x39f;" horiz-adv-x="1620" d="M793 1435q363 0 607 -336q110 -191 110 -385q0 -359 -325 -597q-184 -117 -385 -117h-15q-370 0 -604 344q-106 174 -106 377q0 343 302 578q196 136 416 136zM222 710q0 -274 242 -461q151 -102 321 -102h19q268 0 453 238q106 153 106 333q0 309 -283 490 q-140 80 -287 80q-283 0 -469 -246q-102 -147 -102 -332z" />
<glyph unicode="&#x3a0;" horiz-adv-x="1184" d="M130 1431h872q68 -13 68 -68v-1299q0 -49 -72 -64h-3q-72 13 -72 72v1211h-710v-1215q0 -56 -72 -68h-3q-58 0 -72 75v1272q9 84 64 84z" />
<glyph unicode="&#x3a1;" horiz-adv-x="946" d="M121 1438h346q202 0 345 -209q53 -107 53 -193v-27q0 -189 -171 -326q-116 -80 -227 -80h-262v-535q0 -55 -72 -68h-4q-58 0 -72 76v1278q9 84 64 84zM205 1290v-539h235q190 0 262 182q15 38 15 91q0 167 -171 247q-42 19 -98 19h-243z" />
<glyph unicode="&#x3a3;" horiz-adv-x="1124" d="M131 1315h804q62 -12 62 -63v-14q0 -50 -76 -59h-630q411 -470 432 -501l3 -20v-11q0 -33 -77 -104l-347 -404v-3h629q66 -12 66 -63v-10q-12 -63 -62 -63h-797q-53 0 -66 70q0 29 77 97l420 487l-487 560q-10 18 -10 35q15 66 59 66z" />
<glyph unicode="&#x3a4;" horiz-adv-x="1262" d="M129 1436h933q68 -13 68 -68v-15q0 -55 -83 -64h-376v-1221q0 -56 -72 -68h-3q-58 0 -72 76v1213h-383q-76 15 -76 75q16 72 64 72z" />
<glyph unicode="&#x3a5;" horiz-adv-x="1237" d="M142 1433h16q49 0 79 -72l345 -516h4q372 562 387 573q20 15 34 15h23q46 0 64 -72q0 -32 -129 -209l-307 -458v-611q-9 -83 -64 -83h-16q-49 0 -68 61v621q0 14 -159 251l-269 405l-4 23q16 72 64 72z" />
<glyph unicode="&#x3a6;" horiz-adv-x="1629" d="M773 1439h11q69 -13 69 -68v-76q184 -14 376 -122q273 -192 273 -455q0 -247 -251 -433q-114 -87 -338 -133q-60 -3 -60 -11v-76q0 -50 -72 -65h-4q-72 13 -72 72v76h-4q-139 0 -346 106q-296 189 -296 468q0 264 277 451q116 85 369 122v72q12 72 68 72zM207 722 q0 -262 315 -411q123 -41 183 -41v903q-186 -21 -335 -133q-163 -146 -163 -318zM853 1173v-903h3q147 0 338 133q156 144 156 300v34q0 209 -247 360q-87 52 -250 76z" />
<glyph unicode="&#x3a7;" horiz-adv-x="1338" d="M131 1437h16q44 0 72 -56l425 -543l458 588q20 11 38 11h12q55 0 68 -72v-3q0 -33 -102 -152l-383 -493l477 -611l8 -30v-4q-13 -72 -72 -72h-4q-49 0 -83 72l-417 531l-459 -588q-20 -15 -42 -15h-4q-72 13 -72 72v11q0 25 163 224l322 417q-470 596 -481 619l-4 22 q16 72 64 72z" />
<glyph unicode="&#x3a8;" horiz-adv-x="1342" d="M123 1437h16q68 -14 68 -61v-314q11 -134 42 -205q86 -167 242 -220l68 -19v736q10 83 65 83h15q68 -14 68 -61v-758h4q103 6 243 133q110 131 110 333v285q13 68 68 68h11q56 0 69 -72v-334q0 -325 -323 -515q-138 -53 -182 -53v-395q0 -55 -72 -68h-3q-58 0 -73 76v387 q-87 7 -231 83q-269 187 -269 508v300q9 83 64 83z" />
<glyph unicode="&#x3a9;" horiz-adv-x="1658" d="M781 1437q367 0 613 -340q111 -198 111 -373q0 -339 -263 -568h-4v-4h164q73 -14 73 -64v-16q-15 -68 -69 -68h-492q-60 0 -72 80q19 68 69 68q106 0 289 157q160 187 160 407q0 272 -244 469q-162 103 -320 103h-30q-273 0 -461 -248q-103 -159 -103 -324 q0 -331 305 -514q52 -32 175 -61q46 -19 46 -72q-20 -69 -73 -69h-484q-76 15 -76 76q17 73 73 73h160v3q-93 70 -164 180q-107 186 -107 392q0 336 309 579q199 134 415 134z" />
<glyph unicode="&#x3aa;" horiz-adv-x="648" d="M144 1683h15q68 -14 68 -60v-19q0 -55 -72 -68q-75 15 -75 76q16 71 64 71zM434 1683h11q68 -15 68 -64v-11q0 -60 -75 -72q-72 14 -72 72v11q0 49 68 64zM212 1431l19 -4h139l15 4q75 -16 75 -76q-13 -75 -71 -75h-15v-1133h22q50 0 64 -72v-3q-12 -72 -71 -72h-177 q-72 13 -72 72v3q15 72 64 72h23v1133h-15q-63 0 -72 79v4q0 46 72 68z" />
<glyph unicode="&#x3ab;" horiz-adv-x="1216" d="M121 1433h16q49 0 79 -72l345 -516h4q372 562 387 573q20 15 34 15h23q46 0 64 -72q0 -32 -129 -209l-307 -458v-611q-9 -83 -64 -83h-16q-49 0 -68 61v621q0 14 -159 251l-269 405l-4 23q16 72 64 72zM412 1687h15q68 -14 68 -60v-19q0 -55 -72 -68q-75 15 -75 76 q16 71 64 71zM702 1687h11q68 -15 68 -64v-11q0 -60 -75 -72q-72 14 -72 72v11q0 49 68 64z" />
<glyph unicode="&#x3ac;" horiz-adv-x="1414" d="M574 1015q256 0 426 -241l30 -59q15 24 104 263q27 37 63 37q74 -14 74 -74q-4 -23 -159 -433q159 -415 159 -434q-17 -74 -74 -74q-68 0 -108 159l-51 137h-8q-49 -119 -167 -200q-125 -96 -296 -96h-15q-205 0 -382 193q-107 152 -107 315q0 274 263 444q130 63 248 63 zM208 508q0 -219 218 -334q78 -29 152 -29q209 0 326 218l52 145q-64 221 -174 292q-95 67 -200 67h-19q-196 0 -311 -189q-44 -90 -44 -170zM673 1420q73 -17 73 -70v-7q0 -31 -81 -121q-60 -92 -113 -92h-4q-47 0 -62 70v7q0 33 113 161q38 52 74 52z" />
<glyph unicode="&#x3ad;" horiz-adv-x="900" d="M372 1017h38q161 0 317 -164q26 -27 26 -54v-8q0 -59 -86 -72q-47 0 -111 84q-96 65 -159 65h-21q-93 0 -142 -111v-50q0 -71 108 -114q16 -8 47 -8h68q82 -13 82 -73v-7q0 -69 -112 -69q-126 0 -171 -92l-13 -53q27 -142 159 -142h4q108 0 223 134q29 15 51 15 q74 0 86 -80v-4q-29 -87 -180 -168q-90 -46 -180 -46h-17q-185 0 -292 184q-21 62 -21 110q0 115 103 211q-116 99 -116 225q0 190 240 279zM513 1416q73 -17 73 -70v-7q0 -31 -81 -121q-60 -92 -113 -92h-4q-47 0 -62 70v7q0 33 113 161q38 52 74 52z" />
<glyph unicode="&#x3ae;" horiz-adv-x="1191" d="M132 1000q70 -18 70 -62v-81q160 143 349 143q206 0 367 -172q117 -145 117 -305v-881q0 -51 -77 -62q-66 19 -66 70v825q0 276 -239 364q-57 14 -102 14h-11q-200 0 -309 -205q-29 -64 -29 -202v-385q0 -54 -70 -66h-3q-56 0 -70 73v848q8 84 73 84zM627 1399 q73 -17 73 -70v-7q0 -31 -81 -121q-60 -92 -113 -92h-4q-47 0 -62 70v7q0 33 113 161q38 52 74 52z" />
<glyph unicode="&#x3af;" horiz-adv-x="467" d="M203 1008q70 -18 70 -63v-879q0 -54 -70 -66h-4q-56 0 -70 74v849q9 85 74 85zM277 1391q73 -17 73 -70v-7q0 -31 -81 -121q-60 -92 -113 -92h-4q-47 0 -62 70v7q0 33 113 161q38 52 74 52z" />
<glyph unicode="&#x3b0;" horiz-adv-x="1203" d="M157 1004q70 -18 70 -62v-392q0 -252 143 -337q90 -70 201 -70q214 0 323 220q22 71 22 143v425q14 73 73 73q70 -16 70 -70v-465q0 -218 -209 -381q-132 -88 -268 -88h-25q-227 0 -396 224q-77 120 -77 296v400q8 84 73 84zM638 1390q73 -17 73 -70v-7q0 -31 -81 -121 q-60 -92 -113 -92h-4q-47 0 -62 70v7q0 33 113 161q38 52 74 52zM346 1309q80 -19 80 -80q-16 -80 -80 -80q-80 16 -80 80q19 80 80 80zM798 1309q80 -19 80 -80q-16 -80 -80 -80q-80 16 -80 80q19 80 80 80z" />
<glyph unicode="&#x3b1;" horiz-adv-x="1414" d="M587 1015q256 0 426 -241l30 -59q15 24 104 263q27 37 63 37q74 -14 74 -74q-4 -23 -159 -433q159 -415 159 -434q-17 -74 -74 -74q-68 0 -108 159l-51 137h-8q-49 -119 -167 -200q-125 -96 -296 -96h-15q-205 0 -382 193q-107 152 -107 315q0 274 263 444q130 63 248 63 zM221 508q0 -219 218 -334q78 -29 152 -29q209 0 326 218l52 145q-64 221 -174 292q-95 67 -200 67h-19q-196 0 -311 -189q-44 -90 -44 -170z" />
<glyph unicode="&#x3b2;" horiz-adv-x="999" d="M451 1434h4q236 0 357 -238q27 -68 27 -137v-15q0 -157 -138 -287v-4q191 -126 191 -345q0 -230 -237 -367q-99 -38 -181 -38q-127 0 -256 91v-441q-2 -75 -70.5 -77.5t-79.5 64.5v79v629v132v591q0 192 207 322q90 41 176 41zM218 999v-598q0 -118 111 -201 q65 -45 149 -45q187 0 253 193l8 53v15q0 183 -203 250l-54 3h-130q-73 12 -73 72v16q0 47 69 64h65q197 0 257 144q15 47 15 79v19q0 155 -184 216l-50 4q-166 0 -226 -178z" />
<glyph unicode="&#x3b3;" horiz-adv-x="1057" d="M168 1008q64 0 104 -142l243 -601h7q280 705 295 721q34 21 53 22q74 -15 74 -75q0 -19 -347 -870l-7 -30v-399q0 -59 -75 -71q-71 14 -71 71v411q0 22 -347 862l-4 26q15 75 75 75z" />
<glyph unicode="&#x3b4;" horiz-adv-x="1233" d="M173 1435l37 -3h707q75 -15 75 -72v-8q-13 -68 -68 -68v-3l-26 3h-491l513 -377q178 -171 178 -389q0 -291 -276 -458q-119 -60 -230 -60h-30q-209 0 -389 196q-110 156 -110 322q0 279 264 449q124 60 174 60l-378 284q-18 26 -18 49q12 72 68 72v3zM214 529v-19 q0 -207 200 -321q73 -38 155 -38h23q215 0 328 223q27 70 27 136v19q0 172 -159 291q-93 64 -211 64q-236 0 -344 -246q-19 -60 -19 -109z" />
<glyph unicode="&#x3b5;" horiz-adv-x="896" d="M372 1017h38q161 0 317 -164q26 -27 26 -54v-8q0 -59 -86 -72q-47 0 -111 84q-96 65 -159 65h-21q-93 0 -142 -111v-50q0 -71 108 -114q16 -8 47 -8h68q82 -13 82 -73v-7q0 -69 -112 -69q-126 0 -171 -92l-13 -53q27 -142 159 -142h4q108 0 223 134q29 15 51 15 q74 0 86 -80v-4q-29 -87 -180 -168q-90 -46 -180 -46h-17q-185 0 -292 184q-21 62 -21 110q0 115 103 211q-116 99 -116 225q0 190 240 279z" />
<glyph unicode="&#x3b6;" horiz-adv-x="1052" d="M274 1435h585q69 -14 69 -60v-19q0 -44 -72 -80q-441 -391 -491 -445q-91 -120 -91 -266q0 -235 221 -368q90 -54 243 -54q126 -31 182 -106q61 -82 61 -175v-4q0 -201 -224 -277h-8q-72 15 -72 65v15q0 55 91 80q69 45 69 121q0 86 -88 126l-38 11l-30 -4 q-236 0 -430 213q-125 170 -125 338v42q0 264 274 479l247 220h-365q-76 14 -76 72v4q12 72 68 72z" />
<glyph unicode="&#x3b7;" horiz-adv-x="1178" d="M132 1000q70 -18 70 -62v-81q160 143 349 143q206 0 367 -172q117 -145 117 -305v-881q0 -51 -77 -62q-66 19 -66 70v825q0 276 -239 364q-57 14 -102 14h-11q-200 0 -309 -205q-29 -64 -29 -202v-385q0 -54 -70 -66h-3q-56 0 -70 73v848q8 84 73 84z" />
<glyph unicode="&#x3b8;" horiz-adv-x="1158" d="M558 1430q246 0 376 -263q72 -220 72 -407v-86q0 -230 -94 -463q-137 -211 -346 -211h-12q-227 0 -357 241q-83 212 -83 470v12q0 274 98 496q140 211 346 211zM249 790h622q0 163 -80 362q-95 135 -229 135q-156 0 -241 -158q-62 -169 -64 -282zM249 644q4 -147 72 -350 q91 -151 230 -151h11q240 0 290 343q19 106 19 158h-622z" />
<glyph unicode="&#x3b9;" horiz-adv-x="442" d="M191 1008q70 -18 70 -63v-879q0 -54 -70 -66h-4q-56 0 -70 74v849q9 85 74 85z" />
<glyph unicode="&#x3ba;" horiz-adv-x="1086" d="M140 1073l21 1q56 -14 60 -81v-365q535 354 624 405h19q60 0 72 -79q0 -46 -121 -110q-294 -199 -307 -201v-3l424 -538l4 -23v-3q-13 -72 -72 -72h-7q-44 0 -133 128l-341 424h-3l-159 -102v-386q0 -56 -72 -68h-4q-54 0 -72 68v927q12 65 67 78z" />
<glyph unicode="&#x3bb;" horiz-adv-x="1120" d="M413 1367l601 -1260q13 -100 -53 -104.5t-99 52.5l-331 689h-5q-315 -674 -348 -718q-40 -51 -102.5 -21.5t-14.5 138.5l236 498l140 295l-169 365q-31 103 44 121.5t101 -55.5z" />
<glyph unicode="&#x3bc;" horiz-adv-x="1199" d="M144 1004q70 -18 70 -62v-393q0 -252 143 -338q90 -69 202 -69q214 0 323 220q22 71 22 143v426q14 73 73 73q70 -16 70 -70v-873q0 -48 -70 -62h-3q-70 12 -70 69v70h-4q-153 -139 -330 -139h-26q-172 0 -330 143v-496q0 -46 -73 -62q-55 0 -70 77v1259q8 84 73 84z" />
<glyph unicode="&#x3bd;" horiz-adv-x="1220" d="M156 1029h7q59 0 102 -124l322 -661q350 742 372 766q26 19 49 19q75 -14 75 -71v-4q0 -19 -165 -361l-278 -570q-30 -23 -53 -23h-3q-64 0 -113 143q-363 742 -383 800v18q13 68 68 68z" />
<glyph unicode="&#x3be;" horiz-adv-x="951" d="M407 1433h182q73 -13 73 -72v-4q-13 -73 -73 -73h-167q-142 0 -183 -129l-8 -42q26 -175 176 -175h3l92 19q72 -18 72 -65v-23q0 -57 -114 -76q-210 -107 -210 -300v-27q0 -189 198 -293q34 -22 214 -38q209 -82 209 -274v-4q0 -201 -225 -278h-7q-73 15 -73 65v15 q0 56 92 80q68 46 68 122q-23 137 -137 137l-11 -4q-240 0 -407 232q-73 134 -73 251q0 194 152 354q-167 98 -167 286q0 184 194 289q59 27 130 27z" />
<glyph unicode="&#x3bf;" horiz-adv-x="1245" d="M586 1004q194 0 352 -147q150 -157 150 -355q0 -282 -267 -443q-116 -59 -224 -59h-29q-203 0 -378 191q-106 150 -106 311q0 244 216 410q139 92 286 92zM231 513v-18q0 -201 194 -312q70 -36 150 -36h22q208 0 319 216q25 68 25 132v18q0 167 -153 282q-91 62 -206 62 q-228 0 -333 -238q-18 -58 -18 -106z" />
<glyph unicode="&#x3c0;" horiz-adv-x="1165" d="M133 1009l37 -3h770l41 3q66 -22 66 -66v-11q0 -49 -63 -70l-59 4h-18v-800q0 -54 -70 -66h-4q-56 0 -70 74v792h-412v-803q0 -49 -70 -63h-4q-70 12 -70 70v796h-18l-59 -4q-63 22 -63 74q12 70 66 70v3z" />
<glyph unicode="&#x3c1;" horiz-adv-x="1187" d="M566 1020q196 0 355 -148q152 -160 152 -359q0 -285 -270 -448q-117 -59 -226 -59h-30q-176 0 -344 152v-511q0 -47 -74 -63q-53 0 -70 74v822q0 384 363 518q45 14 144 22zM207 524v-19q0 -202 196 -314q71 -37 152 -37h22q211 0 322 218q26 69 26 133v19 q0 169 -155 285q-92 63 -208 63q-230 0 -336 -241q-19 -59 -19 -107z" />
<glyph unicode="&#x3c2;" horiz-adv-x="997" d="M584 1018q172 0 172 -84v-20q-18 -64 -72 -64h-12l-84 12q-226 0 -332 -228q-16 -39 -24 -128q0 -223 236 -332q59 -15 200 -28q220 -86 220 -288v-4q0 -212 -236 -292h-8q-76 15 -76 68v16q0 59 96 84q72 48 72 128q0 100 -112 140l-24 4l-12 -4q-286 0 -452 276 q-56 111 -56 208v44q0 256 260 428q133 64 244 64z" />
<glyph unicode="&#x3c3;" horiz-adv-x="1355" d="M540 1006l80 -4h518l33 4q66 -20 66 -63v-22q0 -39 -59 -62l-62 4h-209q154 -164 154 -360q0 -254 -231 -422q-133 -81 -261 -81h-29q-214 0 -382 198q-103 143 -103 290v33q0 229 228 404q148 81 257 81zM198 503q0 -220 224 -334q73 -22 118 -22h33q178 0 293 176 q48 84 48 187q0 193 -191 309q-79 40 -172 40q-193 0 -309 -187q-44 -89 -44 -169z" />
<glyph unicode="&#x3c4;" horiz-adv-x="1187" d="M146 1012l37 -4h780l33 4q66 -19 66 -70v-8q0 -47 -59 -70l-62 4h-296v-794q-14 -74 -70 -74h-4q-70 12 -70 66v802h-299l-59 -4q-63 23 -63 74q12 70 66 70v4z" />
<glyph unicode="&#x3c5;" horiz-adv-x="1216" d="M157 1004q70 -18 70 -62v-392q0 -252 143 -337q90 -70 201 -70q214 0 323 220q22 71 22 143v425q14 73 73 73q70 -16 70 -70v-465q0 -218 -209 -381q-132 -88 -268 -88h-25q-227 0 -396 224q-77 120 -77 296v400q8 84 73 84z" />
<glyph unicode="&#x3c6;" horiz-adv-x="1213" d="M702 1011h30q146 0 289 -220q70 -127 70 -254q0 -307 -293 -478q-122 -50 -173 -50v-362q0 -64 -81 -77q-70 19 -70 69v374q-103 12 -239 104q-200 176 -200 424q0 247 227 424q23 15 43 15h11q70 -13 70 -69v-16q0 -34 -77 -84q-120 -127 -120 -255v-42q0 -193 200 -316 l85 -31v613q0 142 166 219zM625 757v-594h3q93 7 216 116q93 121 93 235v42q0 170 -178 297l-38 8q-67 0 -93 -70z" />
<glyph unicode="&#x3c7;" horiz-adv-x="1237" d="M187 1008q53 0 112 -119l297 -464h7q312 498 364 564q21 16 45 19q74 -15 74 -74q0 -34 -182 -301l-215 -342q0 -15 319 -505q78 -119 78 -145q-16 -74 -71 -74q-58 0 -115 119q-49 68 -297 464h-7q-336 -538 -364 -564q-19 -15 -48 -19q-56 0 -71 78v4q11 40 282 449 q25 51 119 186l-401 635v15q15 74 74 74z" />
<glyph unicode="&#x3c8;" horiz-adv-x="1376" d="M161 1019h4q72 -11 72 -73v-303q0 -259 131 -368q71 -80 203 -111l19 -4v771q9 84 65 84h16q69 -14 69 -61v-794h3q103 6 234 123q119 122 119 330v333q13 73 73 73h4q76 0 76 -111v-326q0 -352 -348 -537q-119 -42 -161 -42v-318q0 -56 -73 -69h-4q-59 0 -73 77v310 q-96 7 -249 92q-257 192 -257 506v334q13 84 77 84z" />
<glyph unicode="&#x3c9;" horiz-adv-x="1321" d="M302 1016h7q68 -12 68 -69v-4q0 -13 -83 -184q-86 -225 -86 -416v-29q0 -116 130 -162l39 -7q132 0 174 144l4 87v318l-4 40q22 65 65 65h11q60 0 68 -83v-373l4 -32l-4 -11q0 -91 120 -152l54 -7q124 0 170 137l3 36v29q0 268 -169 582v18q12 69 68 69h4q57 0 105 -123 q137 -285 137 -575q0 -193 -199 -292q-55 -22 -108 -22h-22q-129 0 -238 116q-96 -112 -232 -112h-14q-196 0 -293 209q-18 59 -18 101q0 351 188 676q24 26 51 26z" />
<glyph unicode="&#x3ca;" horiz-adv-x="589" d="M296 1008q70 -18 70 -63v-879q0 -54 -70 -66h-4q-56 0 -70 74v849q9 85 74 85zM138 1236h15q68 -14 68 -60v-19q0 -55 -72 -68q-75 15 -75 76q16 71 64 71zM428 1236h11q68 -15 68 -64v-11q0 -60 -75 -72q-72 14 -72 72v11q0 49 68 64z" />
<glyph unicode="&#x3cb;" horiz-adv-x="1208" d="M157 1004q70 -18 70 -62v-392q0 -252 143 -337q90 -70 201 -70q214 0 323 220q22 71 22 143v425q14 73 73 73q70 -16 70 -70v-465q0 -218 -209 -381q-132 -88 -268 -88h-25q-227 0 -396 224q-77 120 -77 296v400q8 84 73 84zM407 1271h15q68 -14 68 -60v-19 q0 -55 -72 -68q-75 15 -75 76q16 71 64 71zM697 1271h11q68 -15 68 -64v-11q0 -60 -75 -72q-72 14 -72 72v11q0 49 68 64z" />
<glyph unicode="&#x3cc;" horiz-adv-x="1229" d="M586 1004q194 0 352 -147q150 -157 150 -355q0 -282 -267 -443q-116 -59 -224 -59h-29q-203 0 -378 191q-106 150 -106 311q0 244 216 410q139 92 286 92zM231 513v-18q0 -201 194 -312q70 -36 150 -36h22q208 0 319 216q25 68 25 132v18q0 167 -153 282q-91 62 -206 62 q-228 0 -333 -238q-18 -58 -18 -106zM621 1387q73 -17 73 -70v-7q0 -31 -81 -121q-60 -92 -113 -92h-4q-47 0 -62 70v7q0 33 113 161q38 52 74 52z" />
<glyph unicode="&#x3cd;" horiz-adv-x="1178" d="M157 1004q70 -18 70 -62v-392q0 -252 143 -337q90 -70 201 -70q214 0 323 220q22 71 22 143v425q14 73 73 73q70 -16 70 -70v-465q0 -218 -209 -381q-132 -88 -268 -88h-25q-227 0 -396 224q-77 120 -77 296v400q8 84 73 84zM626 1413q73 -17 73 -70v-7q0 -31 -81 -121 q-60 -92 -113 -92h-4q-47 0 -62 70v7q0 33 113 161q38 52 74 52z" />
<glyph unicode="&#x3ce;" horiz-adv-x="1309" d="M302 1016h7q68 -12 68 -69v-4q0 -13 -83 -184q-86 -225 -86 -416v-29q0 -116 130 -162l39 -7q132 0 174 144l4 87v318l-4 40q22 65 65 65h11q60 0 68 -83v-373l4 -32l-4 -11q0 -91 120 -152l54 -7q124 0 170 137l3 36v29q0 268 -169 582v18q12 69 68 69h4q57 0 105 -123 q137 -285 137 -575q0 -193 -199 -292q-55 -22 -108 -22h-22q-129 0 -238 116q-96 -112 -232 -112h-14q-196 0 -293 209q-18 59 -18 101q0 351 188 676q24 26 51 26zM706 1400q73 -17 73 -70v-7q0 -31 -81 -121q-60 -92 -113 -92h-4q-47 0 -62 70v7q0 33 113 161q38 52 74 52 z" />
<glyph unicode="&#x2000;" horiz-adv-x="931" />
<glyph unicode="&#x2001;" horiz-adv-x="1863" />
<glyph unicode="&#x2002;" horiz-adv-x="931" />
<glyph unicode="&#x2003;" horiz-adv-x="1863" />
<glyph unicode="&#x2004;" horiz-adv-x="621" />
<glyph unicode="&#x2005;" horiz-adv-x="465" />
<glyph unicode="&#x2006;" horiz-adv-x="310" />
<glyph unicode="&#x2007;" horiz-adv-x="310" />
<glyph unicode="&#x2008;" horiz-adv-x="232" />
<glyph unicode="&#x2009;" horiz-adv-x="372" />
<glyph unicode="&#x200a;" horiz-adv-x="103" />
<glyph unicode="&#x2010;" horiz-adv-x="670" d="M144 648h400q59 0 76 -80q-18 -76 -76 -76h-400q-65 0 -76 84q20 72 76 72z" />
<glyph unicode="&#x2011;" horiz-adv-x="670" d="M144 648h400q59 0 76 -80q-18 -76 -76 -76h-400q-65 0 -76 84q20 72 76 72z" />
<glyph unicode="&#x2013;" horiz-adv-x="1108" d="M156 512l40 -4h720l36 4q59 0 76 -80q0 -52 -64 -80l-68 4h-680l-64 -4q-68 24 -68 80q13 76 72 76v4z" />
<glyph unicode="&#x2014;" horiz-adv-x="2048" d="M72 580l40 -4h1824l36 4q59 0 76 -80q0 -52 -64 -80l-68 4h-1784l-64 -4q-68 24 -68 80q13 76 72 76v4z" />
<glyph unicode="&#x2015;" horiz-adv-x="2007" d="M165 619l40 -4h1600l36 4q72 -20 72 -76v-8q0 -51 -64 -76l-68 4h-1556l-64 -4q-68 24 -68 80q13 76 72 76v4z" />
<glyph unicode="&#x2017;" horiz-adv-x="951" d="M71 -29h885q74 -13 74 -70v-12q-14 -70 -70 -70h-889q-63 0 -74 82q20 70 74 70z" />
<glyph unicode="&#x2018;" horiz-adv-x="557" d="M364 1567q28 -8 28 -32v-8q-59 -141 -60 -244q0 -60 48 -140l4 -20q0 -64 -84 -80q-96 0 -124 252q0 134 144 256z" />
<glyph unicode="&#x2019;" horiz-adv-x="557" d="M261 1558h28q83 0 112 -236v-20q0 -129 -144 -248q-29 -16 -44 -16q-18 7 -28 24v12q60 144 60 236v12q0 62 -48 144v20q15 72 64 72z" />
<glyph unicode="&#x201a;" horiz-adv-x="557" d="M256 220h28q83 0 112 -236v-20q0 -129 -144 -248q-29 -16 -44 -16q-18 7 -28 24v12q60 144 60 236v12q0 62 -48 144v20q15 72 64 72z" />
<glyph unicode="&#x201b;" horiz-adv-x="450" d="M313 1476v-20q-49 -82 -49 -144v-12q0 -92 61 -236v-12q-10 -17 -28 -24q-15 0 -45 16q-145 119 -145 248v20q29 236 113 236h28q50 0 65 -72z" />
<glyph unicode="&#x201c;" horiz-adv-x="910" d="M412 1588q28 -8 28 -32v-8q-59 -141 -60 -244q0 -60 48 -140l4 -20q0 -64 -84 -80q-96 0 -124 252q0 134 144 256zM700 1580q28 -12 28 -36q-64 -142 -64 -244q0 -61 52 -152v-12q-14 -76 -72 -76h-16q-82 0 -116 204v68q0 107 136 228q28 20 52 20z" />
<glyph unicode="&#x201d;" horiz-adv-x="910" d="M296 1581h28q83 0 112 -236v-20q0 -129 -144 -248q-29 -16 -44 -16q-18 7 -28 24v12q60 144 60 236v12q0 62 -48 144v20q15 72 64 72zM600 1585h12q94 0 120 -244v-8q0 -132 -144 -252l-40 -16q-32 0 -32 32v4q60 141 60 248q0 62 -48 140v32q18 64 72 64z" />
<glyph unicode="&#x201e;" horiz-adv-x="910" d="M278 235h28q83 0 112 -236v-20q0 -129 -144 -248q-29 -16 -44 -16q-18 7 -28 24v12q60 144 60 236v12q0 62 -48 144v20q15 72 64 72zM582 239h12q94 0 120 -244v-8q0 -132 -144 -252l-40 -16q-32 0 -32 32v4q60 141 60 248q0 62 -48 140v32q18 64 72 64z" />
<glyph unicode="&#x2020;" d="M509 1441h12q59 0 72 -76v-288h192l36 4q56 0 76 -80q0 -55 -68 -80l-60 4h-176v-1224q0 -67 -84 -80q-72 19 -72 72v1232h-172l-64 -4q-68 24 -68 80q13 76 72 76v4l40 -4h192v292q14 72 72 72z" />
<glyph unicode="&#x2021;" d="M512 1441h12q59 0 72 -76v-288h192l36 4q56 0 76 -80q0 -55 -68 -80l-60 4h-176v-784h236q49 0 68 -76q-16 -80 -80 -80h-224v-284q0 -67 -84 -80q-72 19 -72 72v292h-224q-80 16 -80 80q17 76 68 76h236v784h-172l-64 -4q-68 24 -68 80q13 76 72 76v4l40 -4h192v292 q14 72 72 72z" />
<glyph unicode="&#x2022;" horiz-adv-x="1024" d="M216 718q0 123 87 209t210 86q122 0 208.5 -86.5t86.5 -208.5t-87.5 -209.5t-209.5 -87.5q-123 0 -209 87t-86 210z" />
<glyph unicode="&#x2026;" horiz-adv-x="2048" d="M1633 274q105 0 135 -125v-24q0 -75 -96 -118q-14 -7 -39 -7h-4q-112 0 -135 139q0 88 100 128q14 7 39 7zM942 270q105 0 135 -125v-24q0 -75 -96 -118q-14 -7 -39 -7h-4q-112 0 -135 139q0 88 100 128q14 7 39 7zM269 274q105 0 135 -125v-24q0 -75 -96 -118 q-14 -7 -39 -7h-4q-112 0 -135 139q0 88 100 128q14 7 39 7z" />
<glyph unicode="&#x202f;" horiz-adv-x="372" />
<glyph unicode="&#x2030;" horiz-adv-x="2494" d="M499 1436h19q167 0 284 -152q68 -100 68 -205q0 -233 -242 -344q-69 -19 -114 -19h-7q-210 0 -322 204q-38 77 -38 156q0 236 250 344q51 16 102 16zM1333 1436h11q68 -14 68 -69v-15q0 -22 -140 -201l-860 -1136q-29 -15 -45 -15h-4q-72 15 -72 64v16q0 31 106 159 l894 1181q23 16 42 16zM295 1079v-7q0 -150 166 -205l38 -3h19q147 0 201 170l4 42q0 154 -163 208l-49 8q-152 0 -209 -159zM1196 723q211 0 333 -219q27 -80 27 -140v-12q0 -211 -223 -325q-69 -27 -137 -27h-7q-184 0 -303 178q-50 86 -50 170v23q0 190 190 307 q91 45 170 45zM980 364q0 -150 156 -209l53 -7h15q143 0 200 163l4 34v26q0 149 -174 201l-38 4q-159 0 -212 -178zM1989 728q211 0 333 -219q27 -80 27 -140v-12q0 -211 -223 -325q-69 -27 -137 -27h-7q-184 0 -303 178q-50 86 -50 170v23q0 190 190 307q91 45 170 45z M1773 369q0 -150 156 -209l53 -7h15q143 0 200 163l4 34v26q0 149 -174 201l-38 4q-159 0 -212 -178z" />
<glyph unicode="&#x2032;" horiz-adv-x="455" d="M276 1429h4q76 -13 76 -72v-20q0 -21 -168 -240q-18 -20 -36 -20h-8q-33 0 -44 44v8q105 263 128 284q27 16 48 16z" />
<glyph unicode="&#x2033;" horiz-adv-x="673" d="M284 1429h4q76 -13 76 -72v-20q0 -21 -168 -240q-18 -20 -36 -20h-8q-33 0 -44 44v8q105 263 128 284q27 16 48 16zM532 1417q80 -16 80 -80q0 -32 -108 -168q-67 -104 -96 -104h-12q-33 0 -44 44q0 17 112 272q35 36 68 36z" />
<glyph unicode="&#x2039;" horiz-adv-x="631" d="M396 683h8q76 -12 76 -76v-4q0 -52 -116 -128l-4 -4v-4q120 -82 120 -132v-4q-13 -76 -72 -76h-20q-30 0 -212 164l-8 28v44q0 38 148 144q44 48 80 48z" />
<glyph unicode="&#x203a;" horiz-adv-x="631" d="M172 679q38 0 168 -120q64 -39 64 -76v-36q0 -46 -112 -124q-80 -76 -120 -76h-4q-76 14 -76 76v4q0 51 112 124l8 12q-120 84 -120 132v4q16 80 80 80z" />
<glyph unicode="&#x203c;" horiz-adv-x="850" d="M618 1442h12q60 0 73 -69v-955q-17 -72 -77 -72q-81 12 -81 69v962q14 65 73 65zM609 206h8q103 -15 103 -92v-22q0 -71 -95 -92h-12q-79 0 -99 103q21 103 95 103zM214 1442h12q60 0 73 -69v-955q-17 -72 -77 -72q-81 12 -81 69v962q14 65 73 65zM205 206h8 q103 -15 103 -92v-22q0 -71 -95 -92h-12q-79 0 -99 103q21 103 95 103z" />
<glyph unicode="&#x203e;" horiz-adv-x="837" d="M186 1362l40 -4h400l36 4q56 0 76 -80q0 -55 -68 -80l-60 4h-364l-64 -4q-68 24 -68 80q13 76 72 76v4z" />
<glyph unicode="&#x2044;" horiz-adv-x="462" d="M635 1453h12q59 0 72 -76v-4q0 -33 -116 -172q-971 -1260 -984 -1268l-32 -12h-16q-52 0 -72 64v20q0 34 116 172l976 1260q21 16 44 16z" />
<glyph unicode="&#x2215;" horiz-adv-x="462" d="M635 1453h12q59 0 72 -76v-4q0 -33 -116 -172q-971 -1260 -984 -1268l-32 -12h-16q-52 0 -72 64v20q0 34 116 172l976 1260q21 16 44 16z" />
<glyph unicode="&#x205f;" horiz-adv-x="465" />
<glyph unicode="&#x207f;" horiz-adv-x="787" d="M122 1065q42 -11 42 -38v-49q96 87 210 87q124 0 221 -104q70 -87 70 -183v-281q0 -29 -42 -37h-2q-42 8 -42 42v247q0 166 -143 219q-35 9 -62 9h-7q-120 0 -186 -124q-17 -38 -17 -122v-231q0 -33 -42 -40h-2q-34 0 -42 44v510q5 51 44 51z" />
<glyph unicode="&#x20a3;" horiz-adv-x="1127" d="M250 1437l18 -4h719l15 4q62 0 73 -83q-15 -68 -81 -68h-671v-511h440l51 4q50 0 66 -76q0 -49 -58 -75l-74 4h-425v-258h121l33 4q54 0 70 -75q0 -50 -59 -76l-62 4h-103v-136l4 -23q-16 -72 -70 -72h-7q-70 13 -70 72v159h-99l-59 -4q-62 20 -62 72v7q0 51 62 72l37 -4 h121v987q11 72 70 72v4z" />
<glyph unicode="&#x20a4;" horiz-adv-x="946" d="M439 1428h38q177 0 301 -166l4 -26q-17 -76 -75 -76q-35 0 -98 72q-64 49 -132 49h-23q-149 0 -211 -177l-3 -49q0 -59 75 -200l30 -64h256q76 -15 76 -75q-16 -72 -64 -72h-208l8 -56h188q72 -13 72 -72v-4q-13 -71 -72 -71h-188q-7 0 -23 -72l-98 -222h381q6 0 41 79 q31 30 61 30q75 -15 75 -75q0 -27 -72 -158q-26 -23 -52 -23h-554q-58 0 -72 75q2 20 143 328l12 38h-147q-68 13 -68 68v11q0 55 72 68h154l-11 56h-143q-72 14 -72 72q15 75 75 75h68q-90 157 -90 268q0 225 237 346q74 23 109 23z" />
<glyph unicode="&#x20a7;" horiz-adv-x="2028" d="M148 1290v-539h235q190 0 262 182q15 38 15 91q0 167 -171 247q-42 19 -98 19h-243zM1293 933q20 15 43 29q112 59 222 59q257 0 404 -233l3 -29v-4q0 -59 -74 -70q-49 0 -100 85q-103 100 -233 100q-171 0 -270 -163l-3 -19q0 -49 111 -59q426 -103 466 -118 q107 -70 107 -178v-3q0 -154 -226 -282q-97 -44 -207 -44q-118 0 -218 58q-13 -62 -68 -62h-77q-175 0 -260 191q-15 47 -15 110v561h-119q-41 -98 -142 -179q-116 -80 -227 -80h-262v-535q0 -55 -72 -68h-4q-58 0 -72 76v1278q9 84 64 84h346q202 0 345 -209 q53 -107 53 -193v-35h90v308q9 81 63 81h14q66 -14 66 -59v-330h151l33 4q50 0 68 -72zM1216 143q-32 32 -61 72q-15 22 -15 41v22q0 54 82 63q35 0 100 -93q99 -92 229 -92q156 0 259 148l7 22v4q0 48 -66 55q-497 111 -526 137q-92 70 -92 170q0 86 76 168l-32 2h-136 v-539q0 -141 92 -173z" />
<glyph unicode="&#x20ac;" horiz-adv-x="1193" d="M725 1457q226 0 422 -138q15 -29 15 -46v-7q0 -65 -81 -73h-3l-135 69q-133 42 -218 42q-264 0 -460 -234q-43 -65 -73 -138h744q73 -12 73 -73v-4q-13 -73 -73 -73h-779l-4 -53l4 -58h779q73 -11 73 -73v-4q-13 -72 -73 -72h-744q89 -220 299 -319q117 -50 226 -50h12 q168 0 341 108h23q69 -15 69 -69v-12q0 -81 -257 -157q-80 -23 -169 -23h-19q-360 0 -602 334q-115 193 -115 395q0 378 345 617q185 111 380 111z" />
<glyph unicode="&#x2105;" horiz-adv-x="1768" d="M1344 1430h12q55 0 68 -72v-3q0 -34 -125 -178q-95 -133 -894 -1162q-25 -15 -49 -15q-68 19 -68 64v23q0 23 143 200q807 1052 872 1128q20 15 41 15zM411 1430q138 0 251 -104q8 -14 8 -27v-2q-9 -50 -50 -50h-3q-19 0 -84 50q-58 29 -115 29h-15q-153 0 -231 -160 q-18 -54 -18 -97q0 -155 160 -236q48 -18 102 -18q90 0 178 73l21 5h8q38 0 47 -49v-2q0 -54 -168 -119q-57 -10 -84 -10h-21q-144 0 -269 136q-76 108 -76 223q0 174 154 293q99 65 205 65zM1316 709q135 0 246 -103q105 -110 105 -248q0 -198 -187 -311q-81 -41 -157 -41 h-21q-141 0 -263 134q-75 105 -75 218q0 171 151 287q97 64 201 64zM1067 365v-13q0 -140 136 -218q49 -25 105 -25h15q146 0 224 151q17 48 17 92v13q0 117 -107 198q-64 43 -144 43q-160 0 -234 -167q-12 -40 -12 -74z" />
<glyph unicode="&#x2113;" horiz-adv-x="846" d="M534 1432q173 0 241 -184l8 -53v-19q0 -91 -124 -245l-219 -328v-362q0 -90 64 -90h19q62 26 79 26q51 0 68 -75q-23 -102 -166 -102q-137 0 -203 158l-8 72v151q-73 -117 -117 -117h-7q-60 0 -72 79q0 25 188 290l8 15v520q0 196 192 257zM440 871q192 268 192 297v34 q0 61 -94 80h-4q-78 0 -94 -106v-305z" />
<glyph unicode="&#x2116;" horiz-adv-x="2271" d="M64 1431h15q48 0 83 -75q56 -63 821 -1051q8 0 8 -11l3 -4h4v1073q13 68 68 68h11q56 0 68 -71v-1285q0 -62 -79 -75q-43 0 -132 132l-787 1005v-1065q0 -56 -72 -68h-3q-58 0 -72 75v1269q9 83 64 83zM1287 419l40 -4h720l36 4q59 0 76 -80q0 -52 -64 -80l-68 4h-680 l-64 -4q-68 24 -68 80q13 76 72 76v4zM1682 1276q153 0 278 -116q118 -124 118 -280q0 -223 -211 -350q-91 -46 -176 -46h-24q-159 0 -297 150q-84 119 -84 246q0 193 170 324q109 72 226 72zM1402 889v-14q0 -159 153 -246q55 -29 118 -29h18q164 0 251 170q20 54 20 105 v14q0 132 -121 222q-71 49 -162 49q-180 0 -263 -187q-14 -46 -14 -84z" />
<glyph unicode="&#x2122;" horiz-adv-x="1497" d="M184 1441h435q32 -6 32 -32v-7q0 -25 -39 -30h-175v-569q0 -26 -34 -32h-1q-27 0 -34 35v566h-179q-35 7 -35 36q8 33 30 33zM791 1440h8q27 0 39 -46l227 -509q9 11 159 355l88 189q11 11 23 11h8q26 0 30 -39v-603q-7 -36 -34 -36h-2q-34 6 -34 32v446h-2 q-200 -455 -207 -465q-14 -13 -27 -13q-31 0 -55 75l-179 401h-2v-444q0 -26 -34 -32h-2q-27 0 -34 36v603q4 39 30 39z" />
<glyph unicode="&#x2126;" horiz-adv-x="1709" d="M819 1437q367 0 613 -340q111 -198 111 -373q0 -339 -263 -568h-4v-4h164q73 -14 73 -64v-16q-15 -68 -69 -68h-492q-60 0 -72 80q19 68 69 68q106 0 289 157q160 187 160 407q0 272 -244 469q-162 103 -320 103h-30q-273 0 -461 -248q-103 -159 -103 -324 q0 -331 305 -514q52 -32 175 -61q46 -19 46 -72q-20 -69 -73 -69h-484q-76 15 -76 76q17 73 73 73h160v3q-93 70 -164 180q-107 186 -107 392q0 336 309 579q199 134 415 134z" />
<glyph unicode="&#x212e;" horiz-adv-x="1174" d="M566 1004q290 0 451 -275q55 -108 55 -234v-19q-13 -73 -70 -73h-773q44 -146 187 -223q84 -33 158 -33q84 0 194 55h22q66 -13 66 -66v-11q0 -91 -264 -125h-26q-270 0 -432 253q-66 120 -66 249q0 276 260 440q127 62 238 62zM218 546h704q0 75 -88 194 q-121 114 -238 114h-41q-176 0 -289 -172q-40 -69 -48 -136z" />
<glyph unicode="&#x215b;" horiz-adv-x="1498" d="M1193 1442h12q56 0 68 -72v-4q0 -34 -125 -179q-96 -134 -902 -1172q-25 -15 -50 -15q-68 19 -68 65v23q0 23 145 201q813 1061 878 1138q20 15 42 15zM326 1434q25 0 45 -34l-3 -57v-654l3 -35q-13 -41 -45 -41q-26 0 -42 30v685l-65 -15h-19q-30 16 -30 41q0 48 110 65 q0 5 46 15zM1161 806q96 0 163 -86q39 -52 39 -114v-11q0 -85 -77 -154q111 -80 111 -202q0 -121 -111 -202q-62 -41 -130 -41h-11q-116 0 -200 115q-36 66 -36 128q0 126 119 211q-48 37 -64 102q-6 16 -6 43v11q0 107 102 172q52 28 101 28zM1041 597q0 -80 96 -113l24 -2 q83 0 114 89l5 30q0 88 -94 117l-28 2q-81 0 -113 -87zM992 241q0 -113 117 -156q16 -6 47 -6q106 0 152 117l4 32v22q0 90 -105 140q-29 9 -53 9q-114 0 -156 -118z" />
<glyph unicode="&#x215c;" horiz-adv-x="1523" d="M1235 1442h12q56 0 68 -72v-4q0 -34 -125 -179q-96 -134 -902 -1172q-25 -15 -50 -15q-68 19 -68 65v23q0 23 145 201q813 1061 878 1138q20 15 42 15zM1203 806q96 0 163 -86q39 -52 39 -114v-11q0 -85 -77 -154q111 -80 111 -202q0 -121 -111 -202q-62 -41 -130 -41 h-11q-116 0 -200 115q-36 66 -36 128q0 126 119 211q-48 37 -64 102q-6 16 -6 43v11q0 107 102 172q52 28 101 28zM1083 597q0 -80 96 -113l24 -2q83 0 114 89l5 30q0 88 -94 117l-28 2q-81 0 -113 -87zM1034 241q0 -113 117 -156q16 -6 47 -6q106 0 152 117l4 32v22 q0 90 -105 140q-29 9 -53 9q-114 0 -156 -118zM327 1518q124 0 188 -129q15 -35 15 -64v-22q0 -83 -75 -155q109 -76 109 -204q0 -176 -196 -241l-53 -4h-7q-166 0 -234 196l-4 53q0 20 30 38h19q39 0 45 -83q44 -117 147 -117h12q112 0 151 132l4 30q0 109 -129 155 q-68 0 -68 49q10 41 61 41q76 0 102 106v26q0 71 -99 106h-22q-85 0 -117 -98v-34q-16 -30 -38 -30h-11q-38 7 -38 37v8q0 143 162 200z" />
<glyph unicode="&#x215d;" horiz-adv-x="1569" d="M1294 1442h12q56 0 68 -72v-4q0 -34 -125 -179q-96 -134 -902 -1172q-25 -15 -50 -15q-68 19 -68 65v23q0 23 145 201q813 1061 878 1138q20 15 42 15zM1262 806q96 0 163 -86q39 -52 39 -114v-11q0 -85 -77 -154q111 -80 111 -202q0 -121 -111 -202q-62 -41 -130 -41 h-11q-116 0 -200 115q-36 66 -36 128q0 126 119 211q-48 37 -64 102q-6 16 -6 43v11q0 107 102 172q52 28 101 28zM1142 597q0 -80 96 -113l24 -2q83 0 114 89l5 30q0 88 -94 117l-28 2q-81 0 -113 -87zM1093 241q0 -113 117 -156q16 -6 47 -6q106 0 152 117l4 32v22 q0 90 -105 140q-29 9 -53 9q-114 0 -156 -118zM142 1437l21 -2h322q33 0 42 -44q0 -32 -45 -42h-292v-211h120q141 0 220 -145q25 -60 25 -105q0 -129 -123 -214q-63 -35 -124 -35h-7q-146 0 -227 151q-20 57 -20 96q15 39 44 39q46 0 46 -74q27 -81 85 -109q45 -18 74 -18 q110 0 155 111q9 23 9 53q0 119 -126 160l-51 4h-146q-29 0 -40 35v313q0 23 38 37z" />
<glyph unicode="&#x215e;" horiz-adv-x="1494" d="M1185 1442h12q56 0 68 -72v-4q0 -34 -125 -179q-96 -134 -902 -1172q-25 -15 -50 -15q-68 19 -68 65v23q0 23 145 201q813 1061 878 1138q20 15 42 15zM1153 806q96 0 163 -86q39 -52 39 -114v-11q0 -85 -77 -154q111 -80 111 -202q0 -121 -111 -202q-62 -41 -130 -41 h-11q-116 0 -200 115q-36 66 -36 128q0 126 119 211q-48 37 -64 102q-6 16 -6 43v11q0 107 102 172q52 28 101 28zM1033 597q0 -80 96 -113l24 -2q83 0 114 89l5 30q0 88 -94 117l-28 2q-81 0 -113 -87zM984 241q0 -113 117 -156q16 -6 47 -6q106 0 152 117l4 32v22 q0 90 -105 140q-29 9 -53 9q-114 0 -156 -118zM143 1429h414q39 -8 39 -34v-11q0 -11 -22 -43l-403 -715q-16 -11 -28 -11h-2q-41 8 -41 41v7q6 20 376 671l4 11h-330q-44 9 -44 43q9 41 37 41z" />
<glyph unicode="&#x2190;" horiz-adv-x="1923" d="M577 1009q67 -12 67 -67v-7q0 -48 -144 -123l-99 -60v-4h1382q67 -14 67 -67q-14 -70 -67 -70h-1382l229 -148q14 -27 14 -43v-7q-12 -63 -63 -63h-18q-34 9 -419 257q-60 20 -60 71q0 53 120 109q339 222 366 222h7z" />
<glyph unicode="&#x2191;" horiz-adv-x="833" d="M414 1438q52 0 109 -120q221 -340 221 -365v-10q-13 -63 -63 -63h-18q-38 0 -94 108l-85 130v-1375q0 -51 -66 -63h-4q-66 12 -66 67v1375h-4q-136 -239 -165 -239l-17 -3h-18q-56 17 -56 56v17q0 23 95 169l179 291q19 19 52 25z" />
<glyph unicode="&#x2192;" horiz-adv-x="1910" d="M1339 1009q32 0 300 -176q151 -87 183 -120l7 -25v-21q0 -38 -74 -70q-386 -247 -405 -247h-14q-64 12 -64 63v15q0 43 166 130l77 53h-1381q-56 0 -67 74q17 63 63 63h1385v4q-204 119 -236 151l-7 32v14q0 46 67 60z" />
<glyph unicode="&#x2193;" horiz-adv-x="808" d="M400 1444q47 0 70 -59l-3 -60v-1317l149 230q24 14 42 14h4q66 -12 66 -67v-7q0 -22 -94 -167l-181 -293q-25 -21 -49 -21h-4q-50 0 -104 115q-217 334 -220 359v18q0 51 66 63h4q50 0 94 -98l94 -143v1314l-3 56q0 45 69 63z" />
<glyph unicode="&#x2194;" horiz-adv-x="1961" d="M1378 1001h4q30 0 273 -161q180 -107 203 -129l10 -39q0 -49 -70 -77q-370 -236 -406 -248h-24q-56 18 -56 56v17q0 48 129 112q5 9 112 70v4h-1157v-4q199 -117 238 -154q10 -18 10 -35v-7q0 -54 -70 -66q-25 0 -318 189q-157 90 -165 115l-3 25v3q0 48 73 77 q362 233 406 248h7q70 -11 70 -66v-7q0 -48 -105 -98q-119 -80 -129 -80v-4h1140q-197 124 -228 151l-10 28v17q0 51 66 63z" />
<glyph unicode="&#x2195;" horiz-adv-x="825" d="M397 1432h7q48 0 76 -72q239 -375 245 -401v-7q-14 -69 -69 -69q-54 0 -100 104l-83 124v-1118l134 211q27 24 52 24q69 -14 69 -69q0 -29 -141 -245q-127 -209 -149 -228l-31 -6h-10q-46 0 -83 89q-235 360 -235 387v3q14 69 69 69q51 0 104 -107l83 -134h3v1145h-3 q-117 -199 -152 -238l-38 -11q-60 0 -69 73v3q14 44 255 418q22 55 66 55z" />
<glyph unicode="&#x21a8;" horiz-adv-x="879" d="M426 1432h7q48 0 76 -72q239 -375 245 -401v-7q-14 -69 -69 -69q-54 0 -100 104l-83 124v-1118l134 211q27 24 52 24q69 -14 69 -69q0 -29 -141 -245q-127 -209 -149 -228l-31 -6h-10q-46 0 -83 89q-235 360 -235 387v3q14 69 69 69q51 0 104 -107l83 -134h3v1145h-3 q-117 -199 -152 -238l-38 -11q-60 0 -69 73v3q14 44 255 418q22 55 66 55z" />
<glyph unicode="&#x2202;" horiz-adv-x="1131" d="M117 1432q548 0 813 -468q105 -170 105 -499q0 -162 -155 -329q-156 -136 -333 -136h-23q-239 0 -410 236q-74 132 -74 263q0 265 252 430q120 66 247 66q120 0 240 -62v4q-126 219 -414 317q-116 31 -205 31l-46 -4q-50 0 -66 70v12q13 69 69 69zM183 499 q0 -216 213 -325q72 -31 143 -31q212 0 322 209q31 71 31 151q0 209 -217 322q-82 27 -136 27q-209 0 -321 -205q-35 -81 -35 -148z" />
<glyph unicode="&#x2206;" horiz-adv-x="1144" d="M564 1443h12q61 0 84 -115q476 -1227 476 -1247v-12q0 -56 -73 -69h-990q-61 0 -73 81l507 1331q28 31 57 31zM568 1148l-380 -998h764l-380 998h-4z" />
<glyph unicode="&#x220f;" horiz-adv-x="1378" d="M151 1443h1001q76 -14 76 -72v-4q-15 -72 -64 -72h-80v-1570h68q76 -15 76 -76q-13 -72 -68 -72v-4l-27 4h-102l-19 -4l-23 4h-102l-23 -4q-57 0 -72 80v3q0 52 76 69h68v1570h-569v-1570h68q76 -15 76 -76q-12 -72 -68 -72v-4l-27 4h-102l-19 -4l-23 4h-102l-23 -4 q-57 0 -72 80v3q0 52 76 69h68v1570h-80q-52 0 -64 80q0 51 76 68z" />
<glyph unicode="&#x2211;" horiz-adv-x="1206" d="M137 1427h853q68 -14 68 -60v-19q0 -55 -71 -67h-685l617 -752l4 -27v-11q0 -28 -161 -209l-449 -550h681q75 -14 75 -64v-22q0 -42 -67 -64l-27 4h-796l-23 -4q-71 19 -71 64v22q0 28 161 210l505 617v4l-674 823l-7 30v11q0 49 67 64z" />
<glyph unicode="&#x2212;" horiz-adv-x="1092" d="M162 771l40 -4h720l36 4q59 0 76 -80q0 -52 -64 -80l-68 4h-680l-64 -4q-68 24 -68 80q13 76 72 76v4z" />
<glyph unicode="&#x221a;" horiz-adv-x="1127" d="M931 1578l38 -3h91l34 3q68 -19 68 -72v-7q0 -52 -64 -72l-61 4h-45q-8 0 -693 -1382q-23 -49 -68 -49h-4q-59 0 -106 125q-121 201 -121 235v7q0 53 79 68q51 0 95 -106l49 -91h4q643 1299 662 1321z" />
<glyph unicode="&#x221e;" horiz-adv-x="1313" d="M408 983q136 0 251 -112q119 112 259 112q212 0 323 -237l13 -103v-4q0 -241 -264 -332l-76 -8q-140 0 -255 111q-112 -111 -255 -111q-225 0 -327 246l-13 98q0 225 246 327zM738 626q0 -114 151 -171h68q96 0 156 130l10 62q0 130 -151 187h-67q-115 0 -167 -161v-47z M194 622q0 -114 151 -171h68q96 0 156 130l10 62q0 130 -151 187h-67q-115 0 -167 -161v-47z" />
<glyph unicode="&#x221f;" horiz-adv-x="1431" d="M157 1250q70 -18 70 -62v-1045h1038q59 0 69 -77q-19 -66 -69 -66h-1112q-55 0 -69 73v1093q8 84 73 84z" />
<glyph unicode="&#x2229;" horiz-adv-x="1221" d="M579 1437q289 0 454 -284q49 -114 49 -208v-881q0 -49 -72 -64h-4q-71 15 -71 64v798q0 232 -103 314q-102 110 -253 110q-228 0 -329 -227q-27 -46 -27 -197v-794q0 -56 -71 -68h-4q-72 13 -72 72v873q0 248 242 420q134 72 261 72z" />
<glyph unicode="&#x222b;" horiz-adv-x="920" d="M694 1657h15q135 0 198 -148v-7q-11 -71 -67 -71h-7q-44 0 -78 67q-18 14 -53 21q-82 0 -82 -127l-181 -1488q-73 -145 -198 -145h-18q-142 0 -205 170v4q15 67 60 67h18q47 0 74 -78q32 -25 57 -25h11q78 0 78 138l177 1474q70 148 201 148z" />
<glyph unicode="&#x2248;" d="M325 1026h4q51 0 352 -84h28q47 0 112 64l32 8q68 -16 68 -60v-16q0 -58 -140 -120l-76 -12h-8q-49 0 -352 84h-24q-48 0 -104 -56q-22 -16 -44 -16q-68 13 -68 68v12q0 57 160 120zM345 726q41 0 352 -84h32q39 0 116 68l24 4q68 -14 68 -68v-8q0 -61 -152 -124l-60 -8 h-28q-30 0 -340 84h-8q-62 0 -116 -56q-21 -16 -44 -16q-68 14 -68 60v16q0 43 76 84q69 48 148 48z" />
<glyph unicode="&#x2260;" horiz-adv-x="1028" d="M444 677h-232q-65 0 -76 84q20 72 76 72h232v119q0 52 66 61h4q66 -9 66 -65v-115h244q59 0 76 -80q-18 -76 -76 -76h-244v-176h240q80 -16 80 -80q-16 -76 -76 -76h-244v-118q-10 -69 -66 -69h-7q-63 10 -63 67v120h-240q-56 0 -68 84q0 54 80 72h228v176z" />
<glyph unicode="&#x2261;" horiz-adv-x="1161" d="M151 281l40 -4h720l36 4q59 0 76 -80q0 -52 -64 -80l-68 4h-680l-64 -4q-68 24 -68 80q13 76 72 76v4zM156 1060l40 -4h720l36 4q59 0 76 -80q0 -52 -64 -80l-68 4h-680l-64 -4q-68 24 -68 80q13 76 72 76v4zM156 672l40 -4h720l36 4q59 0 76 -80q0 -52 -64 -80l-68 4 h-680l-64 -4q-68 24 -68 80q13 76 72 76v4z" />
<glyph unicode="&#x2264;" d="M813 1156q76 -16 76 -76v-8q0 -55 -96 -100l-464 -288l540 -344q20 -22 20 -48v-12q0 -61 -80 -72q-32 0 -144 76l-548 344q-20 28 -20 52q0 60 148 132q537 344 556 344h12zM157 156h668q53 0 64 -72v-12q-13 -72 -60 -72h-664q-59 0 -68 80q13 76 60 76z" />
<glyph unicode="&#x2265;" d="M190 1161q34 0 316 -188q350 -209 384 -244q12 -20 12 -40v-16q0 -44 -120 -104q-556 -352 -568 -352l-28 -4q-76 12 -76 76v4q0 61 136 124l424 268v4q-503 307 -540 340q-20 23 -20 60q0 53 80 72zM170 161h668q52 0 64 -68v-16q-13 -72 -60 -72h-672q-48 0 -60 80 q12 76 60 76z" />
<glyph unicode="&#xf001;" horiz-adv-x="1021" d="M590 1436q186 0 298 -189l15 -53q0 -56 -75 -72q-55 0 -95 95q-66 68 -147 68q-115 0 -170 -129l-12 -86v-69h163l60 4q48 0 65 -72v-11q0 -47 -68 -64h-220v-748l4 -42q0 -51 -75 -68q-52 0 -76 64l4 46v748h-197q-52 0 -64 79q0 38 60 68l76 -4h121v72q0 246 212 337 q37 19 121 26zM831 1039q76 -15 76 -75v-888q-13 -72 -72 -72h-4q-71 14 -71 64v899q15 72 71 72z" />
<glyph unicode="&#xfb01;" horiz-adv-x="1021" d="M590 1436q186 0 298 -189l15 -53q0 -56 -75 -72q-55 0 -95 95q-66 68 -147 68q-115 0 -170 -129l-12 -86v-69h163l60 4q48 0 65 -72v-11q0 -47 -68 -64h-220v-748l4 -42q0 -51 -75 -68q-52 0 -76 64l4 46v748h-197q-52 0 -64 79q0 38 60 68l76 -4h121v72q0 246 212 337 q37 19 121 26zM831 1039q76 -15 76 -75v-888q-13 -72 -72 -72h-4q-71 14 -71 64v899q15 72 71 72z" />
<glyph unicode="&#xf002;" horiz-adv-x="1081" d="M592 1443q188 0 300 -190l16 -42l-4 -45v-1014h79q50 0 65 -72v-4q-13 -72 -72 -72h-148q-58 0 -72 76v1101q-34 98 -167 110q-115 0 -171 -129l-12 -87v-69h164l60 4q49 0 65 -72v-12q0 -47 -68 -64h-221v-752l4 -42q0 -51 -76 -68q-52 0 -76 65l4 45v752h-197 q-53 0 -65 80q0 38 61 68l76 -4h121v72q0 248 213 338q38 19 121 27z" />
<glyph unicode="&#xfb02;" horiz-adv-x="1081" d="M592 1443q188 0 300 -190l16 -42l-4 -45v-1014h79q50 0 65 -72v-4q-13 -72 -72 -72h-148q-58 0 -72 76v1101q-34 98 -167 110q-115 0 -171 -129l-12 -87v-69h164l60 4q49 0 65 -72v-12q0 -47 -68 -64h-221v-752l4 -42q0 -51 -76 -68q-52 0 -76 65l4 45v752h-197 q-53 0 -65 80q0 38 61 68l76 -4h121v72q0 248 213 338q38 19 121 27z" />
<glyph horiz-adv-x="0" />
</font>
</defs>
</svg>
