<?xml version="1.0" standalone="no"?>
<!DOCTYPE svg PUBLIC "-//W3C//DTD SVG 1.1//EN" "http://www.w3.org/Graphics/SVG/1.1/DTD/svg11.dtd" >
<svg xmlns="http://www.w3.org/2000/svg">
<metadata>
This is a custom SVG webfont generated by Font Squirrel.
Designer    : Johan Aakerlund - aajohan
</metadata>
<defs>
<font id="webfontjkcnhWWT" horiz-adv-x="1014" >
<font-face units-per-em="2048" ascent="1638" descent="-410" />
<missing-glyph horiz-adv-x="508" />
<glyph unicode=" "  horiz-adv-x="508" />
<glyph unicode="&#x09;" horiz-adv-x="508" />
<glyph unicode="&#xa0;" horiz-adv-x="508" />
<glyph unicode="!" horiz-adv-x="511" d="M245 1472h12q84 0 103 -96v-961q-24 -99 -110 -99q-108 16 -108 99v965q19 92 103 92zM236 236h10q131 -19 131 -122v-22q0 -95 -122 -122h-15q-104 0 -130 133q27 133 126 133z" />
<glyph unicode="&#x22;" horiz-adv-x="557" d="M193 1589q102 -26 102 -99q-23 -341 -77 -341l-28 -8q-83 0 -91 152l-20 187q22 109 114 109zM435 1589q76 0 105 -103q-32 -329 -63 -329q-17 -16 -44 -16h-4q-86 0 -86 164l-20 184q0 81 112 100z" />
<glyph unicode="#" horiz-adv-x="1336" d="M1030 1461q94 -26 94 -94v-11q0 -32 -69 -359h71l34 4q81 0 104 -106q-21 -105 -106 -105h-145l-26 -132h104q116 -11 116 -109q-19 -98 -72 -98v-11l-52 11h-138q-79 -399 -97 -435q-36 -48 -86 -48h-11q-94 20 -94 98v6l76 379h-178q4 0 4 -17q0 -45 -28 -205 q-43 -213 -61 -224q-29 -41 -84 -41q-103 20 -103 108l76 379h-62l-22 -4q-85 0 -105 106v7q0 75 102 98h133l26 132h-102q-102 20 -102 107q17 100 67 100v7l70 -7h109q82 438 113 438q28 22 67 22q87 0 101 -106l-69 -354h158q77 397 96 423q38 41 91 41zM644 790 l-26 -132h157l26 132h-157z" />
<glyph unicode="$" d="M622 210q99 73 99 180v39q0 126 -99 187v-406zM336 1091v-31q0 -106 76 -148v316q-76 -38 -76 -137zM507 1682h20q75 0 95 -100v-103q76 -6 200 -118q52 -53 52 -88v-23q0 -76 -101 -92q-46 0 -119 81q-27 23 -32 24v-398q169 -62 249 -213q61 -116 61 -222 q0 -298 -307 -432h-3v-106q-24 -100 -106 -100q-104 22 -104 104v104q0 -13 -29 -13q-15 0 -37 3q-186 63 -269 200l-6 34q18 104 104 104q55 0 129 -93q76 -50 108 -52v526q-120 37 -175 116q-108 111 -108 258v28q0 206 210 331q72 35 73 35v115q28 90 95 90z" />
<glyph unicode="%" horiz-adv-x="1610" d="M462 1486h19q182 0 308 -164q74 -109 74 -223q0 -252 -262 -372q-75 -21 -124 -21h-7q-228 0 -349 220q-41 84 -41 170q0 256 270 372q56 18 112 18zM1316 1466h14q95 -20 95 -99v-15q0 -32 -146 -219l-864 -1142q-42 -21 -65 -21h-7q-99 21 -99 94v16q0 42 112 178 l897 1184q35 24 63 24zM288 1097v-5q0 -128 142 -175l33 -3h18q125 0 171 146l4 37q0 131 -140 178l-44 7q-129 0 -178 -136zM1209 743q229 0 361 -237q29 -87 29 -152v-12q0 -229 -241 -352q-75 -30 -149 -30h-7q-200 0 -328 192q-55 94 -55 186v23q0 207 205 333 q99 49 185 49zM1023 352q0 -127 133 -178l48 -6h13q122 0 171 140l3 29v24q0 127 -150 171l-34 4q-135 0 -181 -154z" />
<glyph unicode="&#x26;" horiz-adv-x="1457" d="M529 655q-176 -158 -176 -228l-4 -31v-17q0 -126 145 -183l51 -7q114 0 226 142l41 41zM530 959q120 106 120 160v15q0 75 -91 111l-33 3q-71 0 -106 -79l-6 -23v-27q0 -61 116 -160zM966 525l137 139q36 26 69 26q97 0 110 -112q0 -58 -142 -182l-21 -23l197 -198 q23 -29 23 -61v-15q-21 -99 -102 -99h-11q-56 0 -163 123l-98 96q-204 -222 -279 -222q-66 -27 -139 -27q-237 0 -376 236q-41 97 -41 185q0 208 221 389l25 26q-174 162 -174 230q-8 0 -8 98q0 206 220 312q61 17 106 17h19q213 0 314 -233q12 -54 12 -92v-19 q0 -160 -165 -292l-16 -18z" />
<glyph unicode="'" horiz-adv-x="346" d="M206 1576q102 -26 102 -99q-23 -341 -77 -341l-28 -8q-83 0 -91 152l-20 187q22 109 114 109z" />
<glyph unicode="(" horiz-adv-x="758" d="M633 1626h14q96 -18 96 -98v-17l-78 -208q-129 -348 -129 -714q0 -456 205 -905l7 -24q-20 -108 -104 -108h-7q-88 0 -132 158q-178 413 -178 883q0 505 227 995q41 38 79 38z" />
<glyph unicode=")" horiz-adv-x="758" d="M171 1630h15q75 0 124 -158q178 -423 178 -876q0 -534 -236 -1014q-43 -28 -73 -28h-8q-85 0 -104 110l84 210q128 362 128 718q0 447 -205 906l-7 24q19 108 104 108z" />
<glyph unicode="*" horiz-adv-x="1024" d="M474 1366l-32 104v13q0 83 111 107q105 -27 105 -107v-13l-32 -102l103 64l35 5q106 -20 106 -106v-12q0 -60 -84 -98l-118 4l93 -76l17 -45v-25q0 -84 -103 -102q-102 0 -120 135l-3 10l-25 -84q-41 -61 -102 -61q-103 23 -103 98v16q0 64 105 125l9 7l-121 -2 q-85 34 -85 106v4q0 86 107 106q39 0 137 -71z" />
<glyph unicode="+" d="M542 1147h12q84 0 102 -103v-197h183q121 -10 121 -113q-20 -103 -76 -103v-11l-53 11h-175v-201q-19 -103 -106 -103h-7q-103 20 -103 98v206h-172l-24 -4q-87 0 -108 111v7q0 78 107 102h197v201q19 99 102 99z" />
<glyph unicode="," horiz-adv-x="557" d="M283 -28q-177 30 -177 174v4q0 102 122 151q21 11 56 11h19q163 -34 163 -154l1 -31l7 -47v-18q0 -203 -199 -302q-43 -28 -75 -28q-67 0 -82 88q0 74 103 94q30 17 62 58z" />
<glyph unicode="-" horiz-adv-x="670" d="M175 698h400q83 0 106 -110q-25 -106 -106 -106h-400q-92 0 -107 116q28 100 107 100z" />
<glyph unicode="&#xad;" horiz-adv-x="670" d="M175 698h400q83 0 106 -110q-25 -106 -106 -106h-400q-92 0 -107 116q28 100 107 100z" />
<glyph unicode="." horiz-adv-x="557" d="M299 304q129 0 165 -151v-28q0 -94 -113 -145q-20 -10 -52 -10h-4q-137 0 -165 167q0 110 118 157q19 10 51 10z" />
<glyph unicode="/" horiz-adv-x="770" d="M661 1547q103 -18 103 -102v-25q-506 -1395 -560 -1527q-43 -46 -86 -46h-8q-87 0 -106 110q5 34 560 1540q49 50 97 50z" />
<glyph unicode="0" horiz-adv-x="989" d="M476 1467q266 0 406 -284q74 -227 74 -419v-87q0 -237 -98 -479q-148 -228 -374 -228h-12q-246 0 -386 259q-86 220 -86 486v11q0 282 102 513q151 228 374 228zM196 737v-41q0 -253 90 -422q81 -100 183 -100h11q229 0 269 367q11 61 15 181q0 214 -73 407 q-84 134 -211 134q-155 0 -229 -173q-55 -183 -55 -353z" />
<glyph unicode="1" horiz-adv-x="568" d="M331 1467h19q95 -21 95 -95v-1303q-18 -99 -102 -99h-7q-99 21 -99 94v1156q-67 -22 -103 -22q-71 0 -94 95v23q0 80 175 116z" />
<glyph unicode="2" horiz-adv-x="976" d="M461 1466q218 0 379 -194q85 -129 85 -267q0 -210 -201 -399l-375 -429h497q81 0 98 -98v-9q-15 -100 -102 -100h-736q-98 18 -98 102v4q0 49 79 123l584 666q43 60 43 140q0 171 -180 240q-28 9 -66 9h-11q-164 0 -237 -176q-9 -36 -13 -96q-37 -75 -98 -75h-10 q-99 18 -99 98q0 242 230 396q123 65 231 65z" />
<glyph unicode="3" horiz-adv-x="955" d="M474 1462q183 0 315 -163q74 -100 74 -221v-15q0 -170 -118 -273q178 -129 178 -360q0 -239 -225 -396q-117 -64 -231 -64h-11q-270 0 -420 278q-36 103 -36 185q0 78 106 98q86 0 101 -103q0 -146 153 -231q54 -20 107 -20q150 0 228 159q17 46 17 79v30q0 141 -157 219 l-127 28q-55 42 -55 92v4q0 101 132 101q60 0 128 84q26 55 26 101q0 104 -104 162q-37 19 -84 19q-120 0 -171 -128q-14 -132 -42 -132q-27 -30 -69 -30q-102 23 -102 94v19q0 213 212 339q81 41 175 45z" />
<glyph unicode="4" horiz-adv-x="1103" d="M748 1455h23q62 0 95 -90l-5 -43v-720h86l34 3q76 0 102 -101q0 -76 -90 -109l-61 4h-71v-335q0 -73 -98 -94h-10q-99 18 -99 101v328h-476l-98 -4q-80 34 -80 98v15q0 41 46 77q599 779 633 832q35 38 69 38zM320 602h334v435z" />
<glyph unicode="5" d="M183 1460l45 -5h573q85 0 105 -105q0 -85 -106 -108h-497v-319h185q270 0 422 -276q47 -114 47 -201q0 -247 -234 -409q-121 -67 -239 -67h-12q-279 0 -435 288q-37 110 -37 189q35 96 108 96q113 0 113 -158q43 -129 134 -174q74 -28 121 -28q176 0 250 180q14 35 14 83 q0 192 -203 256l-85 8h-261q-74 0 -101 89v563q0 63 93 98z" />
<glyph unicode="6" horiz-adv-x="951" d="M211 446v-35q0 -137 158 -217q45 -13 92 -17q169 0 241 178l10 65v13q0 177 -191 242l-66 7q-164 0 -238 -181zM440 889h38q222 0 376 -221q69 -122 69 -238q0 -229 -209 -383q-119 -77 -247 -77h-19q-220 0 -379 218q-69 124 -69 242q0 155 111 303l410 706q45 27 78 27 q75 0 98 -103q0 -42 -95 -192z" />
<glyph unicode="7" horiz-adv-x="964" d="M679 1252h-535q-103 20 -103 108q22 99 94 99h731q95 -20 95 -90v-19q0 -29 -42 -92l-712 -1260q-42 -28 -72 -28h-6q-99 18 -99 102v15q12 44 649 1165z" />
<glyph unicode="8" horiz-adv-x="972" d="M477 1469q186 0 315 -164q74 -101 74 -222v-19q0 -163 -118 -270q179 -130 179 -362q0 -230 -210 -385q-119 -77 -248 -77h-19q-221 0 -381 218q-69 125 -69 244q0 240 192 375q-62 48 -93 172q-12 31 -12 85v19q0 206 197 332q98 54 193 54zM295 1066q0 -120 146 -169 l37 -4q127 0 174 136l7 48q0 133 -143 176l-44 4q-123 0 -171 -132zM208 433q0 -177 189 -246q23 -9 72 -9q167 0 240 186l7 51v36q0 142 -167 221q-46 14 -84 14q-182 0 -247 -186z" />
<glyph unicode="9" horiz-adv-x="972" d="M210 1023v-34q0 -131 148 -213q43 -19 103 -19q144 0 221 137q26 50 26 110v4q0 170 -179 238q-23 9 -64 9h-23q-140 0 -219 -161q-13 -46 -13 -71zM430 548q-239 17 -377 247q-53 109 -53 213q0 255 248 404q108 53 213 53q240 0 393 -229q64 -122 64 -228 q0 -172 -138 -334l-504 -677q-39 -27 -73 -27q-102 20 -102 105q0 45 126 198z" />
<glyph unicode=":" horiz-adv-x="557" d="M322 982q111 0 154 -129v-37q0 -96 -129 -142h-27q-152 23 -152 157q30 151 154 151zM310 314h16q119 0 150 -139v-23q0 -111 -149 -147q-159 28 -159 162q32 147 142 147z" />
<glyph unicode=";" horiz-adv-x="557" d="M297 956q111 0 154 -129v-37q0 -96 -129 -142h-27q-152 23 -152 157q30 151 154 151zM321 288q158 0 158 -222v-4q0 -208 -249 -290h-28q-75 16 -75 78v20q19 74 88 74l17 -3q61 33 72 33q3 0 3 -2l21 7q-165 26 -165 155q0 109 125 154h33z" />
<glyph unicode="&#x37e;" horiz-adv-x="557" d="M297 956q111 0 154 -129v-37q0 -96 -129 -142h-27q-152 23 -152 157q30 151 154 151zM321 288q158 0 158 -222v-4q0 -208 -249 -290h-28q-75 16 -75 78v20q19 74 88 74l17 -3q61 33 72 33q3 0 3 -2l21 7q-165 26 -165 155q0 109 125 154h33z" />
<glyph unicode="&#x3c;" d="M425 625q23 -10 507 -312q34 -40 34 -79v-4q0 -91 -108 -106q-42 0 -166 85l-539 334q-39 42 -39 83q0 79 128 135q576 371 610 371h12q102 -26 102 -106v-8q0 -76 -140 -143q-5 -7 -401 -250z" />
<glyph unicode="=" d="M243 863h612q83 0 106 -110q-25 -106 -106 -106h-612q-92 0 -107 116q28 100 107 100zM243 531h611q107 -21 107 -113q-22 -103 -106 -103h-620q-82 0 -98 112q0 80 106 104z" />
<glyph unicode="&#x3e;" d="M247 1150q38 0 252 -141q430 -265 466 -296q24 -32 24 -65v-8q0 -76 -112 -123q-588 -375 -618 -375h-19q-103 19 -103 106v4q0 77 143 146l390 249q-478 293 -506 322q-27 37 -27 74q21 107 110 107z" />
<glyph unicode="?" horiz-adv-x="980" d="M527 1463q193 0 349 -169q109 -138 109 -300q0 -203 -183 -362q-162 -89 -162 -258q-15 -103 -108 -103q-99 22 -99 94v30q0 253 261 414q83 82 83 196q0 143 -152 229q-68 21 -109 21q-149 0 -233 -158l-27 -132q-45 -58 -95 -58q-103 22 -103 102q0 219 215 381 q131 73 254 73zM520 228h19q88 0 124 -108v-34q-23 -122 -139 -122q-125 27 -125 128q0 112 121 136z" />
<glyph unicode="@" horiz-adv-x="2019" d="M568 635v-12q0 -220 222 -332q69 -26 124 -26h32q183 0 302 185q44 86 44 165v16q0 212 -211 325q-73 33 -151 33h-4q-223 0 -336 -233q-22 -72 -22 -121zM1293 174q-133 -125 -347 -125h-32q-295 0 -490 295q-72 143 -72 287q0 323 316 511q135 63 262 63 q328 0 519 -320q59 -132 59 -270v-358q129 0 203 131q37 90 37 199v52q0 312 -262 557q-228 189 -500 189q-402 0 -651 -355q-119 -192 -119 -411v-4q0 -364 300 -608q215 -158 470 -158q215 0 437 134l31 7q110 -22 110 -111q0 -121 -358 -221q-98 -25 -192 -25h-52 q-359 0 -661 272q-305 308 -305 718q0 418 338 734q289 244 632 244h36q430 0 747 -367q219 -280 219 -615q0 -426 -294 -544q-77 -34 -156 -34h-28q-158 0 -193 72l-5 28z" />
<glyph unicode="A" horiz-adv-x="1191" d="M709 744l-121 317l-117 -317h238zM586 1458q93 0 131 -160q454 -1183 459 -1217v-13q0 -81 -98 -98h-7q-90 0 -123 149l-161 418h-398l-202 -533q-45 -34 -78 -34h-11q-98 18 -98 101v9l130 352q335 872 365 973q48 53 91 53z" />
<glyph unicode="B" horiz-adv-x="943" d="M72 1467l50 -8h225l15 3q190 0 321 -175q67 -98 67 -213v-11q0 -140 -85 -237q228 -125 228 -400q0 -276 -286 -424q-93 -32 -166 -32h-342q-99 18 -99 102v1287q15 100 72 100v8zM207 1252v-363h109q165 0 210 113q13 33 13 65v11q0 124 -145 170l-75 4h-112zM207 682 v-505h166q199 0 265 110q44 63 44 139v7q0 181 -198 242l-101 7h-176z" />
<glyph unicode="C" horiz-adv-x="1300" d="M744 1466q233 0 439 -146q22 -42 22 -65v-8q0 -91 -107 -102h-13l-136 70q-126 40 -205 40q-255 0 -440 -233q-93 -156 -93 -304q0 -298 280 -473q123 -64 246 -64h11q157 0 327 106h35q95 -21 95 -98v-11q0 -102 -275 -184q-83 -24 -174 -24h-19q-370 0 -619 342 q-118 199 -118 406q0 389 354 633q190 115 390 115z" />
<glyph unicode="D" horiz-adv-x="1140" d="M72 1478l52 -11h189l42 4q338 0 585 -292q159 -206 159 -466q0 -359 -315 -604q-201 -139 -424 -139h-261q-99 18 -99 102v1295q15 100 72 100v11zM208 1263v-1085h133q342 0 507 331q43 112 43 215q0 247 -220 432q-134 107 -406 107h-57z" />
<glyph unicode="E" horiz-adv-x="1031" d="M72 1479l52 -11h737l15 4q95 0 110 -114q-21 -98 -113 -98h-665v-452h424l54 4q76 0 99 -103q0 -73 -86 -109l-82 4h-409v-426h683q79 0 96 -112q-29 -96 -99 -96h-789q-99 18 -99 102v1296q15 100 72 100v11z" />
<glyph unicode="F" horiz-adv-x="959" d="M72 1479l52 -11h737l15 4q95 0 110 -114q-21 -98 -113 -98h-665v-452h424l54 4q76 0 99 -103q0 -73 -86 -109l-82 4h-409v-506l5 -27q-24 -101 -103 -101h-11q-99 18 -99 102v1296q15 100 72 100v11z" />
<glyph unicode="G" horiz-adv-x="1250" d="M733 1466q238 0 433 -136q28 -38 28 -71v-4q0 -83 -103 -102q-22 0 -162 66q-82 32 -158 32h-61q-198 0 -381 -193q-118 -162 -118 -332v-15q0 -278 258 -455q134 -75 268 -75h15q132 0 250 64v296h-246q-98 17 -98 102v5q17 100 101 100h352q81 0 98 -100v-421 q0 -111 -61 -140q-199 -117 -389 -117h-22q-370 0 -619 342q-118 195 -118 406q0 376 334 622q206 126 399 126z" />
<glyph unicode="H" horiz-adv-x="1100" d="M94 1463h18q95 -20 95 -90v-568h652v560q17 98 98 98h14q95 -18 95 -98v-1301q0 -73 -99 -94h-10q-98 18 -98 102v530h-652v-534q0 -81 -98 -98h-7q-83 0 -102 103v1279q12 111 94 111z" />
<glyph unicode="I" horiz-adv-x="539" d="M160 1479l23 -4h137l18 4q106 -23 106 -110q-18 -103 -102 -103h14v-1087h-7q74 0 95 -100v-10q-18 -99 -102 -99h-183q-99 18 -99 102v7q21 100 95 100h-7v1087h14q-90 0 -102 108v6q0 70 100 99z" />
<glyph unicode="J" horiz-adv-x="976" d="M846 1469h12q80 0 98 -99v-926q0 -255 -238 -409q-113 -65 -232 -65h-19q-236 0 -394 227q-73 121 -73 254q22 99 95 99h15q102 0 102 -147q5 -70 89 -161q81 -64 177 -64q190 0 260 199q10 35 10 71v926q18 95 98 95z" />
<glyph unicode="K" horiz-adv-x="1070" d="M122 1464h5q100 -17 100 -98v-581q658 657 674 657l27 4h12q95 -18 95 -98v-12q0 -51 -89 -124l-445 -448l522 -646l4 -33v-13q0 -81 -98 -98h-7q-61 0 -149 129l-423 513l-123 -126v-422q0 -81 -100 -98h-5q-83 0 -102 102v1290q19 102 102 102z" />
<glyph unicode="L" horiz-adv-x="951" d="M94 1463h18q95 -20 95 -90v-1196h587q87 0 103 -111q-29 -96 -103 -96h-692q-83 0 -102 103v1279q12 111 94 111z" />
<glyph unicode="M" horiz-adv-x="1490" d="M267 874v-806q0 -81 -98 -98h-7q-83 0 -102 103v1278q12 111 94 111h15q83 0 111 -118l459 -1026q9 35 302 703l188 405q34 36 74 36h15q82 0 94 -111v-1278q-19 -103 -102 -103h-7q-98 17 -98 98v807q-372 -842 -389 -869q-41 -36 -80 -36q-88 0 -145 178z" />
<glyph unicode="N" horiz-adv-x="1283" d="M998 374v992q18 95 98 95h11q81 0 98 -98v-1288q0 -87 -107 -105q-61 0 -158 144l-733 936v-978q0 -81 -100 -98h-5q-83 0 -102 102v1274q12 111 94 111h15q67 0 108 -88q53 -60 781 -999z" />
<glyph unicode="O" horiz-adv-x="1536" d="M748 1465q378 0 632 -350q115 -199 115 -401q0 -374 -338 -622q-192 -122 -402 -122h-15q-386 0 -629 358q-111 182 -111 393q0 358 314 602q205 142 434 142zM207 710q0 -259 230 -437q142 -96 303 -96h19q253 0 429 226q100 144 100 315q0 293 -269 464 q-132 76 -271 76q-268 0 -445 -234q-96 -138 -96 -314z" />
<glyph unicode="P" horiz-adv-x="917" d="M94 1468h346q218 0 371 -224q57 -115 57 -208v-27q0 -203 -183 -350q-125 -86 -245 -86h-232v-505q0 -80 -99 -98h-7q-83 0 -102 103v1283q12 112 94 112zM208 1260v-479h205q170 0 234 163q13 33 13 80q0 148 -154 220q-35 16 -85 16h-213z" />
<glyph unicode="Q" horiz-adv-x="1553" d="M1206 426q82 135 82 292q0 293 -269 465q-131 75 -271 75q-268 0 -445 -234q-96 -138 -96 -314q0 -259 230 -437q142 -96 303 -96h19q177 0 300 98q-133 145 -156 181v38q18 95 98 95h11q52 0 147 -116zM1348 273q151 -149 151 -194v-7q0 -80 -103 -102q-61 0 -167 130 q-28 21 -29 21q-194 -151 -445 -151h-15q-385 0 -629 358q-111 182 -111 393q0 358 314 602q206 142 434 142q378 0 633 -350q114 -198 114 -401q0 -237 -147 -441z" />
<glyph unicode="R" horiz-adv-x="934" d="M94 1465h315q218 0 355 -228q45 -89 45 -185v-15q0 -214 -208 -351l-10 -5q332 -573 332 -594v-19q0 -81 -100 -98h-6q-73 0 -140 145l-301 514h-168v-561q0 -81 -100 -98h-6q-83 0 -102 103v1280q12 112 94 112zM208 1261v-425h185q156 0 206 169l3 27v28 q0 123 -140 188q-39 13 -129 13h-125z" />
<glyph unicode="S" horiz-adv-x="892" d="M451 1467q201 0 337 -185l7 -25v-27q0 -74 -101 -91q-46 0 -125 88q-55 35 -106 35h-23q-108 0 -164 -117q-12 -26 -12 -52v-31q0 -124 150 -180q131 0 287 -126q151 -153 151 -336q0 -225 -193 -368q-118 -82 -261 -82q-232 0 -387 204l-11 43q19 103 104 103 q54 0 123 -88q83 -57 152 -57h34q134 0 217 153q13 49 13 73v38q0 133 -154 217l-195 54q-236 136 -236 356v27q0 218 231 340q87 34 162 34z" />
<glyph unicode="T" horiz-adv-x="1187" d="M94 1466h936q95 -18 95 -98v-15q0 -82 -111 -94h-348v-1191q0 -81 -100 -98h-5q-83 0 -102 103v1186h-356q-103 20 -103 108q22 99 94 99z" />
<glyph unicode="U" horiz-adv-x="1168" d="M134 1463h18q95 -20 95 -90v-806q0 -243 135 -323q86 -67 191 -67q202 0 305 208q21 65 21 137v843q17 98 98 98h14q95 -18 95 -98v-881q0 -240 -228 -417q-145 -97 -294 -97h-26q-250 0 -434 244q-84 132 -84 323v815q12 111 94 111z" />
<glyph unicode="V" horiz-adv-x="1212" d="M585 378l393 1050q45 43 87 43h4q83 0 103 -109l-480 -1295q-22 -97 -105 -97h-3q-92 0 -132 169q-452 1194 -452 1222v8q0 86 108 102q87 0 133 -180z" />
<glyph unicode="W" horiz-adv-x="1739" d="M850 993l-280 -973q-41 -50 -88 -50h-15q-88 0 -114 167q-324 1105 -353 1227q23 102 95 102h16q89 0 112 -137l254 -885q270 949 292 985q36 37 77 37h11q93 0 116 -159q25 -69 250 -861l282 970q39 50 80 50h18q95 -20 95 -90v-23l-387 -1339q-45 -44 -86 -44h-4 q-97 0 -121 164z" />
<glyph unicode="X" horiz-adv-x="1271" d="M95 1467h16q62 0 97 -70l400 -510l438 562q32 18 58 18h12q80 0 98 -99v-6q0 -44 -109 -171l-368 -474l466 -597l11 -40v-11q-18 -99 -102 -99h-4q-68 0 -109 86l-391 498l-438 -561q-31 -23 -63 -23h-7q-99 18 -99 102v11q0 36 169 243l308 398q-458 580 -472 610l-6 32 q23 101 95 101z" />
<glyph unicode="Y" horiz-adv-x="1111" d="M536 897q353 531 372 545q28 21 52 21h23q69 0 94 -98q0 -46 -135 -230l-301 -450v-604q-13 -111 -94 -111h-16q-72 0 -98 86v626q0 5 -154 234l-273 411l-6 35q23 101 95 101h16q69 0 105 -88z" />
<glyph unicode="Z" horiz-adv-x="1237" d="M94 1467h1021q80 0 98 -99v-6q0 -40 -90 -145l-804 -1039h794q100 -15 100 -102v-7q-18 -99 -102 -99h-1009q-86 0 -102 108q0 41 188 275l703 907h-788q-103 20 -103 108q22 99 94 99z" />
<glyph unicode="[" horiz-adv-x="779" d="M319 1614l71 -7h290l49 4q98 -34 98 -102v-12q0 -70 -89 -106l-74 4h-201v-1632h265q99 -22 99 -98v-12q0 -93 -112 -106h-361q-107 21 -107 110v1833q9 117 72 117v7z" />
<glyph unicode="\" horiz-adv-x="691" d="M107 1578h4q99 0 144 -193l511 -1394q-20 -113 -107 -113h-16q-85 0 -133 189q-472 1271 -510 1399q17 112 107 112z" />
<glyph unicode="]" horiz-adv-x="758" d="M120 1611l65 -4h274l48 4q99 -27 99 -106v-1860q0 -78 -103 -98h-371q-93 0 -106 112v6q0 71 105 103l24 -5h235v1632h-189l-81 -4q-94 31 -94 110q0 76 94 110z" />
<glyph unicode="^" horiz-adv-x="942" d="M409 1464h21q71 0 138 -131q236 -357 236 -387v-24q0 -82 -112 -98q-70 0 -168 182l-101 150l-200 -309q-48 -23 -77 -23q-78 0 -102 107q0 44 85 168q211 333 240 350z" />
<glyph unicode="_" horiz-adv-x="958" d="M106 1h887q102 -18 102 -100v-15q-20 -97 -100 -97h-889q-90 0 -105 114q28 98 105 98z" />
<glyph unicode="`" horiz-adv-x="752" d="M310 1441h15q53 0 130 -93q188 -177 188 -210l5 -23q-23 -106 -107 -106h-8q-58 0 -185 145q-137 118 -137 177v12q0 76 99 98z" />
<glyph unicode="a" horiz-adv-x="1202" d="M206 519v-11q0 -205 206 -308q64 -24 115 -24h29q170 0 281 171q40 80 40 153v15q0 197 -195 302q-67 30 -140 30h-4q-207 0 -312 -216q-20 -66 -20 -112zM878 84q-122 -114 -322 -114h-29q-276 0 -460 276q-67 134 -67 269q0 302 296 479q126 59 246 59q307 0 486 -300 q55 -123 55 -253v-433q0 -80 -98 -97h-7q-68 0 -101 80v11z" />
<glyph unicode="b" horiz-adv-x="1201" d="M139 1462h17q95 -21 95 -95v-420q123 118 341 118q211 0 383 -160q164 -172 164 -387q0 -308 -291 -484q-127 -64 -245 -64h-30q-222 0 -412 207q-117 156 -117 367v823q0 74 95 95zM251 529v-19q0 -212 223 -316q58 -17 106 -17h23q206 0 312 222q17 67 17 103v23 q0 211 -226 316q-69 17 -107 17h-15q-206 0 -312 -219q-21 -61 -21 -110z" />
<glyph unicode="c" horiz-adv-x="1002" d="M543 1056q210 0 384 -160q17 -31 17 -57v-7q-18 -98 -101 -98h-4q-37 0 -136 75q-74 38 -149 38h-22q-199 0 -302 -210q-24 -71 -24 -128q0 -203 211 -309q62 -24 134 -24q118 0 240 103l41 9h15q80 0 97 -98v-6q0 -98 -262 -198q-86 -16 -128 -16h-30q-220 0 -408 206 q-116 163 -116 337q0 265 234 444q149 99 309 99z" />
<glyph unicode="d" horiz-adv-x="1166" d="M978 1462h18q95 -20 95 -91v-748l4 -128q0 -158 -128 -329q-181 -196 -408 -196h-30q-222 0 -412 207q-117 165 -117 341q0 266 236 447q150 100 312 100q208 0 340 -118v359l-4 65q29 91 94 91zM207 529v-19q0 -212 223 -316q58 -17 106 -17h23q206 0 312 222 q17 67 17 103v23q0 211 -226 316q-69 17 -107 17h-15q-206 0 -312 -219q-21 -61 -21 -110z" />
<glyph unicode="e" horiz-adv-x="1132" d="M539 1055q313 0 486 -297q60 -117 60 -253v-22q-18 -102 -101 -102h-749q29 -99 163 -171q79 -30 148 -30q80 0 192 56h32q94 -18 94 -98v-11q0 -118 -297 -157h-28q-292 0 -468 273q-71 129 -71 270q0 298 281 474q137 68 258 68zM217 587h655q0 37 -83 149 q-112 106 -220 106h-41q-164 0 -270 -162q-37 -64 -41 -93z" />
<glyph unicode="f" horiz-adv-x="837" d="M596 1467h94q78 0 94 -108q0 -77 -103 -100h-60q-115 0 -152 -127l-3 -75v-22h132l60 3q73 0 96 -99v-14q0 -72 -95 -95h-193v-719l3 -42q0 -76 -102 -99q-76 0 -109 90l4 51v719h-168q-78 0 -94 108q0 59 85 100l82 -3h91v38q0 274 244 377z" />
<glyph unicode="g" horiz-adv-x="1145" d="M544 1051q241 0 417 -200q122 -167 122 -317l-4 -126v-449q0 -141 -206 -299q-157 -103 -329 -103q-294 0 -486 262q-38 64 -38 91v11q0 73 94 94h14q71 0 111 -108q122 -153 305 -153q219 0 328 196l6 40v97q-123 -114 -323 -114h-30q-218 0 -405 204q-115 162 -115 335 q0 263 232 440q148 99 307 99zM210 523v-18q0 -208 219 -310q57 -17 104 -17h22q203 0 307 218q16 65 16 101v23q0 207 -221 310q-69 16 -106 16h-14q-203 0 -307 -215q-20 -59 -20 -108z" />
<glyph unicode="h" horiz-adv-x="1100" d="M142 1460h18q95 -20 95 -90v-396q104 90 280 90q268 0 429 -253q61 -113 61 -215v-528q0 -81 -100 -98h-5q-77 0 -102 94v510q0 184 -191 266q-45 13 -92 13q-189 0 -267 -203q-13 -43 -13 -148v-434q0 -81 -100 -98h-5q-77 0 -102 94v1298q21 98 94 98z" />
<glyph unicode="i" horiz-adv-x="431" d="M211 1316q99 -25 99 -94v-22q0 -79 -107 -94q-77 0 -101 105q21 105 109 105zM211 1060q99 -25 99 -94v-898q0 -81 -100 -98h-6q-82 0 -101 102v874q12 114 108 114z" />
<glyph unicode="j" horiz-adv-x="656" d="M104 -438q-89 0 -104 109q0 83 109 99q188 0 249 186l8 106v894q0 84 105 100q99 -19 99 -100v-928q0 -295 -280 -431q-90 -32 -167 -35h-19zM465 1308q105 -21 105 -105q0 -88 -110 -105q-94 27 -94 94v22q0 68 99 94z" />
<glyph unicode="k" horiz-adv-x="1056" d="M410 518l-125 -80v-370q0 -81 -100 -98h-6q-77 0 -102 94v1302q21 99 94 99h18q96 -21 96 -91v-690q489 324 586 379h27q86 0 102 -107q0 -66 -136 -138l-276 -189l406 -514l6 -33v-9q-18 -99 -102 -99h-7q-60 0 -157 140z" />
<glyph unicode="l" horiz-adv-x="473" d="M159 1457h18q95 -20 95 -90v-1190h49q73 0 94 -99v-8q-17 -100 -102 -100h-146q-83 0 -102 102v1275q12 110 94 110z" />
<glyph unicode="m" horiz-adv-x="1725" d="M171 1036q75 0 96 -66q81 66 235 66q204 0 329 -152q43 80 241 140l88 12q249 0 392 -236q48 -99 48 -190v-548q0 -73 -97 -92h-9q-97 17 -97 100v532q0 160 -168 221l-46 6h-35q-133 0 -204 -156q-9 -33 -9 -56v-547q-18 -100 -99 -100h-7q-97 17 -97 96v452 q0 175 -43 215q-72 96 -184 96h-11q-154 0 -217 -166q-10 -40 -10 -109v-488q0 -79 -97 -96h-6q-81 0 -100 100v853q11 113 107 113z" />
<glyph unicode="n" horiz-adv-x="1197" d="M187 1053q97 -25 97 -94v-15q120 109 324 109q224 0 397 -186q126 -156 126 -329v-475q0 -74 -98 -93h-10q-98 18 -98 101v418q0 260 -221 341q-54 14 -96 14h-11q-185 0 -287 -193q-26 -57 -26 -192v-392q0 -80 -98 -97h-7q-82 0 -101 102v867q12 114 109 114z" />
<glyph unicode="o" horiz-adv-x="1111" d="M539 1048q209 0 378 -158q161 -169 161 -381q0 -303 -286 -476q-125 -63 -242 -63h-30q-218 0 -405 204q-115 162 -115 335q0 263 232 440q148 99 307 99zM209 520v-18q0 -187 181 -290q64 -33 138 -33h22q193 0 296 201q23 62 23 122v18q0 155 -143 262q-83 57 -191 57 q-211 0 -310 -222q-16 -52 -16 -97z" />
<glyph unicode="p" horiz-adv-x="1172" d="M595 1050q209 0 377 -157q161 -169 161 -380q0 -302 -285 -474q-125 -63 -241 -63h-30q-188 0 -314 114v-443q0 -71 -101 -93q-80 0 -103 101v825q0 405 383 546q49 16 153 24zM267 524v-19q0 -185 180 -288q64 -33 138 -33h22q193 0 295 200q23 62 23 121v19 q0 154 -142 261q-84 57 -191 57q-210 0 -308 -222q-17 -53 -17 -96z" />
<glyph unicode="q" horiz-adv-x="1153" d="M555 1040q207 0 375 -155q160 -156 160 -413v-821q-23 -101 -103 -101q-101 22 -101 93v440q-122 -113 -320 -113h-29q-217 0 -403 203q-114 161 -114 332q0 261 230 437q148 98 305 98zM227 516v-18q0 -185 180 -287q63 -33 137 -33h22q192 0 294 199q23 62 23 121v18 q0 153 -143 260q-82 57 -189 57q-209 0 -307 -221q-17 -52 -17 -96z" />
<glyph unicode="r" horiz-adv-x="925" d="M208 1061q98 -25 98 -94v-16q124 110 323 110q107 0 232 -54q43 -44 43 -85v-7q-17 -98 -101 -98h-9q-103 33 -150 33h-22q-202 0 -296 -210q-20 -55 -20 -128v-444q0 -81 -100 -98h-6q-82 0 -101 102v874q12 115 109 115z" />
<glyph unicode="s" horiz-adv-x="968" d="M704 327q-1 20 -41 24q-506 113 -540 144q-103 78 -103 193q0 156 218 296q120 63 237 63q274 0 433 -253l4 -37v-6q0 -85 -102 -100q-68 0 -126 96q-91 89 -209 89q-154 0 -241 -144l-2 -10q0 -20 86 -27q430 -104 475 -121q123 -81 123 -205v-3q0 -171 -242 -309 q-105 -47 -221 -47q-240 0 -405 224q-21 30 -21 58v22q0 81 110 93q53 0 125 -103q88 -82 206 -82q140 0 232 131z" />
<glyph unicode="t" horiz-adv-x="691" d="M287 1420h17q93 -20 93 -89v-300h119l33 4q77 0 101 -100q0 -75 -88 -107l-60 4h-105v-509q0 -120 68 -143l79 -7h40q73 0 92 -97v-9q-17 -97 -100 -97h-77q-194 0 -288 210q-17 53 -17 121v531h-42l-64 -4q-88 31 -88 106q17 97 66 97v7l69 -7h59v280q12 109 93 109z " />
<glyph unicode="u" horiz-adv-x="1188" d="M921 80q-141 -110 -311 -110h-26q-248 0 -430 242q-84 131 -84 320v411q12 114 109 114q97 -25 97 -94v-401q0 -240 133 -320q86 -66 190 -66q199 0 301 206q21 67 21 135v438q20 102 108 102q98 -22 98 -101v-892q0 -75 -98 -94h-10q-98 18 -98 101v9z" />
<glyph unicode="v" horiz-adv-x="1103" d="M98 1059h7q80 0 130 -142l294 -604q325 690 352 719q36 27 72 27q102 -19 102 -101v-4q0 -26 -168 -374l-281 -577q-44 -33 -77 -33h-3q-85 0 -141 162q-363 741 -385 806v26q18 95 98 95z" />
<glyph unicode="w" horiz-adv-x="1382" d="M658 600l-188 -581q-37 -49 -86 -49h-3q-74 0 -103 87l-278 876q21 106 105 106q93 0 124 -171l153 -468q183 580 201 604q35 30 76 35q93 0 119 -145l160 -494q174 550 194 593q43 46 87 46q101 -20 101 -109l-295 -918q-45 -42 -85 -42h-3q-93 0 -125 166z" />
<glyph unicode="x" horiz-adv-x="930" d="M450 662q52 61 279 346q21 20 70 29q99 -24 99 -93v-22q0 -34 -139 -196l-180 -227q319 -382 319 -411v-22q0 -79 -98 -96h-5q-60 0 -121 96l-224 275q-273 -341 -293 -355q-26 -16 -53 -16h-3q-85 0 -100 105q0 42 147 208l171 220l-309 387l-10 43q21 103 104 103 q61 0 138 -118q164 -196 208 -256z" />
<glyph unicode="y" horiz-adv-x="926" d="M455 383q249 607 269 630q35 29 73 29q96 -18 96 -96v-6q-4 -31 -347 -849q-163 -405 -188 -437q-25 -19 -65 -30q-101 22 -101 91v17q0 19 155 393l-330 805v12q19 96 100 96t129 -158z" />
<glyph unicode="z" horiz-adv-x="980" d="M66 1045l69 -7h635l39 5q93 -29 93 -94v-22q0 -35 -92 -135l-493 -618h492q93 -18 93 -96v-12q0 -79 -97 -96h-705q-85 0 -100 106q0 42 158 224l427 538h-432l-64 -4q-89 31 -89 107q17 97 66 97v7z" />
<glyph unicode="{" d="M712 1620h141q90 0 114 -87v-27q0 -72 -95 -94h-148q-42 0 -42 -46v-579q0 -56 -39 -118q42 -47 42 -133v-586q0 -31 43 -31h144q95 -20 95 -98v-15q0 -74 -99 -95h-152q-172 0 -235 191l-4 55v575q0 26 -26 31h-84q-103 20 -103 109q22 100 95 100h61q53 0 53 23v574 q0 188 192 247z" />
<glyph unicode="|" d="M534 1649h11q96 -18 96 -99v-1908q0 -72 -104 -95q-86 0 -106 108v1890q18 104 103 104z" />
<glyph unicode="}" d="M207 1608h154q162 0 228 -180l4 -39v-582q0 -34 56 -34h65q85 -26 85 -97v-15q0 -75 -98 -94h-82q-30 0 -30 -64v-554q0 -147 -180 -217l-50 -4h-154q-99 15 -99 101v7q17 98 97 98h139q41 0 41 30v562q0 96 42 147q-38 55 -38 119v580q0 30 -41 30h-143q-80 0 -97 101 q15 105 101 105z" />
<glyph unicode="~" d="M403 881h24q101 0 225 -83l29 -8h16l98 30q128 -25 128 -127q0 -123 -210 -150h-36q-100 0 -223 84l-30 7h-17l-91 -24h-17q-113 22 -113 117v14q0 96 127 125q42 15 90 15z" />
<glyph unicode="&#xa1;" horiz-adv-x="672" d="M330 1357h14q83 0 116 -84l8 -33q0 -115 -129 -132q-103 0 -123 129q26 120 114 120zM338 1095h9q93 -16 93 -96v-931q-14 -94 -96 -94h-9q-91 17 -91 93v935q0 77 94 93z" />
<glyph unicode="&#xa2;" horiz-adv-x="1105" d="M529 825q-164 -19 -255 -202q-23 -70 -23 -124q0 -128 87 -220zM802 1417h14q93 -17 93 -96v-16l-110 -322q172 -79 172 -163v-6q-17 -97 -99 -97h-4q-37 0 -132 74l-4 1l-214 -615q9 -3 68 -3q115 0 235 99l39 11h15q79 0 96 -97v-7q0 -95 -256 -193q-84 -16 -125 -16 h-29q-53 0 -112 16q-88 -269 -119 -291l-60 -22q-105 24 -105 104q0 19 100 296q-217 162 -217 428q0 287 275 465q136 66 261 66l18 -1q113 341 134 356q31 29 66 29z" />
<glyph unicode="&#xa3;" horiz-adv-x="946" d="M227 804q-94 180 -94 290q0 249 262 384q83 25 123 25h39q197 0 338 -188l6 -40q-25 -106 -108 -106q-49 0 -121 81q-56 42 -115 42h-23q-132 0 -186 -157l-4 -45q0 -69 126 -286h218q104 -20 104 -110q-23 -101 -96 -101h-170l-1 5v-52q0 -133 -111 -353l-1 -3h345 q-4 0 -4 6q0 15 21 62q45 44 90 44q105 -22 105 -108q0 -35 -80 -181q-40 -34 -78 -34h-568q-84 0 -103 104q0 28 152 358q22 63 22 116l-2 36h-134q-100 19 -100 107q20 104 107 104h41z" />
<glyph unicode="&#xa4;" d="M442 715q0 -79 91 -110h23q85 0 106 97v22q-23 97 -99 97l-9 3q-112 -18 -112 -109zM689 423q-61 -30 -141 -30q-59 0 -131 30q-60 -74 -117 -74h-11q-99 19 -99 102v12q0 56 72 116q-28 56 -28 120v20q0 76 28 132q-72 59 -72 112v25q28 89 94 89h20q49 0 114 -72 q50 28 118 28h24q81 0 129 -28q62 72 107 72h33q89 -28 89 -102v-8q0 -51 -73 -118q29 -56 29 -134q0 -69 -30 -139q74 -59 74 -113v-21q-29 -93 -98 -93h-20q-38 0 -111 74z" />
<glyph unicode="&#xa5;" horiz-adv-x="1262" d="M538 445h-326l-36 -4q-106 22 -106 104q0 85 104 104h239q-57 87 -57 100q0 2 2 2h-196q-92 26 -92 100q0 92 114 103h27q-68 107 -67 107q-74 32 -74 103q0 73 101 96h172q86 0 104 -104q0 -73 -53 -88l250 -378q259 376 276 376q1 0 1 -2h18q-63 38 -63 85v22 q27 89 104 89h144q87 0 103 -105q0 -51 -67 -94l-72 -107h18q114 -11 114 -100v-7q0 -78 -97 -96h-175l-67 -102h235q104 -20 104 -100v-4q0 -86 -74 -96v-12l-68 8h-322v-379q0 -73 -101 -96h-6q-83 0 -115 84l4 69v322z" />
<glyph unicode="&#xa6;" horiz-adv-x="770" d="M389 1645h11q96 -18 96 -99v-681q0 -81 -100 -99h-7q-84 0 -103 104v671q18 104 103 104zM397 426q99 -26 99 -95v-693q0 -72 -104 -95q-86 0 -106 108v659q12 116 111 116z" />
<glyph unicode="&#xa7;" d="M541 1470h35q179 0 319 -168l6 -36q-14 -93 -84 -93h-19q-32 0 -113 76q-57 37 -124 37q-159 0 -211 -176v-42q0 -135 153 -200q195 -30 250 -90q133 -118 133 -254v-50q0 -130 -118 -232q145 -110 145 -304q0 -221 -210 -348q-94 -47 -181 -47h-12q-196 0 -334 172 l-6 35q0 80 98 94q39 0 107 -69q66 -48 135 -48q142 0 204 150l11 60q0 157 -179 216q-124 15 -180 51q-181 122 -181 293v19q0 174 119 255q-142 112 -142 297v15q0 222 214 344q83 43 165 43zM373 518v-13q0 -111 125 -154l34 -3h21q102 0 146 125l3 34q0 118 -139 158 l-35 4q-107 0 -152 -121z" />
<glyph unicode="&#xa8;" horiz-adv-x="1024" d="M326 1339q106 -25 106 -113q-21 -107 -113 -107q-107 21 -107 114q25 106 114 106zM778 1339q106 -25 106 -113q-21 -107 -113 -107q-107 21 -107 114q25 106 114 106z" />
<glyph unicode="&#xa9;" horiz-adv-x="1674" d="M833 1441q361 0 599 -324q120 -183 120 -399q0 -386 -358 -621q-171 -98 -369 -98q-325 0 -561 279q-154 206 -154 440q0 352 309 591q196 132 414 132zM219 729v-18q0 -324 309 -528q157 -79 305 -79q314 0 516 283q98 158 98 335q0 318 -294 523q-157 87 -301 87h-38 q-281 0 -482 -256q-113 -163 -113 -347zM844 1230q189 0 350 -143q15 -20 15 -41v-8q0 -64 -79 -71h-3q-15 0 -125 79q-95 37 -165 37q-227 0 -343 -233q-23 -65 -23 -124v-27q0 -183 185 -305q95 -49 181 -49q134 0 267 110l30 7q75 -10 75 -71v-8q0 -72 -218 -162 q-96 -22 -154 -22q-298 0 -463 289q-53 116 -53 230q0 267 248 437q123 75 275 75z" />
<glyph unicode="&#xaa;" horiz-adv-x="648" d="M318 1427h33q169 0 257 -188l17 -84l-4 -67v-137l5 -27q-13 -48 -53 -65h-18q-39 0 -66 46v-8q-45 -38 -142 -38h-8q-206 0 -276 216q-10 24 -10 70q0 197 219 277zM189 1136q0 -106 130 -141h28q96 0 139 117l3 34q0 97 -110 142l-42 7q-99 0 -144 -113z" />
<glyph unicode="&#xab;" horiz-adv-x="944" d="M661 492q184 -215 201 -249v-30q-13 -67 -70 -67h-4q-47 0 -128 115q-170 193 -170 227v30q213 269 269 314l42 7q61 -32 61 -75v-4q0 -32 -201 -268zM545 842q69 -22 69 -62v-20q0 -31 -191 -255l-8 -12q203 -232 203 -272q-13 -71 -70 -71h-30q-46 34 -270 313l-6 30 q0 36 127 182q128 163 151 163l4 4h21z" />
<glyph unicode="&#xac;" d="M177 782h715q99 -19 99 -102v-348q0 -78 -103 -98h-10q-103 19 -103 106v226h-589q-107 21 -107 113q23 103 98 103z" />
<glyph unicode="&#xae;" horiz-adv-x="1674" d="M828 1446q364 0 604 -325q121 -184 121 -400q0 -387 -360 -623q-173 -98 -372 -98q-328 0 -565 279q-156 208 -156 442q0 353 311 593q198 132 417 132zM210 732v-18q0 -325 311 -529q158 -79 307 -79q317 0 520 283q99 159 99 336q0 319 -296 525q-158 87 -304 87h-38 q-283 0 -485 -257q-114 -164 -114 -348zM616 1216h186q205 0 269 -208q8 -21 8 -64q0 -149 -156 -234q225 -388 235 -416v-7q-16 -45 -45 -45h-15q-34 0 -80 98l-201 347h-148v-396q-7 -49 -42 -49h-26q-34 19 -34 45v876q8 53 49 53zM669 1114v-329h95q160 0 197 98 q15 35 15 72q0 106 -121 151q-17 8 -49 8h-137z" />
<glyph unicode="&#xaf;" horiz-adv-x="806" d="M18 1806h847q97 -18 97 -100v-15q-18 -97 -97 -97h-847q-86 0 -100 114q27 98 100 98z" />
<glyph unicode="&#xb0;" horiz-adv-x="674" d="M370 1311q-62 0 -106 -44t-44 -106t43.5 -105t106.5 -43t105.5 42.5t42.5 105.5t-43.5 106.5t-104.5 43.5zM369 1472q127 0 217 -90.5t90 -217.5q0 -126 -91 -217t-218 -91q-130 0 -218.5 90t-88.5 218t90.5 218t218.5 90z" />
<glyph unicode="&#xb1;" d="M543 1218h24q64 0 99 -94l-5 -45v-161h196q108 -17 108 -106v-8q0 -79 -100 -107l-32 5h-172v-157l4 -44q0 -79 -107 -103q-79 0 -113 94l4 53v157h-172l-27 -5q-105 27 -105 107v8q0 86 107 106h197v160l-5 41q31 99 99 99zM239 398l53 -4h533l40 4q100 -27 100 -106v-8 q0 -71 -89 -106l-74 4h-494l-69 -4q-94 31 -94 106v8q0 71 94 106z" />
<glyph unicode="&#xb2;" d="M536 1567q109 0 190 -98q43 -65 43 -134q0 -106 -98 -198l-153 -174h198q51 0 62 -60v-7q-9 -62 -64 -62h-346q-60 11 -60 64v2q0 29 41 68l272 311q17 23 17 56q0 69 -73 97q-11 3 -26 3h-5q-66 0 -95 -70q-4 -16 -7 -45q-22 -47 -61 -47h-6q-61 11 -61 62 q0 122 116 199q61 33 116 33z" />
<glyph unicode="&#xb3;" d="M532 1573q95 0 163 -84q38 -52 38 -115v-7q0 -87 -46 -129q75 -54 75 -172q0 -122 -114 -201q-60 -34 -119 -34h-5q-138 0 -215 142q-18 53 -18 94q0 49 65 63q56 0 65 -64q0 -61 64 -97q22 -8 44 -8q62 0 94 66q7 19 7 32v14q0 57 -64 90l-62 13q-35 27 -35 58v2 q0 64 78 64q21 0 48 33q10 21 10 40q0 40 -41 63q-14 7 -33 7q-46 0 -66 -49q-8 -75 -28 -75q-12 -14 -42 -14q-63 14 -63 60v9q0 111 110 175q42 22 90 24z" />
<glyph unicode="&#xb4;" horiz-adv-x="889" d="M546 1444q94 0 110 -116q0 -55 -192 -227q-76 -93 -130 -93h-15q-99 19 -99 102v16q0 47 149 181q120 137 177 137z" />
<glyph unicode="&#xb5;" horiz-adv-x="1180" d="M966 77q-141 -110 -310 -110h-26q-187 0 -306 108v-440q0 -71 -101 -93q-84 0 -104 105v1289q12 113 109 113q96 -25 96 -93v-399q0 -240 133 -318q85 -66 188 -66q199 0 300 205q21 66 21 134v436q20 101 107 101q98 -22 98 -101v-887q0 -73 -98 -94h-9q-98 18 -98 101 v9z" />
<glyph unicode="&#xb6;" horiz-adv-x="1024" d="M433 1465h465q95 -21 95 -91v-19q0 -81 -83 -98v-1184q-19 -103 -102 -103h-6q-100 17 -100 98v1189h-80v-1187q-17 -100 -102 -100h-7q-99 18 -99 102v644q-184 0 -307 212q-37 83 -37 166q0 219 220 337q69 34 143 34z" />
<glyph unicode="&#xb7;" horiz-adv-x="508" d="M305 776q114 0 146 -133v-25q0 -83 -99 -128q-18 -9 -47 -9h-3q-121 0 -146 146q0 99 104 140q17 9 45 9z" />
<glyph unicode="&#x2219;" horiz-adv-x="508" d="M305 776q114 0 146 -133v-25q0 -83 -99 -128q-18 -9 -47 -9h-3q-121 0 -146 146q0 99 104 140q17 9 45 9z" />
<glyph unicode="&#xb8;" horiz-adv-x="1024" d="M578 68q96 -19 96 -90v-40q104 -69 104 -186q0 -169 -197 -218l-53 3h-50l-61 -3q-85 28 -85 89v17q17 90 93 90h121q36 0 36 22v3q0 15 -41 23q-63 30 -63 82v111q0 78 100 97z" />
<glyph unicode="&#xb9;" d="M561 1594h12q59 -13 59 -61v-614q-11 -61 -64 -61h-4q-61 13 -61 60v522q-13 -4 -33 -4q-45 0 -60 58v13q0 50 95 70z" />
<glyph unicode="&#xba;" horiz-adv-x="718" d="M400 1573q126 0 192 -134q33 -102 33 -188v-38q0 -106 -44 -215q-70 -108 -177 -108h-6q-116 0 -182 122q-39 99 -39 218v5q0 125 46 230q72 108 177 108zM296 1239v-17q0 -107 36 -174q29 -36 65 -36h5q84 0 99 145q5 26 7 77q0 89 -30 168q-31 48 -76 48q-56 0 -83 -63 q-23 -76 -23 -148z" />
<glyph unicode="&#xbb;" horiz-adv-x="944" d="M282 829q48 0 150 -139q151 -169 151 -207q0 -33 -210 -278q-47 -68 -88 -68h-7q-71 13 -71 74q0 36 115 167l88 108q-183 213 -199 246v27q0 57 71 70zM658 485q-203 234 -203 273q16 75 74 75q46 0 131 -119q167 -188 167 -223v-30q-203 -260 -275 -320h-46 q-35 16 -51 51v27q0 36 203 266z" />
<glyph unicode="&#xbc;" horiz-adv-x="1470" d="M1215 1472h12q81 0 98 -100v-6q0 -45 -131 -198q-96 -133 -906 -1176q-37 -22 -74 -22q-94 26 -94 95v23q0 34 151 220q814 1061 881 1141q31 23 63 23zM345 1464q45 0 78 -57l-3 -65v-652l3 -39q-21 -68 -75 -68q-44 0 -72 53v654l-32 -7h-29q-53 28 -53 71q0 74 110 91 q0 3 73 19zM1109 563l-150 -198h150v198zM1185 859q49 0 75 -63l-3 -44v-387h57q61 0 73 -84q-27 -64 -77 -64h-53v-195q-31 -52 -75 -52q-73 14 -73 76v171h-311q-65 14 -65 68v29q341 439 389 510q24 35 63 35z" />
<glyph unicode="&#xbd;" horiz-adv-x="1492" d="M1202 1467h11q81 0 98 -100v-6q0 -45 -131 -197q-95 -132 -902 -1172q-37 -22 -74 -22q-94 26 -94 94v23q0 34 150 220q812 1057 879 1137q31 23 63 23zM334 1459q45 0 80 -56l-5 -66v-649l5 -39q-23 -69 -77 -69q-43 0 -72 53v652l-31 -7h-29q-53 28 -53 72q0 73 110 90 q0 3 72 19zM1105 845q194 0 275 -209l3 -44v-42q0 -111 -163 -268l-143 -165h227l20 5q71 -23 71 -61v-22q-14 -65 -68 -65h-417q-58 0 -72 72q0 30 190 236q204 227 204 247l4 27v29q-26 113 -125 113q-88 0 -126 -97q0 -79 -59 -100h-20q-47 0 -72 62q0 186 197 270z" />
<glyph unicode="&#xbe;" horiz-adv-x="1541" d="M396 1468q144 0 216 -146q18 -42 18 -77v-22q0 -96 -58 -151q92 -64 92 -208q0 -198 -220 -271l-58 -4h-8q-187 0 -264 220l-4 58q0 38 52 69h27q67 0 75 -107q35 -93 117 -93h12q90 0 122 108l3 26q0 86 -104 123q-93 0 -93 83q16 67 91 67q52 0 72 80v22q0 50 -74 76 h-17q-63 0 -87 -73v-36q-28 -53 -68 -53h-14q-65 12 -65 67v8q0 164 186 230zM1298 1460h12q80 0 98 -99v-6q0 -45 -131 -197q-95 -132 -898 -1166q-37 -22 -73 -22q-94 26 -94 94v23q0 34 149 219q808 1052 875 1131q31 23 62 23zM1193 557l-148 -195h148v195zM1268 853 q49 0 75 -63l-3 -44v-384h56q61 0 73 -83q-27 -64 -76 -64h-53v-193q-31 -52 -75 -52q-72 14 -72 75v170h-309q-65 14 -65 68v29q339 435 386 505q25 36 63 36z" />
<glyph unicode="&#xbf;" horiz-adv-x="977" d="M471 1110h11q107 0 128 -135q-23 -128 -132 -128h-4q-109 0 -131 125v9q24 129 128 129zM474 805q102 -18 102 -102v-7q0 -273 -257 -424q-86 -82 -86 -198q0 -148 155 -228q58 -21 101 -21q146 0 227 147q18 30 31 140q50 60 101 60q101 -24 101 -102q0 -225 -221 -383 q-123 -69 -239 -69q-229 0 -378 197q-85 120 -85 266q0 261 257 416q90 81 90 246q46 62 101 62z" />
<glyph unicode="&#xc0;" horiz-adv-x="1220" d="M507 1836h7q62 0 156 -136q67 -71 67 -116q-18 -103 -101 -103h-16q-52 0 -162 153q-53 45 -53 108q26 94 102 94zM715 749l-123 320l-118 -320h241zM590 1468q93 0 131 -161q458 -1191 463 -1226v-13q0 -81 -100 -98h-6q-90 0 -123 150l-163 421h-400l-205 -537 q-45 -34 -78 -34h-10q-99 18 -99 102v9l131 354q338 878 368 980q48 53 91 53z" />
<glyph unicode="&#xc1;" horiz-adv-x="1212" d="M652 1828h6q99 -19 99 -94v-15q0 -44 -85 -136q-73 -109 -133 -109h-12q-80 0 -97 100v6q0 49 122 184q41 64 100 64zM711 746l-121 317l-118 -317h239zM588 1462q92 0 130 -161q456 -1186 461 -1220v-13q0 -81 -100 -98h-5q-91 0 -124 149l-161 420h-399l-203 -535 q-45 -34 -78 -34h-10q-99 18 -99 102v8l130 353q337 874 367 976q46 53 91 53z" />
<glyph unicode="&#xc2;" horiz-adv-x="1212" d="M593 1550q-71 -93 -122 -93h-11q-83 0 -102 102q0 47 123 187q44 65 99 65h30q51 0 148 -132q67 -71 67 -117v-5q-15 -100 -102 -100h-7q-56 0 -123 93zM711 746l-121 317l-118 -317h239zM588 1462q92 0 130 -161q456 -1186 461 -1220v-13q0 -81 -100 -98h-5 q-91 0 -124 149l-161 420h-399l-203 -535q-45 -34 -78 -34h-10q-99 18 -99 102v8l130 353q337 874 367 976q46 53 91 53z" />
<glyph unicode="&#xc3;" horiz-adv-x="1216" d="M479 1765q91 0 202 -72l20 -2l75 22h13q100 -17 100 -102v-4q0 -96 -150 -120l-40 -4q-91 0 -194 73l-17 2l-84 -23q-106 20 -106 102v8q0 99 164 117zM711 746l-121 317l-118 -317h239zM588 1462q92 0 130 -161q456 -1186 461 -1220v-13q0 -81 -100 -98h-5 q-91 0 -124 149l-161 420h-399l-203 -535q-45 -34 -78 -34h-10q-99 18 -99 102v8l130 353q337 874 367 976q46 53 91 53z" />
<glyph unicode="&#xc4;" horiz-adv-x="1225" d="M438 1744h17q95 -21 95 -94v-11q0 -86 -107 -102q-100 19 -100 102v11q0 73 95 94zM727 1744h15q79 0 94 -107q0 -77 -104 -101q-103 19 -103 99v24q27 85 98 85zM711 746l-121 317l-118 -317h239zM588 1462q92 0 130 -161q456 -1186 461 -1220v-13q0 -81 -100 -98h-5 q-91 0 -124 149l-161 420h-399l-203 -535q-45 -34 -78 -34h-10q-99 18 -99 102v8l130 353q337 874 367 976q46 53 91 53z" />
<glyph unicode="&#xc5;" horiz-adv-x="1219" d="M581 1862h15q127 0 182 -152l4 -39v-11q0 -124 -145 -182l-45 -8q-120 0 -182 117q-20 42 -20 83q0 132 153 188zM531 1666q10 -55 53 -55q58 9 58 51v10q-8 49 -45 49h-16q-41 0 -50 -55zM713 748l-122 319l-118 -319h240zM589 1466q93 0 131 -161q457 -1190 462 -1224 v-13q0 -81 -100 -98h-6q-90 0 -123 149l-162 421h-400l-204 -536q-45 -34 -78 -34h-10q-99 18 -99 102v9l130 353q338 877 368 979q48 53 91 53z" />
<glyph unicode="&#xc6;" horiz-adv-x="1565" d="M810 1465h595q69 0 95 -101q-21 -106 -107 -106h-470v-508h363q96 -21 96 -91v-19q0 -81 -100 -98h-359v-364h474q83 0 102 -103q0 -83 -103 -105h-578q-83 0 -102 103v469h-233q-9 -11 -154 -281l-147 -257q-39 -34 -76 -34h-4q-86 0 -102 108q0 32 246 463l496 891 q40 33 68 33zM600 750h116v207z" />
<glyph unicode="&#xc7;" horiz-adv-x="1399" d="M743 1462q233 0 425 -142q28 -37 28 -73q-18 -101 -104 -101q-25 0 -146 66q-112 41 -203 41q-249 0 -430 -228q-92 -152 -92 -298q0 -291 274 -463q120 -63 241 -63h11q153 0 312 98l26 6h14q97 -17 97 -100v-4q0 -116 -318 -197l-42 -4v-31q112 -74 112 -198 q0 -180 -210 -230l-55 4h-53l-65 -4q-89 29 -89 93v18q18 94 97 94h130q40 0 40 25v4q0 17 -46 26q-65 31 -65 85v114q-125 12 -302 120q-317 246 -317 607q0 382 348 622q186 113 382 113z" />
<glyph unicode="&#xc8;" horiz-adv-x="1039" d="M72 1473l52 -11h733l15 4q95 0 110 -114q-21 -97 -113 -97h-662v-450h423l53 3q76 0 99 -102q0 -72 -85 -109l-82 4h-408v-424h681q78 0 95 -111q-29 -96 -99 -96h-785q-99 18 -99 102v1290q15 100 72 100v11zM385 1859h8q61 0 155 -136q67 -71 67 -116 q-18 -103 -101 -103h-15q-54 0 -162 153q-54 45 -54 108q28 94 102 94z" />
<glyph unicode="&#xc9;" d="M72 1473l52 -11h733l15 4q95 0 110 -114q-21 -97 -113 -97h-662v-450h423l53 3q76 0 99 -102q0 -72 -85 -109l-82 4h-408v-424h681q78 0 95 -111q-29 -96 -99 -96h-785q-99 18 -99 102v1290q15 100 72 100v11zM506 1859h7q102 -20 102 -106q0 -44 -96 -151 q-69 -98 -119 -98h-22q-79 0 -95 108q0 40 124 182q44 65 99 65z" />
<glyph unicode="&#xca;" d="M72 1473l52 -11h733l15 4q95 0 110 -114q-21 -97 -113 -97h-662v-450h423l53 3q76 0 99 -102q0 -72 -85 -109l-82 4h-408v-424h681q78 0 95 -111q-29 -96 -99 -96h-785q-99 18 -99 102v1290q15 100 72 100v11zM488 1837h22q61 0 140 -113q83 -91 83 -128v-18 q-20 -95 -91 -95h-26q-47 0 -116 92q-63 -92 -115 -92h-26q-71 0 -91 95v18q0 44 174 231z" />
<glyph unicode="&#xcb;" horiz-adv-x="1027" d="M72 1473l52 -11h733l15 4q95 0 110 -114q-21 -97 -113 -97h-662v-450h423l53 3q76 0 99 -102q0 -72 -85 -109l-82 4h-408v-424h681q78 0 95 -111q-29 -96 -99 -96h-785q-99 18 -99 102v1290q15 100 72 100v11zM333 1734h17q95 -21 95 -94v-11q0 -86 -106 -102 q-101 19 -101 102v11q0 73 95 94zM623 1734h15q79 0 95 -107q0 -77 -105 -101q-103 18 -103 99v24q27 85 98 85z" />
<glyph unicode="&#xcc;" horiz-adv-x="657" d="M246 1848q63 0 147 -120q78 -84 78 -135q-20 -102 -105 -102q-61 0 -130 102q-92 104 -92 139v22q0 75 102 94zM211 1462l22 -5h133l18 5q106 -24 106 -110q-18 -102 -102 -102h15v-1073h-7q73 0 94 -99v-9q-18 -99 -102 -99h-179q-99 18 -99 102v6q21 99 94 99h-7v1073 h15q-90 0 -102 107v6q0 68 101 99z" />
<glyph unicode="&#xcd;" horiz-adv-x="657" d="M404 1858h7q102 -20 102 -106q0 -44 -96 -151q-69 -98 -119 -98h-22q-79 0 -94 108q0 40 123 182q44 65 99 65zM241 1466l23 -5h132l18 5q107 -23 107 -109q-18 -103 -102 -103h15v-1077h-7q73 0 94 -98v-10q-18 -99 -102 -99h-180q-99 18 -99 102v7q21 98 94 98h-7v1077 h15q-90 0 -102 107v6q0 70 101 99z" />
<glyph unicode="&#xce;" horiz-adv-x="657" d="M246 1467l23 -5h133l18 5q106 -24 106 -110q-18 -103 -101 -103h15v-1077h-8q75 0 94 -98v-9q-17 -100 -101 -100h-181q-99 18 -99 102v7q21 98 95 98h-8v1077h15q-90 0 -102 108v6q0 68 101 99zM334 1573q-64 -95 -125 -95h-9q-100 17 -100 102v4q0 47 119 181 q48 68 96 68h30q64 0 159 -139q64 -66 64 -113q-18 -103 -102 -103h-7q-59 0 -125 95z" />
<glyph unicode="&#xcf;" horiz-adv-x="657" d="M174 1713h18q95 -20 95 -90v-19q0 -80 -102 -99q-105 21 -105 110q22 98 94 98zM461 1713h17q95 -21 95 -94v-11q0 -86 -106 -102q-101 19 -101 102v11q0 73 95 94zM241 1462l23 -5h132l18 5q106 -23 106 -110q-18 -102 -101 -102h15v-1073h-8q75 0 94 -99v-8 q-17 -100 -101 -100h-180q-99 18 -99 102v6q21 99 94 99h-7v1073h15q-90 0 -102 107v6q0 68 101 99z" />
<glyph unicode="&#xd0;" horiz-adv-x="1275" d="M500 1460q346 0 593 -301q149 -204 149 -448q0 -389 -364 -639q-188 -102 -374 -102h-252q-76 0 -101 94v561h-56q-95 21 -95 98v15q0 73 99 94h52v526q21 99 94 99h221zM357 1254v-422h256q98 -18 98 -98v-14q-18 -95 -98 -95h-256v-448h125q345 0 503 314 q50 107 50 224q0 290 -272 468q-113 71 -364 71h-42z" />
<glyph unicode="&#xd1;" horiz-adv-x="1288" d="M480 1731q91 0 203 -73l21 -2l69 22h19q100 -15 100 -102v-4q0 -96 -151 -120l-40 -4q-91 0 -194 73l-18 2l-84 -23q-106 20 -106 103v7q0 99 164 117zM1002 370v997q18 95 98 95h11q81 0 98 -98v-1295q-18 -99 -102 -99h-4q-68 0 -142 119l-754 962v-983q0 -81 -98 -98 h-7q-77 0 -102 94v1300q21 98 94 98h15q65 0 105 -82z" />
<glyph unicode="&#xd2;" horiz-adv-x="1519" d="M676 1851h22q49 0 125 -105q89 -98 89 -146q-19 -102 -105 -102h-3q-63 0 -144 124q-78 76 -78 131q22 98 94 98zM744 1457q376 0 629 -348q114 -198 114 -399q0 -372 -336 -619q-192 -121 -400 -121h-15q-383 0 -626 356q-110 181 -110 391q0 356 312 599 q205 141 432 141zM206 706q0 -258 229 -434q141 -96 301 -96h19q251 0 426 225q100 143 100 313q0 292 -268 462q-130 75 -269 75q-267 0 -442 -233q-96 -137 -96 -312z" />
<glyph unicode="&#xd3;" horiz-adv-x="1532" d="M798 1856h18q99 -21 99 -101q0 -51 -129 -190q-32 -62 -101 -62q-82 0 -101 102q0 52 115 175q47 76 99 76zM746 1461q377 0 631 -349q114 -198 114 -400q0 -373 -337 -620q-192 -122 -401 -122h-15q-384 0 -628 357q-110 182 -110 392q0 357 313 600q205 142 433 142z M207 708q0 -259 229 -435q141 -96 302 -96h19q252 0 428 225q99 143 99 314q0 292 -268 463q-131 75 -270 75q-268 0 -443 -233q-96 -138 -96 -313z" />
<glyph unicode="&#xd4;" horiz-adv-x="1523" d="M744 1457q376 0 629 -348q114 -198 114 -399q0 -372 -336 -619q-192 -121 -400 -121h-15q-383 0 -626 356q-110 181 -110 391q0 356 312 599q205 141 432 141zM206 706q0 -258 229 -434q141 -96 301 -96h19q251 0 426 225q100 143 100 313q0 292 -268 462 q-130 75 -269 75q-267 0 -442 -233q-96 -137 -96 -312zM741 1583q-71 -93 -121 -93h-12q-82 0 -101 102q0 47 122 187q45 64 99 64h31q50 0 146 -132q68 -71 68 -116v-7q-17 -98 -102 -98h-7q-57 0 -123 93z" />
<glyph unicode="&#xd5;" horiz-adv-x="1528" d="M620 1802h18q81 0 179 -65l21 -6h10l79 24q106 -21 106 -106q0 -102 -171 -124h-28q-80 0 -178 66l-21 5h-11l-72 -19h-14q-95 20 -95 98v11q0 81 105 104q33 12 72 12zM744 1457q376 0 629 -348q114 -198 114 -399q0 -372 -336 -619q-192 -121 -400 -121h-15 q-383 0 -626 356q-110 181 -110 391q0 356 312 599q205 141 432 141zM206 706q0 -258 229 -434q141 -96 301 -96h19q251 0 426 225q100 143 100 313q0 292 -268 462q-130 75 -269 75q-267 0 -442 -233q-96 -137 -96 -312z" />
<glyph unicode="&#xd6;" horiz-adv-x="1540" d="M536 1736q77 0 101 -105q-24 -106 -105 -106q-103 23 -103 94v23q0 78 107 94zM962 1736q77 0 101 -105q-24 -106 -106 -106q-102 23 -102 94v23q0 78 107 94zM746 1461q377 0 631 -349q114 -198 114 -400q0 -373 -337 -620q-192 -122 -401 -122h-15q-384 0 -628 357 q-110 182 -110 392q0 357 313 600q205 142 433 142zM207 708q0 -259 229 -435q141 -96 302 -96h19q252 0 428 225q99 143 99 314q0 292 -268 463q-131 75 -270 75q-268 0 -443 -233q-96 -138 -96 -313z" />
<glyph unicode="&#xd7;" d="M725 638q151 -139 151 -180l6 -23q-29 -126 -127 -126q-65 0 -179 134l-25 21q-132 -150 -198 -150h-29q-102 32 -102 106v24q0 61 110 152l41 44q-151 149 -151 183v32q22 113 116 113h15q62 0 175 -134l20 -18q148 152 183 152h39q84 0 111 -118q0 -71 -156 -212z" />
<glyph unicode="&#xd8;" horiz-adv-x="1561" d="M1215 971l-762 -713q117 -82 283 -82h18q252 0 427 225q99 142 99 312q0 135 -65 258zM1083 1131q-155 119 -340 119q-266 0 -441 -232q-96 -138 -96 -312q0 -184 101 -305zM301 116q-147 -142 -174 -142l-19 -4h-7q-85 0 -101 107q0 52 129 159q4 12 23 25 q-152 194 -152 456q0 355 312 598q205 141 431 141q278 0 490 -187q138 142 182 142h12q97 -25 97 -101v-7q0 -57 -115 -147l-42 -41q119 -182 119 -406q0 -371 -335 -618q-192 -121 -400 -121h-15q-236 0 -435 146z" />
<glyph unicode="&#xd9;" horiz-adv-x="1103" d="M471 1849q67 0 166 -142q60 -58 60 -106v-8q0 -83 -103 -101q-64 0 -158 135q-67 69 -67 113v8q0 79 102 101zM94 1458h18q95 -20 95 -91v-802q0 -242 134 -322q85 -66 190 -66q201 0 303 207q21 64 21 136v839q18 99 98 99h14q95 -18 95 -98v-878q0 -239 -227 -416 q-145 -96 -293 -96h-26q-249 0 -432 243q-84 132 -84 322v824q21 99 94 99z" />
<glyph unicode="&#xda;" horiz-adv-x="1107" d="M598 1849q99 -21 99 -101v-8q0 -47 -101 -153q-59 -95 -125 -95q-102 22 -102 101v8q0 48 100 154q60 94 129 94zM94 1458h18q95 -20 95 -91v-802q0 -242 134 -322q85 -66 190 -66q201 0 303 207q21 64 21 136v839q18 99 98 99h14q95 -18 95 -98v-878q0 -239 -227 -416 q-145 -96 -293 -96h-26q-249 0 -432 243q-84 132 -84 322v824q21 99 94 99z" />
<glyph unicode="&#xdb;" horiz-adv-x="1124" d="M94 1463h18q95 -20 95 -90v-806q0 -243 135 -323q86 -67 191 -67q202 0 305 208q21 65 21 137v843q17 98 98 98h14q95 -18 95 -98v-881q0 -240 -228 -417q-145 -97 -294 -97h-26q-250 0 -434 244q-84 132 -84 323v828q21 98 94 98zM543 1563q-72 -84 -88 -84l-23 -8h-24 q-80 0 -98 99v7q0 50 132 194q0 44 100 55h10q65 0 159 -135q68 -70 68 -121q-23 -99 -95 -99h-19q-57 0 -118 91q-2 0 -4 1z" />
<glyph unicode="&#xdc;" horiz-adv-x="1128" d="M379 1721h17q95 -21 95 -95v-11q0 -86 -106 -102q-101 19 -101 102v11q0 74 95 95zM669 1721h15q79 0 95 -108q0 -77 -105 -101q-103 19 -103 99v24q27 86 98 86zM94 1463h18q95 -20 95 -90v-806q0 -243 135 -323q86 -67 191 -67q202 0 305 208q21 65 21 137v843 q17 98 98 98h14q95 -18 95 -98v-881q0 -240 -228 -417q-145 -97 -294 -97h-26q-250 0 -434 244q-84 132 -84 323v828q21 98 94 98z" />
<glyph unicode="&#xdd;" horiz-adv-x="1107" d="M536 897q353 531 372 545q28 21 52 21h23q69 0 94 -98q0 -46 -135 -230l-301 -450v-604q-13 -111 -94 -111h-16q-72 0 -98 86v626q0 5 -154 234l-273 411l-6 35q23 101 95 101h16q69 0 105 -88zM629 1827h7q102 -20 102 -105q0 -45 -98 -152q-68 -98 -117 -98h-23 q-78 0 -94 108q0 40 123 182q45 65 100 65z" />
<glyph unicode="&#xde;" horiz-adv-x="1100" d="M114 1466h19q95 -20 95 -91v-250h360q317 0 422 -278q21 -65 21 -120v-18q0 -214 -208 -345q-107 -53 -188 -53l-26 4h-381v-247q0 -81 -100 -98h-6q-83 0 -102 103v1282q12 111 94 111zM228 917v-394h405q140 0 186 161l4 37q0 133 -145 186q-39 10 -101 10h-349z" />
<glyph unicode="&#xdf;" horiz-adv-x="1061" d="M409 1455h41q192 0 327 -181q74 -109 74 -234q0 -96 -60 -220v-31q0 -26 116 -156q97 -118 97 -255v-15q0 -237 -241 -360q-76 -33 -156 -33h-3q-199 0 -329 176l-4 39q22 99 101 99h7q47 0 110 -70q59 -38 118 -38q133 0 185 145l6 48v5q0 84 -100 189 q-117 121 -117 241q0 63 55 188q5 11 5 37v33q0 101 -119 168q-37 19 -90 19q-145 0 -199 -159l-7 -103v-912q0 -80 -98 -98h-7q-82 0 -101 102v942q0 304 286 414q58 20 103 20z" />
<glyph unicode="&#xe0;" horiz-adv-x="1118" d="M493 1415h29q47 0 169 -160q36 -38 36 -77v-8q0 -81 -100 -99q-63 0 -129 100q-90 99 -90 134v15q0 71 85 95zM202 507v-11q0 -199 201 -301q62 -23 112 -23h29q165 0 273 167q40 78 40 150v14q0 192 -191 294q-66 30 -136 30h-4q-201 0 -304 -211q-20 -65 -20 -109z M858 81q-118 -111 -314 -111h-29q-270 0 -449 270q-66 131 -66 263q0 296 289 468q124 58 241 58q300 0 475 -293q54 -121 54 -247v-423q0 -79 -96 -96h-7q-67 0 -99 79v9z" />
<glyph unicode="&#xe1;" horiz-adv-x="1114" d="M627 1419q100 -23 100 -99v-7q0 -42 -86 -139q-68 -103 -137 -103h-4q-70 0 -92 96v11q0 44 120 179q46 62 99 62zM202 507v-11q0 -199 201 -301q62 -23 112 -23h29q165 0 273 167q40 78 40 150v14q0 192 -191 294q-66 30 -136 30h-4q-201 0 -304 -211q-20 -65 -20 -109z M858 81q-118 -111 -314 -111h-29q-270 0 -449 270q-66 131 -66 263q0 296 289 468q124 58 241 58q300 0 475 -293q54 -121 54 -247v-423q0 -79 -96 -96h-7q-67 0 -99 79v9z" />
<glyph unicode="&#xe2;" horiz-adv-x="1140" d="M203 509v-11q0 -200 202 -301q62 -24 112 -24h30q166 0 274 168q40 78 40 150v15q0 192 -192 295q-66 30 -137 30h-4q-202 0 -305 -212q-20 -65 -20 -110zM862 81q-120 -111 -315 -111h-30q-271 0 -451 271q-66 132 -66 265q0 297 291 470q124 58 241 58q302 0 478 -294 q54 -122 54 -249v-425q0 -79 -97 -96h-6q-68 0 -100 79v11zM538 1421q71 -8 145 -116q77 -82 77 -132q-18 -100 -103 -100q-56 0 -125 93q-64 -93 -128 -93q-100 19 -100 103q0 49 109 165q48 74 112 80l1 1h11z" />
<glyph unicode="&#xe3;" horiz-adv-x="1122" d="M438 1384h19q79 0 174 -65l21 -5h10l77 23q105 -21 105 -105q0 -100 -168 -122h-28q-78 0 -174 65l-21 5h-11l-70 -18h-14q-93 18 -93 96v11q0 79 102 103q33 12 71 12zM203 511v-11q0 -201 203 -303q63 -24 113 -24h30q167 0 275 169q41 79 41 151v15q0 193 -193 296 q-67 31 -138 31h-4q-203 0 -306 -213q-21 -66 -21 -111zM866 83q-120 -113 -317 -113h-30q-272 0 -452 273q-67 132 -67 265q0 298 292 472q125 58 242 58q303 0 479 -296q55 -121 55 -249v-427q0 -79 -97 -96h-7q-67 0 -99 79v10z" />
<glyph unicode="&#xe4;" horiz-adv-x="1136" d="M382 1276h17q93 -21 93 -92v-11q0 -85 -104 -100q-99 18 -99 100v11q0 71 93 92zM664 1276h15q77 0 92 -105q0 -75 -102 -99q-101 18 -101 97v22q26 85 96 85zM203 509v-11q0 -200 202 -301q62 -24 112 -24h30q166 0 274 168q40 78 40 150v15q0 192 -192 295 q-66 30 -137 30h-4q-202 0 -305 -212q-20 -65 -20 -110zM862 81q-120 -111 -315 -111h-30q-271 0 -451 271q-66 132 -66 265q0 297 291 470q124 58 241 58q302 0 478 -294q54 -122 54 -249v-425q0 -79 -97 -96h-6q-68 0 -100 79v11z" />
<glyph unicode="&#xe5;" horiz-adv-x="1131" d="M546 1477q124 0 193 -127q21 -45 21 -90q0 -144 -166 -204l-42 -5h-16q-139 0 -198 166l-5 41v13q0 146 175 203zM497 1266v-14q12 -43 39 -43h18q40 0 48 52q-9 53 -48 53q-57 -9 -57 -48zM203 509v-11q0 -200 202 -301q62 -24 112 -24h30q166 0 274 168q40 78 40 150 v15q0 192 -192 295q-66 30 -137 30h-4q-202 0 -305 -212q-20 -65 -20 -110zM862 81q-120 -111 -315 -111h-30q-271 0 -451 271q-66 132 -66 265q0 297 291 470q124 58 241 58q302 0 478 -294q54 -122 54 -249v-425q0 -79 -97 -96h-6q-68 0 -100 79v11z" />
<glyph unicode="&#xe6;" horiz-adv-x="1961" d="M1707 574q-14 75 -105 171q-102 79 -214 79q-171 0 -277 -160q-40 -75 -40 -90h636zM202 511v-11q0 -199 201 -300q63 -24 113 -24h29q165 0 273 168q40 77 40 149v14q0 192 -191 295q-66 30 -137 30h-3q-202 0 -305 -211q-20 -65 -20 -110zM859 84q-118 -110 -314 -110 h-29q-271 0 -450 270q-66 131 -66 263q0 297 290 469q124 58 240 58q266 0 432 -223q88 133 271 196q89 23 159 23q296 0 468 -286q58 -120 58 -226v-50q-17 -96 -99 -96h-726q36 -85 115 -139q87 -57 180 -57q81 0 188 54l29 5q102 -24 102 -104q0 -119 -268 -157l-54 -4 q-205 0 -325 111v-12q0 -89 -105 -99h-5q-58 0 -92 83z" />
<glyph unicode="&#xe7;" horiz-adv-x="986" d="M537 1026q205 0 373 -156q17 -30 17 -56v-6q-17 -96 -99 -96h-4q-36 0 -132 73q-72 36 -144 36h-22q-192 0 -292 -203q-23 -69 -23 -123q0 -198 204 -300q60 -23 129 -23q115 0 234 100l39 9h15q78 0 95 -96v-7q0 -95 -255 -192l-54 -8v-6q109 -72 109 -194 q0 -177 -206 -226l-54 4h-53l-63 -4q-88 29 -88 92v17q18 93 96 93h127q39 0 39 24v4q0 16 -45 25q-64 31 -64 84v90q-71 10 -210 104q-197 177 -197 413q0 258 228 431q145 97 300 97z" />
<glyph unicode="&#xe8;" horiz-adv-x="1127" d="M528 1034q307 0 477 -291q59 -115 59 -248v-22q-18 -100 -100 -100h-733q29 -95 160 -166q77 -30 145 -30q77 0 187 55h32q93 -18 93 -96v-11q0 -117 -292 -155h-28q-286 0 -458 268q-70 127 -70 264q0 293 275 466q135 66 253 66zM214 576h640q0 35 -81 144 q-110 104 -215 104h-41q-160 0 -263 -158q-37 -63 -40 -90zM490 1411h31q47 0 170 -161q36 -38 36 -77v-8q0 -82 -101 -99q-63 0 -129 100q-90 99 -90 135v14q0 70 83 96z" />
<glyph unicode="&#xe9;" horiz-adv-x="1118" d="M528 1034q307 0 477 -291q59 -115 59 -248v-22q-18 -100 -100 -100h-733q29 -95 160 -166q77 -30 145 -30q77 0 187 55h32q93 -18 93 -96v-11q0 -117 -292 -155h-28q-286 0 -458 268q-70 127 -70 264q0 293 275 466q135 66 253 66zM214 576h640q0 35 -81 144 q-110 104 -215 104h-41q-160 0 -263 -158q-37 -63 -40 -90zM627 1415q100 -23 100 -100v-7q0 -41 -87 -139q-68 -103 -137 -103h-4q-71 0 -92 96v11q0 44 120 180q46 62 100 62z" />
<glyph unicode="&#xea;" horiz-adv-x="1144" d="M528 1034q307 0 477 -291q59 -115 59 -248v-22q-18 -100 -100 -100h-733q29 -95 160 -166q77 -30 145 -30q77 0 187 55h32q93 -18 93 -96v-11q0 -117 -292 -155h-28q-286 0 -458 268q-70 127 -70 264q0 293 275 466q135 66 253 66zM214 576h640q0 35 -81 144 q-110 104 -215 104h-41q-160 0 -263 -158q-37 -63 -40 -90zM538 1421q71 -8 145 -116q77 -82 77 -132q-18 -100 -103 -100q-56 0 -125 93q-64 -93 -128 -93q-100 19 -100 103q0 49 109 165q48 74 112 80l1 1h11z" />
<glyph unicode="&#xeb;" horiz-adv-x="1122" d="M382 1293h17q92 -21 92 -92v-11q0 -83 -104 -100q-98 19 -98 100v11q0 71 93 92zM662 1293h15q77 0 92 -105q0 -75 -102 -99q-100 18 -100 97v24q26 83 95 83zM527 1032q306 0 476 -290q59 -115 59 -248v-22q-18 -100 -100 -100h-731q29 -96 159 -166q77 -30 145 -30 q77 0 186 55h32q93 -18 93 -96v-11q0 -116 -291 -154h-28q-285 0 -457 267q-70 127 -70 264q0 292 275 465q134 66 252 66zM214 575h638q0 35 -81 143q-109 104 -215 104h-40q-159 0 -263 -158q-36 -62 -39 -89z" />
<glyph unicode="&#xec;" horiz-adv-x="514" d="M175 1404h29q47 0 170 -161q36 -39 36 -78v-7q0 -82 -100 -100q-64 0 -130 100q-90 101 -90 135v15q0 70 85 96zM271 1033q96 -23 96 -92v-875q0 -79 -97 -96h-6q-81 0 -100 100v851q12 112 107 112z" />
<glyph unicode="&#xed;" horiz-adv-x="514" d="M340 1403q101 -23 101 -100v-7q0 -42 -87 -140q-69 -104 -138 -104h-4q-71 0 -92 97v11q0 44 121 180q46 63 99 63zM272 1037q95 -25 95 -92v-879q0 -79 -96 -96h-7q-81 0 -100 101v854q12 112 108 112z" />
<glyph unicode="&#xee;" horiz-adv-x="514" d="M267 1042q96 -25 96 -93v-882q0 -80 -97 -97h-6q-82 0 -101 101v858q12 113 108 113zM263 1397q74 -8 149 -117q77 -83 77 -132q-18 -101 -104 -101q-57 0 -124 93q-66 -93 -130 -93q-101 19 -101 104q0 48 109 165q49 75 111 81l1 1h11z" />
<glyph unicode="&#xef;" horiz-adv-x="514" d="M271 1038q96 -25 96 -93v-879q0 -79 -97 -96h-7q-81 0 -100 101v854q12 113 108 113zM113 1303h17q93 -21 93 -93v-11q0 -83 -104 -100q-99 19 -99 100v11q0 72 93 93zM396 1303h14q78 0 93 -106q0 -75 -103 -99q-100 18 -100 97v23q26 85 96 85z" />
<glyph unicode="&#xf0;" horiz-adv-x="1118" d="M578 1029l-29 44q-40 -25 -70 -42q27 3 55 3zM207 513v-18q0 -184 178 -286q63 -32 136 -32h22q190 0 291 198q23 61 23 120v18q0 127 -118 241q-91 73 -211 73q-208 0 -305 -219q-16 -52 -16 -95zM360 1003q-51 14 -67 93v7q0 69 126 129l20 12q-29 43 -29 71v24 q26 83 96 83h15q53 0 94 -69q131 80 163 80h10q93 -20 93 -96v-14q0 -62 -158 -144l263 -405q78 -131 78 -272q0 -299 -282 -469q-124 -63 -239 -63h-29q-216 0 -401 202q-113 159 -113 330q0 259 229 434q65 43 131 67z" />
<glyph unicode="&#xf1;" horiz-adv-x="1108" d="M429 1391h18q79 0 174 -64l20 -6h11l75 23q105 -20 105 -104q0 -101 -167 -121h-28q-78 0 -173 64l-21 5h-10l-70 -18h-14q-93 18 -93 96v11q0 79 102 102q33 12 71 12zM107 1032q96 -25 96 -92v-13q118 105 317 105q219 0 389 -182q124 -153 124 -323v-465 q0 -73 -96 -92h-10q-97 17 -97 100v409q0 254 -216 333q-53 14 -94 14h-11q-181 0 -280 -188q-26 -57 -26 -188v-384q0 -79 -97 -96h-6q-81 0 -100 100v849q11 113 107 113z" />
<glyph unicode="&#xf2;" horiz-adv-x="1118" d="M532 1034q206 0 373 -156q159 -166 159 -376q0 -299 -282 -469q-124 -63 -239 -63h-29q-216 0 -401 202q-113 159 -113 330q0 259 229 434q147 98 303 98zM207 513v-18q0 -184 178 -286q63 -32 136 -32h22q190 0 291 198q23 61 23 120v18q0 152 -140 258q-83 56 -189 56 q-208 0 -305 -219q-16 -52 -16 -95zM495 1422h30q46 0 169 -160q37 -39 37 -78v-8q0 -83 -102 -99q-63 0 -128 100q-91 99 -91 135v14q0 70 85 96z" />
<glyph unicode="&#xf3;" horiz-adv-x="1118" d="M627 1419q100 -23 100 -99v-7q0 -42 -86 -139q-68 -103 -137 -103h-4q-70 0 -92 96v11q0 44 120 179q46 62 99 62zM530 1029q204 0 371 -155q158 -166 158 -374q0 -298 -281 -468q-123 -62 -238 -62h-29q-214 0 -398 201q-113 159 -113 329q0 258 228 432q146 97 302 97z M206 510v-18q0 -182 177 -284q63 -32 136 -32h21q190 0 290 197q23 61 23 119v18q0 152 -140 257q-82 56 -187 56q-207 0 -304 -218q-16 -52 -16 -95z" />
<glyph unicode="&#xf4;" horiz-adv-x="1118" d="M530 1029q204 0 371 -155q158 -166 158 -374q0 -298 -281 -468q-123 -62 -238 -62h-29q-214 0 -398 201q-113 159 -113 329q0 258 228 432q146 97 302 97zM206 510v-18q0 -182 177 -284q63 -32 136 -32h21q190 0 290 197q23 61 23 119v18q0 152 -140 257q-82 56 -187 56 q-207 0 -304 -218q-16 -52 -16 -95zM533 1414q73 -8 147 -115q76 -82 76 -131q-17 -101 -103 -101q-56 0 -122 93q-65 -93 -128 -93q-100 21 -100 103q0 49 108 164q46 74 109 80l1 1h11z" />
<glyph unicode="&#xf5;" horiz-adv-x="1118" d="M532 1034q206 0 373 -156q159 -166 159 -376q0 -299 -282 -469q-124 -63 -239 -63h-29q-216 0 -401 202q-113 159 -113 330q0 259 229 434q147 98 303 98zM207 513v-18q0 -184 178 -286q63 -32 136 -32h22q190 0 291 198q23 61 23 120v18q0 152 -140 258q-83 56 -189 56 q-208 0 -305 -219q-16 -52 -16 -95zM437 1378h18q79 0 173 -64l21 -5h11l76 23q104 -22 104 -104q0 -102 -167 -122h-27q-78 0 -175 64l-20 6h-10l-70 -19h-14q-93 18 -93 96v11q0 79 102 102q33 12 71 12z" />
<glyph unicode="&#xf6;" horiz-adv-x="1114" d="M381 1270h17q92 -21 92 -92v-11q0 -83 -104 -100q-98 19 -98 100v11q0 71 93 92zM661 1270h14q77 0 92 -105q0 -75 -102 -99q-100 18 -100 97v22q26 85 96 85zM530 1029q204 0 371 -155q158 -166 158 -374q0 -298 -281 -468q-123 -62 -238 -62h-29q-214 0 -398 201 q-113 159 -113 329q0 258 228 432q146 97 302 97zM206 510v-18q0 -182 177 -284q63 -32 136 -32h21q190 0 290 197q23 61 23 119v18q0 152 -140 257q-82 56 -187 56q-207 0 -304 -218q-16 -52 -16 -95z" />
<glyph unicode="&#xf7;" d="M552 1162h4q117 0 142 -127v-22q-28 -127 -130 -127h-10q-136 14 -136 138v12q30 126 130 126zM253 830h614q103 -19 103 -106v-12q0 -73 -98 -98h-623q-99 19 -99 102v16q0 78 103 98zM553 558h11q113 0 134 -140v-6q0 -105 -138 -135q-138 30 -138 131v20 q0 100 131 130z" />
<glyph unicode="&#xf8;" horiz-adv-x="1161" d="M277 357l426 440q-35 24 -136 24q-207 0 -303 -217q-16 -52 -16 -95v-18q0 -71 29 -134zM852 660l-435 -450q56 -34 143 -34h21q189 0 289 196q23 61 23 119v18q0 98 -41 151zM985 1042h4q84 0 99 -105q0 -44 -91 -131q102 -125 102 -307q0 -298 -281 -467 q-122 -62 -237 -62h-29q-146 0 -278 92q-73 -88 -126 -88h-14q-77 0 -92 104q0 45 88 130q-88 121 -88 291q0 257 228 431q145 97 301 97q155 0 277 -81q78 96 137 96z" />
<glyph unicode="&#xf9;" horiz-adv-x="1109" d="M494 1419h29q47 0 170 -161q36 -38 36 -77v-8q0 -82 -101 -99q-63 0 -129 100q-90 99 -90 135v14q0 70 85 96zM830 77q-138 -107 -303 -107h-25q-242 0 -420 236q-82 128 -82 313v399q11 114 107 114q96 -25 96 -93v-391q0 -234 129 -311q83 -64 184 -64q195 0 294 200 q20 65 20 131v427q19 101 107 101q95 -23 95 -100v-870q0 -73 -96 -92h-10q-96 17 -96 99v8z" />
<glyph unicode="&#xfa;" horiz-adv-x="1105" d="M632 1429q100 -22 100 -99v-8q0 -41 -87 -139q-68 -104 -138 -104h-3q-71 0 -93 97v10q0 45 121 181q46 62 100 62zM834 78q-138 -108 -304 -108h-26q-243 0 -422 237q-82 129 -82 315v401q11 113 107 113q96 -23 96 -92v-393q0 -235 130 -313q84 -65 186 -65 q195 0 295 202q20 65 20 132v429q19 100 106 100q97 -22 97 -99v-875q0 -73 -97 -92h-9q-97 17 -97 100v8z" />
<glyph unicode="&#xfb;" horiz-adv-x="1114" d="M838 78q-139 -108 -306 -108h-26q-244 0 -423 238q-83 129 -83 316v405q12 113 108 113q96 -25 96 -93v-395q0 -237 131 -315q84 -65 186 -65q197 0 297 202q20 65 20 133v432q20 101 108 101q96 -23 96 -101v-878q0 -74 -97 -93h-10q-97 18 -97 100v8zM541 1432 q74 -11 147 -117q77 -83 77 -132q-16 -102 -104 -102q-56 0 -124 94q-66 -94 -130 -94q-101 20 -101 104q0 49 110 166q45 72 107 81l1 1h16z" />
<glyph unicode="&#xfc;" horiz-adv-x="1109" d="M830 76q-138 -106 -303 -106h-25q-242 0 -420 236q-82 128 -82 313v400q11 113 107 113q96 -25 96 -92v-391q0 -235 129 -312q83 -64 185 -64q194 0 293 200q20 65 20 132v427q21 100 107 100q96 -22 96 -99v-871q0 -73 -96 -92h-10q-97 17 -97 100v6zM663 1274h14 q77 0 93 -105q0 -75 -103 -99q-100 18 -100 97v22q26 85 96 85zM382 1274h17q93 -21 93 -92v-11q0 -85 -105 -100q-98 19 -98 100v11q0 71 93 92z" />
<glyph unicode="&#xfd;" horiz-adv-x="990" d="M650 1436q100 -23 100 -100v-7q0 -43 -87 -139q-68 -104 -137 -104h-4q-71 0 -92 97v10q0 44 120 180q46 63 100 63zM478 352q263 641 283 664q36 31 75 31q101 -19 101 -100v-5q-5 -33 -365 -893q-172 -424 -197 -457q-26 -22 -69 -32q-104 23 -104 93v19q0 19 163 412 l-346 846v13q21 100 103 100q85 0 135 -166z" />
<glyph unicode="&#xfe;" horiz-adv-x="1131" d="M103 1424h17q93 -20 93 -89v-412q119 114 331 114q207 0 374 -156q160 -167 160 -378q0 -300 -284 -471q-123 -63 -239 -63h-29q-188 0 -313 113v-439q0 -71 -100 -93q-83 0 -103 104v1661q12 109 93 109zM217 514v-18q0 -184 179 -287q63 -32 137 -32h22q191 0 293 199 q23 62 23 120v18q0 153 -142 260q-83 56 -189 56q-209 0 -306 -220q-17 -52 -17 -96z" />
<glyph unicode="&#xff;" horiz-adv-x="990" d="M329 1271h17q93 -21 93 -92v-11q0 -83 -104 -100q-99 19 -99 100v11q0 71 93 92zM609 1271h15q77 0 92 -105q0 -75 -102 -99q-100 18 -100 97v22q26 85 95 85zM467 338q262 638 281 661q36 31 76 31q100 -19 100 -100v-5q-5 -33 -363 -889q-171 -422 -196 -455 q-26 -22 -70 -32q-103 23 -103 93v18q0 19 163 411l-345 842v13q19 100 103 100q85 0 134 -166z" />
<glyph unicode="&#x100;" horiz-adv-x="1184" d="M709 744l-121 317l-117 -317h238zM586 1458q93 0 131 -160q454 -1183 459 -1217v-13q0 -81 -98 -98h-7q-90 0 -123 149l-161 418h-398l-202 -533q-45 -34 -78 -34h-11q-98 18 -98 101v9l130 352q335 872 365 973q48 53 91 53zM172 1727h847q97 -18 97 -100v-15 q-18 -97 -97 -97h-847q-87 0 -100 114q26 98 100 98z" />
<glyph unicode="&#x101;" horiz-adv-x="1100" d="M206 519v-11q0 -205 206 -308q64 -24 115 -24h29q170 0 281 171q40 80 40 153v15q0 197 -195 302q-67 30 -140 30h-4q-207 0 -312 -216q-20 -66 -20 -112zM878 84q-122 -114 -322 -114h-29q-276 0 -460 276q-67 134 -67 269q0 302 296 479q126 59 246 59q307 0 486 -300 q55 -123 55 -253v-433q0 -80 -98 -97h-7q-68 0 -101 80v11zM132 1327h847q97 -18 97 -100v-15q-18 -97 -97 -97h-847q-87 0 -100 114q26 98 100 98z" />
<glyph unicode="&#x102;" horiz-adv-x="1202" d="M380 1836h12q73 0 110 -98q40 -46 94 -46q82 0 122 98q43 46 86 46h11q103 -18 103 -106v-4q0 -98 -172 -219q-84 -31 -146 -31h-8q-211 0 -314 228v33q21 99 102 99zM709 744l-121 317l-117 -317h238zM586 1458q93 0 131 -160q454 -1183 459 -1217v-13q0 -81 -98 -98h-7 q-90 0 -123 149l-161 418h-398l-202 -533q-45 -34 -78 -34h-11q-98 18 -98 101v9l130 352q335 872 365 973q48 53 91 53z" />
<glyph unicode="&#x103;" horiz-adv-x="1118" d="M336 1444h12q73 0 110 -98q40 -46 94 -46q82 0 122 98q43 46 86 46h11q103 -18 103 -106v-4q0 -98 -172 -219q-84 -31 -146 -31h-8q-211 0 -314 228v33q21 99 102 99zM206 519v-11q0 -205 206 -308q64 -24 115 -24h29q170 0 281 171q40 80 40 153v15q0 197 -195 302 q-67 30 -140 30h-4q-207 0 -312 -216q-20 -66 -20 -112zM878 84q-122 -114 -322 -114h-29q-276 0 -460 276q-67 134 -67 269q0 302 296 479q126 59 246 59q307 0 486 -300q55 -123 55 -253v-433q0 -80 -98 -97h-7q-68 0 -101 80v11z" />
<glyph unicode="&#x104;" horiz-adv-x="1338" d="M729 739l-125 326l-120 -326h245zM602 1467q92 0 129 -151q480 -1250 480 -1276l4 -27v-97q0 -90 -104 -106q-11 -6 -11 -21v-8q0 -15 30 -19h146q100 -18 100 -103v-7q-21 -100 -95 -100h-161q-167 0 -225 184l-8 51q0 130 119 206q-15 62 -198 537h-407l-207 -545 q-45 -34 -78 -34h-11q-100 18 -100 103v8l132 359q343 890 373 993q49 53 92 53z" />
<glyph unicode="&#x105;" horiz-adv-x="1241" d="M210 501v-11q0 -205 207 -309q64 -24 115 -24h30q171 0 282 172q41 80 41 154v15q0 197 -197 302q-68 31 -141 31h-3q-208 0 -313 -217q-21 -67 -21 -113zM884 64q-123 -113 -322 -113h-30q-277 0 -460 277q-68 134 -68 270q0 303 297 480q127 59 246 59q309 0 488 -300 q56 -125 56 -254v-566q0 -84 -107 -107q-6 -4 -6 -9v-16q4 -18 26 -18h143q83 0 102 -106q-23 -100 -95 -100h-157q-165 0 -225 185l-4 50q0 125 116 197l-3 36z" />
<glyph unicode="&#x106;" horiz-adv-x="1251" d="M680 1463q32 3 64 3q233 0 439 -146q22 -42 22 -65v-8q0 -91 -107 -102h-13l-136 70q-126 40 -205 40q-255 0 -440 -233q-93 -156 -93 -304q0 -298 280 -473q123 -64 246 -64h11q157 0 327 106h35q95 -21 95 -98v-11q0 -102 -275 -184q-83 -24 -174 -24h-19 q-370 0 -619 342q-118 199 -118 406q0 389 354 633q138 83 281 106q-98 20 -98 102v16q0 47 149 181q120 137 177 137q94 0 110 -116q0 -55 -192 -227q-57 -69 -101 -87z" />
<glyph unicode="&#x107;" horiz-adv-x="973" d="M652 1497q94 0 110 -116q0 -55 -192 -227q-76 -93 -130 -93h-15q-99 19 -99 102v16q0 47 149 181q120 137 177 137zM543 1056q210 0 384 -160q17 -31 17 -57v-7q-18 -98 -101 -98h-4q-37 0 -136 75q-74 38 -149 38h-22q-199 0 -302 -210q-24 -71 -24 -128 q0 -203 211 -309q62 -24 134 -24q118 0 240 103l41 9h15q80 0 97 -98v-6q0 -98 -262 -198q-86 -16 -128 -16h-30q-220 0 -408 206q-116 163 -116 337q0 265 234 444q149 99 309 99z" />
<glyph unicode="&#x108;" horiz-adv-x="1254" d="M716 1572q-74 -100 -130 -100h-15q-99 21 -99 102v12q0 50 126 186q45 72 104 72h28q64 0 159 -139q71 -71 71 -119v-15q-21 -99 -102 -99h-12q-56 0 -130 100zM744 1466q233 0 439 -146q22 -42 22 -65v-8q0 -91 -107 -102h-13l-136 70q-126 40 -205 40q-255 0 -440 -233 q-93 -156 -93 -304q0 -298 280 -473q123 -64 246 -64h11q157 0 327 106h35q95 -21 95 -98v-11q0 -102 -275 -184q-83 -24 -174 -24h-19q-370 0 -619 342q-118 199 -118 406q0 389 354 633q190 115 390 115z" />
<glyph unicode="&#x109;" horiz-adv-x="982" d="M553 1207q-74 -100 -130 -100h-15q-99 21 -99 102v12q0 50 126 186q45 72 104 72h28q64 0 159 -139q71 -71 71 -119v-15q-21 -99 -102 -99h-12q-56 0 -130 100zM543 1056q210 0 384 -160q17 -31 17 -57v-7q-18 -98 -101 -98h-4q-37 0 -136 75q-74 38 -149 38h-22 q-199 0 -302 -210q-24 -71 -24 -128q0 -203 211 -309q62 -24 134 -24q118 0 240 103l41 9h15q80 0 97 -98v-6q0 -98 -262 -198q-86 -16 -128 -16h-30q-220 0 -408 206q-116 163 -116 337q0 265 234 444q149 99 309 99z" />
<glyph unicode="&#x10a;" horiz-adv-x="1259" d="M749 1810q114 0 146 -133v-25q0 -83 -99 -128q-18 -9 -47 -9h-3q-121 0 -146 146q0 99 104 140q17 9 45 9zM744 1466q233 0 439 -146q22 -42 22 -65v-8q0 -91 -107 -102h-13l-136 70q-126 40 -205 40q-255 0 -440 -233q-93 -156 -93 -304q0 -298 280 -473 q123 -64 246 -64h11q157 0 327 106h35q95 -21 95 -98v-11q0 -102 -275 -184q-83 -24 -174 -24h-19q-370 0 -619 342q-118 199 -118 406q0 389 354 633q190 115 390 115z" />
<glyph unicode="&#x10b;" horiz-adv-x="973" d="M564 1409q114 0 146 -133v-25q0 -83 -99 -128q-18 -9 -47 -9h-3q-121 0 -146 146q0 99 104 140q17 9 45 9zM543 1056q210 0 384 -160q17 -31 17 -57v-7q-18 -98 -101 -98h-4q-37 0 -136 75q-74 38 -149 38h-22q-199 0 -302 -210q-24 -71 -24 -128q0 -203 211 -309 q62 -24 134 -24q118 0 240 103l41 9h15q80 0 97 -98v-6q0 -98 -262 -198q-86 -16 -128 -16h-30q-220 0 -408 206q-116 163 -116 337q0 265 234 444q149 99 309 99z" />
<glyph unicode="&#x10c;" horiz-adv-x="1241" d="M728 1743q74 100 130 100h15q99 -21 99 -102v-12q0 -47 -102 -159q-68 -99 -128 -99h-28q-63 0 -155 135q-75 75 -75 123v15q21 99 102 99h12q56 0 130 -100zM744 1466q233 0 439 -146q22 -42 22 -65v-8q0 -91 -107 -102h-13l-136 70q-126 40 -205 40q-255 0 -440 -233 q-93 -156 -93 -304q0 -298 280 -473q123 -64 246 -64h11q157 0 327 106h35q95 -21 95 -98v-11q0 -102 -275 -184q-83 -24 -174 -24h-19q-370 0 -619 342q-118 199 -118 406q0 389 354 633q190 115 390 115z" />
<glyph unicode="&#x10d;" horiz-adv-x="990" d="M535 1369q74 100 130 100h15q99 -21 99 -102v-12q0 -47 -102 -159q-68 -99 -128 -99h-28q-63 0 -155 135q-75 75 -75 123v15q21 99 102 99h12q56 0 130 -100zM543 1056q210 0 384 -160q17 -31 17 -57v-7q-18 -98 -101 -98h-4q-37 0 -136 75q-74 38 -149 38h-22 q-199 0 -302 -210q-24 -71 -24 -128q0 -203 211 -309q62 -24 134 -24q118 0 240 103l41 9h15q80 0 97 -98v-6q0 -98 -262 -198q-86 -16 -128 -16h-30q-220 0 -408 206q-116 163 -116 337q0 265 234 444q149 99 309 99z" />
<glyph unicode="&#x10e;" horiz-adv-x="1162" d="M494 1748q74 100 130 100h15q99 -21 99 -102v-12q0 -47 -102 -159q-68 -99 -128 -99h-28q-63 0 -155 135q-75 75 -75 123v15q21 99 102 99h12q56 0 130 -100zM72 1478l52 -11h189l42 4q338 0 585 -292q159 -206 159 -466q0 -359 -315 -604q-201 -139 -424 -139h-261 q-99 18 -99 102v1295q15 100 72 100v11zM208 1263v-1085h133q342 0 507 331q43 112 43 215q0 247 -220 432q-134 107 -406 107h-57z" />
<glyph unicode="&#x10f;" horiz-adv-x="1396" d="M1204 1544h28q110 0 142 -264v-22q0 -143 -157 -273q-38 -21 -67 -21q-33 13 -52 46v26q60 144 60 230v12q0 54 -48 136v31q21 99 94 99zM978 1462h18q95 -20 95 -91v-748l4 -128q0 -158 -128 -329q-181 -196 -408 -196h-30q-222 0 -412 207q-117 165 -117 341 q0 266 236 447q150 100 312 100q208 0 340 -118v359l-4 65q29 91 94 91zM207 529v-19q0 -212 223 -316q58 -17 106 -17h23q206 0 312 222q17 67 17 103v23q0 211 -226 316q-69 17 -107 17h-15q-206 0 -312 -219q-21 -61 -21 -110z" />
<glyph unicode="&#x110;" horiz-adv-x="1303" d="M185 877v490q15 100 72 100v11l52 -11h189l42 4q338 0 585 -292q159 -206 159 -466q0 -359 -315 -604q-201 -139 -424 -139h-261q-99 18 -99 102v593h-18l-69 -4q-94 33 -94 113q18 103 102 103h79zM393 877h151l36 4q81 0 108 -106q0 -80 -94 -114l-65 4h-136v-487h133 q342 0 507 331q43 112 43 215q0 247 -220 432q-134 107 -406 107h-57v-386z" />
<glyph unicode="&#x111;" horiz-adv-x="1343" d="M238 529v-19q0 -212 223 -316q58 -17 106 -17h23q206 0 312 222q17 67 17 103v23q0 211 -226 316q-69 17 -107 17h-15q-206 0 -312 -219q-21 -61 -21 -110zM917 1339l-2 32q29 91 94 91h18q95 -20 95 -91v-32h95l36 4q81 0 108 -106q0 -80 -94 -114l-65 4h-80v-504 l4 -128q0 -158 -128 -329q-181 -196 -408 -196h-30q-222 0 -412 207q-117 165 -117 341q0 266 236 447q150 100 312 100q208 0 340 -118v180h-79l-69 -4q-94 33 -94 113q18 103 72 103v7l71 -7h97z" />
<glyph unicode="&#x112;" horiz-adv-x="1100" d="M115 1757h847q97 -18 97 -100v-15q-18 -97 -97 -97h-847q-86 0 -100 114q27 98 100 98zM129 1473l53 -11h733l15 4q95 0 110 -114q-21 -97 -114 -97h-662v-450h424l53 3q75 0 98 -102q0 -72 -85 -109l-81 4h-409v-424h681q78 0 95 -111q-28 -96 -99 -96h-784 q-100 18 -100 102v1290q16 100 72 100v11z" />
<glyph unicode="&#x113;" horiz-adv-x="1105" d="M528 1034q307 0 477 -291q59 -115 59 -248v-22q-18 -100 -100 -100h-733q29 -95 160 -166q77 -30 145 -30q77 0 187 55h32q93 -18 93 -96v-11q0 -117 -292 -155h-28q-286 0 -458 268q-70 127 -70 264q0 293 275 466q135 66 253 66zM214 576h640q0 35 -81 144 q-110 104 -215 104h-41q-160 0 -263 -158q-37 -63 -40 -90zM115 1348h847q97 -18 97 -100v-15q-18 -97 -97 -97h-847q-87 0 -100 114q26 98 100 98z" />
<glyph unicode="&#x114;" horiz-adv-x="1052" d="M107 1473l52 -11h733l15 4q95 0 110 -114q-21 -97 -113 -97h-662v-450h423l53 3q76 0 99 -102q0 -72 -85 -109l-82 4h-408v-424h681q78 0 95 -111q-29 -96 -99 -96h-785q-99 18 -99 102v1290q15 100 72 100v11zM322 1854h12q73 0 110 -98q40 -46 94 -46q82 0 122 98 q43 46 86 46h11q103 -18 103 -106v-4q0 -98 -172 -219q-84 -31 -146 -31h-8q-211 0 -314 228v33q21 99 102 99z" />
<glyph unicode="&#x115;" horiz-adv-x="1101" d="M537 1034q307 0 477 -291q59 -115 59 -248v-22q-18 -100 -100 -100h-733q29 -95 160 -166q77 -30 145 -30q77 0 187 55h32q93 -18 93 -96v-11q0 -117 -292 -155h-28q-286 0 -458 268q-70 127 -70 264q0 293 275 466q135 66 253 66zM223 576h640q0 35 -81 144 q-110 104 -215 104h-41q-160 0 -263 -158q-37 -63 -40 -90zM331 1466h12q73 0 110 -98q40 -46 94 -46q82 0 122 98q43 46 86 46h11q103 -18 103 -106v-4q0 -98 -172 -219q-84 -31 -146 -31h-8q-211 0 -314 228v33q21 99 102 99z" />
<glyph unicode="&#x116;" horiz-adv-x="1070" d="M534 1815q114 0 146 -133v-25q0 -83 -99 -128q-18 -9 -47 -9h-3q-121 0 -146 146q0 99 104 140q17 9 45 9zM155 1462h733l15 4q95 0 110 -114q-21 -97 -113 -97h-662v-450h423l53 3q76 0 99 -102q0 -72 -85 -109l-82 4h-408v-424h681q78 0 95 -111q-29 -96 -99 -96h-785 q-99 18 -99 102v1290q15 100 72 100h52z" />
<glyph unicode="&#x117;" horiz-adv-x="1105" d="M550 1034q307 0 477 -291q59 -115 59 -248v-22q-18 -100 -100 -100h-733q29 -95 160 -166q77 -30 145 -30q77 0 187 55h32q93 -18 93 -96v-11q0 -117 -292 -155h-28q-286 0 -458 268q-70 127 -70 264q0 293 275 466q135 66 253 66zM236 576h640q0 35 -81 144 q-110 104 -215 104h-41q-160 0 -263 -158q-37 -63 -40 -90zM573 1379q114 0 146 -133v-25q0 -83 -99 -128q-18 -9 -47 -9h-3q-121 0 -146 146q0 99 104 140q17 9 45 9z" />
<glyph unicode="&#x118;" horiz-adv-x="1052" d="M594 -43l-1 13h-463q-99 18 -99 102v1290q15 100 72 100h785l15 4q95 0 110 -114q-21 -97 -113 -97h-662v-450h423l53 3q76 0 99 -102q0 -72 -85 -109l-82 4h-408v-424h681q78 0 95 -111q-29 -96 -99 -96h-118q-4 18 -5 23v-106q0 -84 -99 -99q-7 -4 -7 -17q0 -23 37 -23 h98l18 5q101 -23 101 -98v-7q0 -67 -81 -97l-80 4h-34l-56 -4q-86 0 -170 106q-30 57 -30 100v28q0 113 105 172z" />
<glyph unicode="&#x119;" horiz-adv-x="1122" d="M236 576h640q0 35 -81 144q-110 104 -215 104h-41q-160 0 -263 -158q-37 -63 -40 -90zM516 -29q-262 15 -424 267q-70 127 -70 264q0 293 275 466q135 66 253 66q307 0 477 -291q59 -115 59 -248v-22q-18 -100 -100 -100h-733q29 -95 160 -166q77 -30 145 -30 q77 0 187 55h32q93 -18 93 -96v-11q0 -93 -142 -127l-6 -93q0 -84 -99 -99q-7 -4 -7 -17q0 -23 37 -23h98l18 5q101 -23 101 -98v-7q0 -67 -81 -97l-80 4h-34l-56 -4q-86 0 -170 106q-30 57 -30 100v28q0 109 97 168z" />
<glyph unicode="&#x11a;" horiz-adv-x="1065" d="M529 1748q74 100 130 100h15q99 -21 99 -102v-12q0 -47 -102 -159q-68 -99 -128 -99h-28q-63 0 -155 135q-75 75 -75 123v15q21 99 102 99h12q56 0 130 -100zM159 1462h733l15 4q95 0 110 -114q-21 -97 -113 -97h-662v-450h423l53 3q76 0 99 -102q0 -72 -85 -109l-82 4 h-408v-424h681q78 0 95 -111q-29 -96 -99 -96h-785q-99 18 -99 102v1290q15 100 72 100h52z" />
<glyph unicode="&#x11b;" horiz-adv-x="1136" d="M572 1034q307 0 477 -291q59 -115 59 -248v-22q-18 -100 -100 -100h-733q29 -95 160 -166q77 -30 145 -30q77 0 187 55h32q93 -18 93 -96v-11q0 -117 -292 -155h-28q-286 0 -458 268q-70 127 -70 264q0 293 275 466q135 66 253 66zM258 576h640q0 35 -81 144 q-110 104 -215 104h-41q-160 0 -263 -158q-37 -63 -40 -90zM587 1352q74 100 130 100h15q99 -21 99 -102v-12q0 -47 -102 -159q-68 -99 -128 -99h-28q-63 0 -155 135q-75 75 -75 123v15q21 99 102 99h12q56 0 130 -100z" />
<glyph unicode="&#x11c;" horiz-adv-x="1285" d="M751 1594q-74 -100 -130 -100h-15q-99 21 -99 102v12q0 50 126 186q45 72 104 72h28q64 0 159 -139q71 -71 71 -119v-15q-21 -99 -102 -99h-12q-56 0 -130 100zM768 1466q238 0 433 -136q28 -38 28 -71v-4q0 -83 -103 -102q-22 0 -162 66q-82 32 -158 32h-61 q-198 0 -381 -193q-118 -162 -118 -332v-15q0 -278 258 -455q134 -75 268 -75h15q132 0 250 64v296h-246q-98 17 -98 102v5q17 100 101 100h352q81 0 98 -100v-421q0 -111 -61 -140q-199 -117 -389 -117h-22q-370 0 -619 342q-118 195 -118 406q0 376 334 622 q206 126 399 126z" />
<glyph unicode="&#x11d;" horiz-adv-x="1167" d="M571 1212q-74 -100 -130 -100h-15q-99 21 -99 102v12q0 50 126 186q45 72 104 72h28q64 0 159 -139q71 -71 71 -119v-15q-21 -99 -102 -99h-12q-56 0 -130 100zM562 1051q241 0 417 -200q122 -167 122 -317l-4 -126v-449q0 -141 -206 -299q-157 -103 -329 -103 q-294 0 -486 262q-38 64 -38 91v11q0 73 94 94h14q71 0 111 -108q122 -153 305 -153q219 0 328 196l6 40v97q-123 -114 -323 -114h-30q-218 0 -405 204q-115 162 -115 335q0 263 232 440q148 99 307 99zM228 523v-18q0 -208 219 -310q57 -17 104 -17h22q203 0 307 218 q16 65 16 101v23q0 207 -221 310q-69 16 -106 16h-14q-203 0 -307 -215q-20 -59 -20 -108z" />
<glyph unicode="&#x11e;" horiz-adv-x="1246" d="M520 1837h12q73 0 110 -98q40 -46 94 -46q82 0 122 98q43 46 86 46h11q103 -18 103 -106v-4q0 -98 -172 -219q-84 -31 -146 -31h-8q-211 0 -314 228v33q21 99 102 99zM755 1466q238 0 433 -136q28 -38 28 -71v-4q0 -83 -103 -102q-22 0 -162 66q-82 32 -158 32h-61 q-198 0 -381 -193q-118 -162 -118 -332v-15q0 -278 258 -455q134 -75 268 -75h15q132 0 250 64v296h-246q-98 17 -98 102v5q17 100 101 100h352q81 0 98 -100v-421q0 -111 -61 -140q-199 -117 -389 -117h-22q-370 0 -619 342q-118 195 -118 406q0 376 334 622 q206 126 399 126z" />
<glyph unicode="&#x11f;" horiz-adv-x="1140" d="M366 1466h12q73 0 110 -98q40 -46 94 -46q82 0 122 98q43 46 86 46h11q103 -18 103 -106v-4q0 -98 -172 -219q-84 -31 -146 -31h-8q-211 0 -314 228v33q21 99 102 99zM575 1051q241 0 417 -200q122 -167 122 -317l-4 -126v-449q0 -141 -206 -299q-157 -103 -329 -103 q-294 0 -486 262q-38 64 -38 91v11q0 73 94 94h14q71 0 111 -108q122 -153 305 -153q219 0 328 196l6 40v97q-123 -114 -323 -114h-30q-218 0 -405 204q-115 162 -115 335q0 263 232 440q148 99 307 99zM241 523v-18q0 -208 219 -310q57 -17 104 -17h22q203 0 307 218 q16 65 16 101v23q0 207 -221 310q-69 16 -106 16h-14q-203 0 -307 -215q-20 -59 -20 -108z" />
<glyph unicode="&#x120;" horiz-adv-x="1272" d="M780 1823q114 0 146 -133v-25q0 -83 -99 -128q-18 -9 -47 -9h-3q-121 0 -146 146q0 99 104 140q17 9 45 9zM759 1466q238 0 433 -136q28 -38 28 -71v-4q0 -83 -103 -102q-22 0 -162 66q-82 32 -158 32h-61q-198 0 -381 -193q-118 -162 -118 -332v-15q0 -278 258 -455 q134 -75 268 -75h15q132 0 250 64v296h-246q-98 17 -98 102v5q17 100 101 100h352q81 0 98 -100v-421q0 -111 -61 -140q-199 -117 -389 -117h-22q-370 0 -619 342q-118 195 -118 406q0 376 334 622q206 126 399 126z" />
<glyph unicode="&#x121;" horiz-adv-x="1149" d="M609 1437q114 0 146 -133v-25q0 -83 -99 -128q-18 -9 -47 -9h-3q-121 0 -146 146q0 99 104 140q17 9 45 9zM584 1051q241 0 417 -200q122 -167 122 -317l-4 -126v-449q0 -141 -206 -299q-157 -103 -329 -103q-294 0 -486 262q-38 64 -38 91v11q0 73 94 94h14 q71 0 111 -108q122 -153 305 -153q219 0 328 196l6 40v97q-123 -114 -323 -114h-30q-218 0 -405 204q-115 162 -115 335q0 263 232 440q148 99 307 99zM250 523v-18q0 -208 219 -310q57 -17 104 -17h22q203 0 307 218q16 65 16 101v23q0 207 -221 310q-69 16 -106 16h-14 q-203 0 -307 -215q-20 -59 -20 -108z" />
<glyph unicode="&#x122;" horiz-adv-x="1276" d="M883 -25q88 -67 88 -174q0 -169 -197 -218l-53 3h-50l-61 -3q-85 28 -85 89v17q17 90 93 90h121q36 0 36 22v3q0 15 -41 23q-63 30 -63 82v67q-294 28 -518 336q-118 195 -118 406q0 376 334 622q206 126 399 126q238 0 433 -136q28 -38 28 -71v-4q0 -83 -103 -102 q-22 0 -162 66q-82 32 -158 32h-61q-198 0 -381 -193q-118 -162 -118 -332v-15q0 -278 258 -455q134 -75 268 -75h15q132 0 250 64v296h-246q-98 17 -98 102v5q17 100 101 100h352q81 0 98 -100v-421q0 -111 -61 -140q-165 -97 -300 -112z" />
<glyph unicode="&#x123;" horiz-adv-x="1184" d="M665 1701q59 -17 59 -64v-14q-59 -141 -60 -238q0 -52 46 -129l6 -28q0 -92 -111 -113q-126 0 -157 280q0 150 159 284zM597 1051q241 0 417 -200q122 -167 122 -317l-4 -126v-449q0 -141 -206 -299q-157 -103 -329 -103q-294 0 -486 262q-38 64 -38 91v11q0 73 94 94h14 q71 0 111 -108q122 -153 305 -153q219 0 328 196l6 40v97q-123 -114 -323 -114h-30q-218 0 -405 204q-115 162 -115 335q0 263 232 440q148 99 307 99zM263 523v-18q0 -208 219 -310q57 -17 104 -17h22q203 0 307 218q16 65 16 101v23q0 207 -221 310q-69 16 -106 16h-14 q-203 0 -307 -215q-20 -59 -20 -108z" />
<glyph unicode="&#x124;" horiz-adv-x="1176" d="M602 1594q-74 -100 -130 -100h-15q-99 21 -99 102v12q0 50 126 186q45 72 104 72h28q64 0 159 -139q71 -71 71 -119v-15q-21 -99 -102 -99h-12q-56 0 -130 100zM134 1463h18q95 -20 95 -90v-568h652v560q17 98 98 98h14q95 -18 95 -98v-1301q0 -73 -99 -94h-10 q-98 18 -98 102v530h-652v-534q0 -81 -98 -98h-7q-83 0 -102 103v1279q12 111 94 111z" />
<glyph unicode="&#x125;" horiz-adv-x="1074" d="M562 1510q-74 -100 -130 -100h-15q-99 21 -99 102v12q0 50 126 186q45 72 104 72h28q64 0 159 -139q71 -71 71 -119v-15q-21 -99 -102 -99h-12q-56 0 -130 100zM129 1460h18q95 -20 95 -90v-396q104 90 280 90q268 0 429 -253q61 -113 61 -215v-528q0 -81 -100 -98h-5 q-77 0 -102 94v510q0 184 -191 266q-45 13 -92 13q-189 0 -267 -203q-13 -43 -13 -148v-434q0 -81 -100 -98h-5q-77 0 -102 94v1298q21 98 94 98z" />
<glyph unicode="&#x126;" horiz-adv-x="1303" d="M137 1225v127q12 111 94 111h18q95 -20 95 -90v-153h652v145q17 98 98 98h14q95 -18 95 -98v-140l-7 -1q102 0 132 -106q0 -78 -111 -114h-14v-940q0 -73 -99 -94h-10q-98 18 -98 102v530h-652v-534q0 -81 -98 -98h-7q-83 0 -102 103v931h-2q-117 31 -117 113 q23 103 95 103v7zM344 1008v-203h652v203h-652z" />
<glyph unicode="&#x127;" horiz-adv-x="1330" d="M291 1317v45q21 98 94 98h18q95 -20 95 -90v-53h393l36 4q85 0 108 -107q0 -75 -89 -113l-74 4h-374v-131q104 90 280 90q268 0 429 -253q61 -113 61 -215v-528q0 -81 -100 -98h-5q-77 0 -102 94v510q0 184 -191 266q-45 13 -92 13q-189 0 -267 -203q-13 -43 -13 -148 v-434q0 -81 -100 -98h-5q-77 0 -102 94v1041h-97l-69 -4q-94 33 -94 113q18 103 72 103v7l71 -7h117z" />
<glyph unicode="&#x128;" horiz-adv-x="621" d="M220 1769q91 0 202 -72l20 -2l75 22h13q100 -17 100 -102v-4q0 -96 -150 -120l-40 -4q-91 0 -194 73l-17 2l-84 -23q-106 20 -106 102v8q0 99 164 117zM222 1479l23 -4h137l18 4q106 -23 106 -110q-18 -103 -102 -103h14v-1087h-7q74 0 95 -100v-10q-18 -99 -102 -99 h-183q-99 18 -99 102v7q21 100 95 100h-7v1087h14q-90 0 -102 108v6q0 70 100 99z" />
<glyph unicode="&#x129;" horiz-adv-x="616" d="M220 1359q91 0 202 -72l20 -2l75 22h13q100 -17 100 -102v-4q0 -96 -150 -120l-40 -4q-91 0 -194 73l-17 2l-84 -23q-106 20 -106 102v8q0 99 164 117zM330 1060q98 -25 98 -94v-898q0 -81 -100 -98h-6q-82 0 -101 102v874q12 114 109 114z" />
<glyph unicode="&#x12a;" horiz-adv-x="683" d="M94 1751l71 -7h397l36 4q81 0 108 -106q0 -80 -94 -114l-65 4h-362l-69 -4q-94 33 -94 113q18 103 72 103v7zM266 1479l23 -4h137l18 4q106 -23 106 -110q-18 -103 -102 -103h14v-1087h-7q74 0 95 -100v-10q-18 -99 -102 -99h-183q-99 18 -99 102v7q21 100 95 100h-7 v1087h14q-90 0 -102 108v6q0 70 100 99z" />
<glyph unicode="&#x12b;" horiz-adv-x="744" d="M116 1346l71 -7h397l36 4q81 0 108 -106q0 -80 -94 -114l-65 4h-362l-69 -4q-94 33 -94 113q18 103 72 103v7zM383 1060q98 -25 98 -94v-898q0 -81 -100 -98h-6q-82 0 -101 102v874q12 114 109 114z" />
<glyph unicode="&#x12c;" horiz-adv-x="647" d="M132 1862h12q73 0 110 -98q40 -46 94 -46q82 0 122 98q43 46 86 46h11q103 -18 103 -106v-4q0 -98 -172 -219q-84 -31 -146 -31h-8q-211 0 -314 228v33q21 99 102 99zM252 1479l23 -4h137l18 4q106 -23 106 -110q-18 -103 -102 -103h14v-1087h-7q74 0 95 -100v-10 q-18 -99 -102 -99h-183q-99 18 -99 102v7q21 100 95 100h-7v1087h14q-90 0 -102 108v6q0 70 100 99z" />
<glyph unicode="&#x12d;" horiz-adv-x="647" d="M124 1452h12q73 0 110 -98q40 -46 94 -46q82 0 122 98q43 46 86 46h11q103 -18 103 -106v-4q0 -98 -172 -219q-84 -31 -146 -31h-8q-211 0 -314 228v33q21 99 102 99zM330 1060q98 -25 98 -94v-898q0 -81 -100 -98h-6q-82 0 -101 102v874q12 114 109 114z" />
<glyph unicode="&#x12e;" horiz-adv-x="511" d="M131 -23q-71 24 -71 95v7q21 100 95 100h-7v1087h14q-90 0 -102 108v6q0 70 100 99l23 -4h137l18 4q106 -23 106 -110q-18 -103 -102 -103h14v-1087h-7q74 0 95 -100v-10q-18 -99 -102 -99h28v-35q0 -84 -99 -99q-7 -4 -7 -17q0 -23 37 -23h98l18 5q101 -23 101 -98v-7 q0 -67 -81 -97l-80 4h-34l-56 -4q-86 0 -170 106q-30 57 -30 100v28q0 89 64 144z" />
<glyph unicode="&#x12f;" horiz-adv-x="466" d="M237 1316q98 -25 98 -94v-22q0 -79 -107 -94q-77 0 -101 105q21 105 110 105zM137 15l-2 29q-3 9 -7 28v874q12 114 109 114q98 -25 98 -94v-898q0 -8 -1 -14q1 0 1 -1v-108q0 -84 -99 -99q-7 -4 -7 -17q0 -23 37 -23h98l18 5q101 -23 101 -98v-7q0 -67 -81 -97l-80 4 h-34l-56 -4q-86 0 -170 106q-30 57 -30 100v28q0 113 105 172z" />
<glyph unicode="&#x130;" horiz-adv-x="462" d="M265 1823q114 0 146 -133v-25q0 -83 -99 -128q-18 -9 -47 -9h-3q-121 0 -146 146q0 99 104 140q17 9 45 9zM160 1479l23 -4h137l18 4q106 -23 106 -110q-18 -103 -102 -103h14v-1087h-7q74 0 95 -100v-10q-18 -99 -102 -99h-183q-99 18 -99 102v7q21 100 95 100h-7v1087 h14q-90 0 -102 108v6q0 70 100 99z" />
<glyph unicode="&#x131;" horiz-adv-x="514" d="M335 1000h15q73 -16 73 -73v-881q-14 -76 -79 -76h-5q-76 16 -76 73v767q-34 -11 -60 -11q-56 0 -73 74v16q0 63 126 88z" />
<glyph unicode="&#x132;" horiz-adv-x="1435" d="M1290 1473h12q80 0 98 -99v-926q0 -255 -238 -409q-113 -65 -232 -65h-19q-236 0 -394 227q-73 121 -73 254q22 99 95 99h15q102 0 102 -147q5 -70 89 -161q81 -64 177 -64q190 0 260 199q10 35 10 71v926q18 95 98 95zM160 1479l23 -4h137l18 4q106 -23 106 -110 q-18 -103 -102 -103h14v-1087h-7q74 0 95 -100v-10q-18 -99 -102 -99h-183q-99 18 -99 102v7q21 100 95 100h-7v1087h14q-90 0 -102 108v6q0 70 100 99z" />
<glyph unicode="&#x133;" horiz-adv-x="761" d="M189 1316q99 -25 99 -94v-22q0 -79 -107 -94q-77 0 -101 105q21 105 109 105zM189 1060q99 -25 99 -94v-898q0 -81 -100 -98h-6q-82 0 -101 102v874q12 114 108 114zM580 1308q105 -21 105 -105q0 -88 -110 -105q-94 27 -94 94v22q0 68 99 94zM219 -438q-90 0 -104 109 q0 83 108 99q189 0 250 186l8 106v894q0 84 104 100q100 -19 100 -100v-928q0 -295 -281 -431q-88 -31 -166 -35h-19z" />
<glyph unicode="&#x134;" horiz-adv-x="1166" d="M905 1568q-74 -100 -130 -100h-15q-99 21 -99 102v12q0 50 126 186q45 72 104 72h28q64 0 159 -139q71 -71 71 -119v-15q-21 -99 -102 -99h-12q-56 0 -130 100zM907 1473h12q80 0 98 -99v-926q0 -255 -238 -409q-113 -65 -232 -65h-19q-236 0 -394 227q-73 121 -73 254 q22 99 95 99h15q102 0 102 -147q5 -70 89 -161q81 -64 177 -64q190 0 260 199q10 35 10 71v926q18 95 98 95z" />
<glyph unicode="&#x135;" horiz-adv-x="810" d="M522 1163q-74 -100 -130 -100h-15q-99 21 -99 102v12q0 50 126 186q45 72 104 72h28q64 0 159 -139q71 -71 71 -119v-15q-21 -99 -102 -99h-12q-56 0 -130 100zM532 1056q99 -19 99 -100v-928q0 -295 -280 -431q-99 -35 -183 -35l-4 4h23l-3 -4h-19q-89 0 -104 109 q0 83 109 99q188 0 249 186l8 106v894q0 84 105 100z" />
<glyph unicode="&#x136;" horiz-adv-x="1104" d="M148 1464h5q100 -17 100 -98v-581q658 657 674 657l27 4h12q95 -18 95 -98v-12q0 -51 -89 -124l-445 -448l522 -646l4 -33v-13q0 -81 -98 -98h-7q-61 0 -149 129l-423 513l-123 -126v-422q0 -81 -100 -98h-5q-83 0 -102 102v1290q19 102 102 102zM506 79q22 8 45 8 q38 0 78 -21q119 -79 119 -196q0 -169 -197 -218l-53 3h-50l-61 -3q-85 28 -85 89v17q17 90 93 90h121q36 0 36 22v3q0 15 -41 23q-63 30 -63 82q0 79 58 101z" />
<glyph unicode="&#x137;" horiz-adv-x="1026" d="M393 518l-125 -80v-370q0 -81 -100 -98h-6q-77 0 -102 94v1302q21 99 94 99h18q96 -21 96 -91v-690q489 324 586 379h27q86 0 102 -107q0 -66 -136 -138l-276 -189l406 -514l6 -33v-9q-18 -99 -102 -99h-7q-60 0 -157 140zM471 88q22 8 45 8q38 0 78 -21 q119 -79 119 -196q0 -169 -197 -218l-53 3h-50l-61 -3q-85 28 -85 89v17q17 90 93 90h121q36 0 36 22v3q0 15 -41 23q-63 30 -63 82q0 79 58 101z" />
<glyph unicode="&#x138;" horiz-adv-x="1043" d="M406 518l-125 -80v-370q0 -81 -100 -98h-6q-77 0 -102 94v934q16 87 93 105l28 1q82 -20 87 -110v-310q489 324 586 379h27q86 0 102 -107q0 -66 -136 -138l-276 -189l406 -514l6 -33v-9q-18 -99 -102 -99h-7q-60 0 -157 140z" />
<glyph unicode="&#x139;" horiz-adv-x="947" d="M528 1854q94 0 110 -116q0 -55 -192 -227q-76 -93 -130 -93h-15q-99 19 -99 102v16q0 47 149 181q120 137 177 137zM125 1463h18q95 -20 95 -90v-1196h587q87 0 103 -111q-29 -96 -103 -96h-692q-83 0 -102 103v1279q12 111 94 111z" />
<glyph unicode="&#x13a;" horiz-adv-x="466" d="M172 1457h18q95 -20 95 -90v-1190h49q73 0 94 -99v-8q-17 -100 -102 -100h-146q-83 0 -102 102v1275q12 110 94 110zM325 1867q89 0 104 -110q0 -52 -182 -215q-72 -88 -123 -88h-14q-94 18 -94 97v15q0 44 141 171q114 130 168 130z" />
<glyph unicode="&#x13b;" horiz-adv-x="929" d="M443 -30h-319q-83 0 -102 103v1279q12 111 94 111h18q95 -20 95 -90v-1196h587q87 0 103 -111q-29 -96 -103 -96h-227q119 -79 119 -196q0 -169 -197 -218l-53 3h-50l-61 -3q-85 28 -85 89v17q17 90 93 90h121q36 0 36 22v3q0 15 -41 23q-63 30 -63 82q0 61 35 88z" />
<glyph unicode="&#x13c;" horiz-adv-x="515" d="M366 -30l8 -4q119 -79 119 -196q0 -169 -197 -218l-53 3h-50l-61 -3q-85 28 -85 89v17q17 90 93 90h121q36 0 36 22v3q0 15 -41 23q-63 30 -63 82q0 66 40 92h-4q-83 0 -102 102v1275q12 110 94 110h18q95 -20 95 -90v-1190h49q73 0 94 -99v-8q-17 -100 -102 -100h-9z " />
<glyph unicode="&#x13d;" horiz-adv-x="973" d="M749 1606h28q110 0 142 -264v-22q0 -143 -157 -273q-38 -21 -67 -21q-33 13 -52 46v26q60 144 60 230v12q0 54 -48 136v31q21 99 94 99zM160 1463h18q95 -20 95 -90v-1196h587q87 0 103 -111q-29 -96 -103 -96h-692q-83 0 -102 103v1279q12 111 94 111z" />
<glyph unicode="&#x13e;" horiz-adv-x="559" d="M402 1597h28q110 0 142 -264v-22q0 -143 -157 -273q-38 -21 -67 -21q-33 13 -52 46v26q60 144 60 230v12q0 54 -48 136v31q21 99 94 99zM168 1457h18q95 -20 95 -90v-1190h49q73 0 94 -99v-8q-17 -100 -102 -100h-146q-83 0 -102 102v1275q12 110 94 110z" />
<glyph unicode="&#x13f;" horiz-adv-x="1004" d="M665 899q114 0 146 -133v-25q0 -83 -99 -128q-18 -9 -47 -9h-3q-121 0 -146 146q0 99 104 140q17 9 45 9zM160 1463h18q95 -20 95 -90v-1196h587q87 0 103 -111q-29 -96 -103 -96h-692q-83 0 -102 103v1279q12 111 94 111z" />
<glyph unicode="&#x140;" horiz-adv-x="665" d="M498 864q114 0 146 -133v-25q0 -83 -99 -128q-18 -9 -47 -9h-3q-121 0 -146 146q0 99 104 140q17 9 45 9zM159 1457h18q95 -20 95 -90v-1190h49q73 0 94 -99v-8q-17 -100 -102 -100h-146q-83 0 -102 102v1275q12 110 94 110z" />
<glyph unicode="&#x141;" horiz-adv-x="1079" d="M185 714v638q12 111 94 111h18q95 -20 95 -90v-509q198 145 230 145h20q73 0 98 -98v-16q0 -66 -133 -145l-215 -155v-418h587q87 0 103 -111q-29 -96 -103 -96h-692q-83 0 -102 103v376q-6 -4 -16 -4l-23 -5q-110 22 -110 111q0 74 149 163z" />
<glyph unicode="&#x142;" horiz-adv-x="695" d="M430 830q144 104 173 104h20q73 0 98 -98v-16q0 -66 -133 -145l-158 -114v-384h49q73 0 94 -99v-8q-17 -100 -102 -100h-146q-83 0 -102 102v340q-61 -42 -73 -42l-23 -5q-110 22 -110 111q0 75 165 173l41 30v668q12 110 94 110h18q95 -20 95 -90v-537z" />
<glyph unicode="&#x143;" horiz-adv-x="1285" d="M854 1788q94 0 110 -116q0 -55 -192 -227q-76 -93 -130 -93h-15q-99 19 -99 102v16q0 47 149 181q120 137 177 137zM1033 374v992q18 95 98 95h11q81 0 98 -98v-1288q0 -87 -107 -105q-61 0 -158 144l-733 936v-978q0 -81 -100 -98h-5q-83 0 -102 102v1274q12 111 94 111 h15q67 0 108 -88q53 -60 781 -999z" />
<glyph unicode="&#x144;" horiz-adv-x="1096" d="M678 1555q94 0 110 -116q0 -55 -192 -227q-76 -93 -130 -93h-15q-99 19 -99 102v16q0 47 149 181q120 137 177 137zM138 1032q96 -25 96 -92v-13q118 105 317 105q219 0 389 -182q124 -153 124 -323v-465q0 -73 -96 -92h-10q-97 17 -97 100v409q0 254 -216 333 q-53 14 -94 14h-11q-181 0 -280 -188q-26 -57 -26 -188v-384q0 -79 -97 -96h-6q-81 0 -100 100v849q11 113 107 113z" />
<glyph unicode="&#x145;" horiz-adv-x="1307" d="M1064 374v992q18 95 98 95h11q81 0 98 -98v-1288q0 -87 -107 -105q-61 0 -158 144l-733 936v-978q0 -81 -100 -98h-5q-83 0 -102 102v1274q12 111 94 111h15q67 0 108 -88q53 -60 781 -999zM655 88q22 8 45 8q38 0 78 -21q119 -79 119 -196q0 -169 -197 -218l-53 3h-50 l-61 -3q-85 28 -85 89v17q17 90 93 90h121q36 0 36 22v3q0 15 -41 23q-63 30 -63 82q0 79 58 101z" />
<glyph unicode="&#x146;" horiz-adv-x="1140" d="M514 84q22 8 45 8q38 0 78 -21q119 -79 119 -196q0 -169 -197 -218l-53 3h-50l-61 -3q-85 28 -85 89v17q17 90 93 90h121q36 0 36 22v3q0 15 -41 23q-63 30 -63 82q0 79 58 101zM142 1032q96 -25 96 -92v-13q118 105 317 105q219 0 389 -182q124 -153 124 -323v-465 q0 -73 -96 -92h-10q-97 17 -97 100v409q0 254 -216 333q-53 14 -94 14h-11q-181 0 -280 -188q-26 -57 -26 -188v-384q0 -79 -97 -96h-6q-81 0 -100 100v849q11 113 107 113z" />
<glyph unicode="&#x147;" horiz-adv-x="1321" d="M670 1620q74 100 130 100h15q99 -21 99 -102v-12q0 -47 -102 -159q-68 -99 -128 -99h-28q-63 0 -155 135q-75 75 -75 123v15q21 99 102 99h12q56 0 130 -100zM1051 374v992q18 95 98 95h11q81 0 98 -98v-1288q0 -87 -107 -105q-61 0 -158 144l-733 936v-978 q0 -81 -100 -98h-5q-83 0 -102 102v1274q12 111 94 111h15q67 0 108 -88q53 -60 781 -999z" />
<glyph unicode="&#x148;" horiz-adv-x="1114" d="M578 1369q74 100 130 100h15q99 -21 99 -102v-12q0 -47 -102 -159q-68 -99 -128 -99h-28q-63 0 -155 135q-75 75 -75 123v15q21 99 102 99h12q56 0 130 -100zM147 1032q96 -25 96 -92v-13q118 105 317 105q219 0 389 -182q124 -153 124 -323v-465q0 -73 -96 -92h-10 q-97 17 -97 100v409q0 254 -216 333q-53 14 -94 14h-11q-181 0 -280 -188q-26 -57 -26 -188v-384q0 -79 -97 -96h-6q-81 0 -100 100v849q11 113 107 113z" />
<glyph unicode="&#x149;" horiz-adv-x="1427" d="M119 1306h28q110 0 142 -264v-22q0 -143 -157 -273q-38 -21 -67 -21q-33 13 -52 46v26q60 144 60 230v12q0 54 -48 136v31q21 99 94 99zM398 1032q96 -25 96 -92v-13q118 105 317 105q219 0 389 -182q124 -153 124 -323v-465q0 -73 -96 -92h-10q-97 17 -97 100v409 q0 254 -216 333q-53 14 -94 14h-11q-181 0 -280 -188q-26 -57 -26 -188v-384q0 -79 -97 -96h-6q-81 0 -100 100v849q11 113 107 113z" />
<glyph unicode="&#x14a;" horiz-adv-x="1268" d="M643 1463q242 0 437 -190q142 -165 159 -319l7 -51l-3 -119v-207l3 -99q-15 -141 -96 -255q-161 -196 -394 -196q-167 0 -294 107l-11 48v17q18 95 98 95h13l126 -50l70 -7h6q155 0 243 152q32 48 32 199v230q0 304 -255 410q-74 24 -126 24h-22q-220 0 -348 -219 q-41 -75 -41 -237v-728q0 -81 -100 -98h-5q-83 0 -102 102v1276q12 111 94 111h18q95 -20 95 -90v-55q147 149 396 149z" />
<glyph unicode="&#x14b;" horiz-adv-x="1140" d="M1072 47q-4 -230 -250 -325l-96 -17q-102 23 -102 93v22q0 82 112 91q90 0 131 113q0 20 3 39v416q0 254 -216 333q-53 14 -94 14h-11q-181 0 -280 -188q-26 -57 -26 -188v-384q0 -79 -97 -96h-6q-81 0 -100 100v849q11 113 107 113q96 -25 96 -92v-13q118 105 317 105 q219 0 389 -182q124 -153 124 -323v-465q0 -8 -1 -15z" />
<glyph unicode="&#x14c;" horiz-adv-x="1580" d="M779 1465q378 0 632 -350q115 -199 115 -401q0 -374 -338 -622q-192 -122 -402 -122h-15q-386 0 -629 358q-111 182 -111 393q0 358 314 602q205 142 434 142zM238 710q0 -259 230 -437q142 -96 303 -96h19q253 0 429 226q100 144 100 315q0 293 -269 464 q-132 76 -271 76q-268 0 -445 -234q-96 -138 -96 -314zM370 1734h847q97 -18 97 -100v-15q-18 -97 -97 -97h-847q-87 0 -100 114q26 98 100 98z" />
<glyph unicode="&#x14d;" horiz-adv-x="1188" d="M583 1048q209 0 378 -158q161 -169 161 -381q0 -303 -286 -476q-125 -63 -242 -63h-30q-218 0 -405 204q-115 162 -115 335q0 263 232 440q148 99 307 99zM253 520v-18q0 -187 181 -290q64 -33 138 -33h22q193 0 296 201q23 62 23 122v18q0 155 -143 262q-83 57 -191 57 q-211 0 -310 -222q-16 -52 -16 -97zM163 1355h847q97 -18 97 -100v-15q-18 -97 -97 -97h-847q-87 0 -100 114q26 98 100 98z" />
<glyph unicode="&#x14e;" horiz-adv-x="1563" d="M587 1866h12q73 0 110 -98q40 -46 94 -46q82 0 122 98q43 46 86 46h11q103 -18 103 -106v-4q0 -98 -172 -219q-84 -31 -146 -31h-8q-211 0 -314 228v33q21 99 102 99zM788 1465q378 0 632 -350q115 -199 115 -401q0 -374 -338 -622q-192 -122 -402 -122h-15 q-386 0 -629 358q-111 182 -111 393q0 358 314 602q205 142 434 142zM247 710q0 -259 230 -437q142 -96 303 -96h19q253 0 429 226q100 144 100 315q0 293 -269 464q-132 76 -271 76q-268 0 -445 -234q-96 -138 -96 -314z" />
<glyph unicode="&#x14f;" horiz-adv-x="1127" d="M371 1466h12q73 0 110 -98q40 -46 94 -46q82 0 122 98q43 46 86 46h11q103 -18 103 -106v-4q0 -98 -172 -219q-84 -31 -146 -31h-8q-211 0 -314 228v33q21 99 102 99zM579 1048q209 0 378 -158q161 -169 161 -381q0 -303 -286 -476q-125 -63 -242 -63h-30 q-218 0 -405 204q-115 162 -115 335q0 263 232 440q148 99 307 99zM249 520v-18q0 -187 181 -290q64 -33 138 -33h22q193 0 296 201q23 62 23 122v18q0 155 -143 262q-83 57 -191 57q-211 0 -310 -222q-16 -52 -16 -97z" />
<glyph unicode="&#x150;" horiz-adv-x="1580" d="M597 1873h7q103 -18 103 -102v-20q0 -31 -175 -259q-28 -31 -59 -31h-8q-56 0 -74 70v18q110 275 140 302q37 22 66 22zM238 710q0 -259 230 -437q142 -96 303 -96h19q253 0 429 226q100 144 100 315q0 293 -269 464q-132 76 -271 76q-268 0 -445 -234q-96 -138 -96 -314 zM758 1465h21q378 0 632 -350q115 -199 115 -401q0 -374 -338 -622q-192 -122 -402 -122h-15q-386 0 -629 358q-111 182 -111 393q0 358 314 602q158 109 330 134q-28 16 -40 62q0 27 117 293q47 49 96 49q107 -21 107 -110q0 -42 -114 -185q-48 -74 -83 -101z" />
<glyph unicode="&#x151;" horiz-adv-x="1135" d="M460 1499h7q103 -18 103 -102v-20q0 -31 -175 -259q-28 -31 -59 -31h-8q-56 0 -74 70v18q110 275 140 302q37 22 66 22zM711 1487q107 -21 107 -110q0 -42 -114 -185q-75 -117 -120 -117h-12q-56 0 -74 70q0 27 117 293q47 49 96 49zM574 1048q209 0 378 -158 q161 -169 161 -381q0 -303 -286 -476q-125 -63 -242 -63h-30q-218 0 -405 204q-115 162 -115 335q0 263 232 440q148 99 307 99zM244 520v-18q0 -187 181 -290q64 -33 138 -33h22q193 0 296 201q23 62 23 122v18q0 155 -143 262q-83 57 -191 57q-211 0 -310 -222 q-16 -52 -16 -97z" />
<glyph unicode="&#x152;" horiz-adv-x="2157" d="M264 710q0 -261 189 -439q114 -94 242 -94h16q203 0 345 223q83 146 83 318q0 294 -220 466q-106 74 -217 74q-215 0 -358 -231q-80 -140 -80 -317zM1141 186q-6 -10 -99 -92q-160 -124 -334 -124h-13q-321 0 -521 360q-90 181 -90 391q0 356 257 600q170 144 361 144 q293 0 439 -221v124q15 100 72 100v11l52 -11h737l15 4q95 0 110 -114q-21 -98 -113 -98h-665v-452h424l54 4q76 0 99 -103q0 -73 -86 -109l-82 4h-409v-426h683q79 0 96 -112q-29 -96 -99 -96h-789q-99 18 -99 102v114z" />
<glyph unicode="&#x153;" horiz-adv-x="2025" d="M253 525v-18q0 -187 181 -290q64 -33 138 -33h22q193 0 296 201q23 62 23 122v18q0 155 -143 262q-83 57 -191 57q-211 0 -310 -222q-16 -52 -16 -97zM1133 581h640q0 35 -81 144q-110 104 -215 104h-41q-160 0 -263 -158q-37 -63 -40 -90zM1020 195q-46 -74 -184 -157 q-125 -63 -242 -63h-30q-218 0 -405 204q-115 162 -115 335q0 263 232 440q148 99 307 99q209 0 378 -158q52 -54 62 -70q41 67 171 148q135 66 253 66q307 0 477 -291q59 -115 59 -248v-22q-18 -100 -100 -100h-733q29 -95 160 -166q77 -30 145 -30q77 0 187 55h32 q93 -18 93 -96v-11q0 -117 -292 -155h-28q-282 0 -427 220z" />
<glyph unicode="&#x154;" horiz-adv-x="986" d="M243 1261v-425h185q156 0 206 169l3 27v28q0 123 -140 188q-39 13 -129 13h-125zM411 1465h33q218 0 355 -228q45 -89 45 -185v-15q0 -214 -208 -351l-10 -5q332 -573 332 -594v-19q0 -81 -100 -98h-6q-73 0 -140 145l-301 514h-168v-561q0 -81 -100 -98h-6 q-83 0 -102 103v1280q12 112 94 112h185q-59 26 -59 90v16q0 47 149 181q120 137 177 137q94 0 110 -116q0 -55 -192 -227q-49 -60 -88 -81z" />
<glyph unicode="&#x155;" horiz-adv-x="928" d="M603 1537q94 0 110 -116q0 -55 -192 -227q-76 -93 -130 -93h-15q-99 19 -99 102v16q0 47 149 181q120 137 177 137zM177 1061q98 -25 98 -94v-16q124 110 323 110q107 0 232 -54q43 -44 43 -85v-7q-17 -98 -101 -98h-9q-103 33 -150 33h-22q-202 0 -296 -210 q-20 -55 -20 -128v-444q0 -81 -100 -98h-6q-82 0 -101 102v874q12 115 109 115z" />
<glyph unicode="&#x156;" horiz-adv-x="995" d="M134 1465h315q218 0 355 -228q45 -89 45 -185v-15q0 -214 -208 -351l-10 -5q332 -573 332 -594v-19q0 -81 -100 -98h-6q-73 0 -140 145l-301 514h-168v-561q0 -81 -100 -98h-6q-83 0 -102 103v1280q12 112 94 112zM248 1261v-425h185q156 0 206 169l3 27v28 q0 123 -140 188q-39 13 -129 13h-125zM466 120q22 8 45 8q38 0 78 -21q119 -79 119 -196q0 -169 -197 -218l-53 3h-50l-61 -3q-85 28 -85 89v17q17 90 93 90h121q36 0 36 22v3q0 15 -41 23q-63 30 -63 82q0 79 58 101z" />
<glyph unicode="&#x157;" horiz-adv-x="854" d="M129 1061q98 -25 98 -94v-16q124 110 323 110q107 0 232 -54q43 -44 43 -85v-7q-17 -98 -101 -98h-9q-103 33 -150 33h-22q-202 0 -296 -210q-20 -55 -20 -128v-444q0 -81 -100 -98h-6q-82 0 -101 102v874q12 115 109 115zM303 115q22 8 45 8q38 0 78 -21 q119 -79 119 -196q0 -169 -197 -218l-53 3h-50l-61 -3q-85 28 -85 89v17q17 90 93 90h121q36 0 36 22v3q0 15 -41 23q-63 30 -63 82q0 79 58 101z" />
<glyph unicode="&#x158;" horiz-adv-x="1003" d="M388 1761q74 100 130 100h15q99 -21 99 -102v-12q0 -47 -102 -159q-68 -99 -128 -99h-28q-63 0 -155 135q-75 75 -75 123v15q21 99 102 99h12q56 0 130 -100zM129 1465h315q218 0 355 -228q45 -89 45 -185v-15q0 -214 -208 -351l-10 -5q332 -573 332 -594v-19 q0 -81 -100 -98h-6q-73 0 -140 145l-301 514h-168v-561q0 -81 -100 -98h-6q-83 0 -102 103v1280q12 112 94 112zM243 1261v-425h185q156 0 206 169l3 27v28q0 123 -140 188q-39 13 -129 13h-125z" />
<glyph unicode="&#x159;" horiz-adv-x="885" d="M433 1361q74 100 130 100h15q99 -21 99 -102v-12q0 -47 -102 -159q-68 -99 -128 -99h-28q-63 0 -155 135q-75 75 -75 123v15q21 99 102 99h12q56 0 130 -100zM147 1061q98 -25 98 -94v-16q124 110 323 110q107 0 232 -54q43 -44 43 -85v-7q-17 -98 -101 -98h-9 q-103 33 -150 33h-22q-202 0 -296 -210q-20 -55 -20 -128v-444q0 -81 -100 -98h-6q-82 0 -101 102v874q12 115 109 115z" />
<glyph unicode="&#x15a;" horiz-adv-x="929" d="M513 1467q201 0 337 -185l7 -25v-27q0 -74 -101 -91q-46 0 -125 88q-55 35 -106 35h-23q-108 0 -164 -117q-12 -26 -12 -52v-31q0 -124 150 -180q131 0 287 -126q151 -153 151 -336q0 -225 -193 -368q-118 -82 -261 -82q-232 0 -387 204l-11 43q19 103 104 103 q54 0 123 -88q83 -57 152 -57h34q134 0 217 153q13 49 13 73v38q0 133 -154 217l-195 54q-236 136 -236 356v27q0 218 231 340q87 34 162 34zM618 1893q94 0 110 -116q0 -55 -193 -227q-75 -93 -129 -93h-15q-99 19 -99 102v16q0 47 148 181q121 137 178 137z" />
<glyph unicode="&#x15b;" horiz-adv-x="980" d="M612 1474q94 0 110 -116q0 -55 -192 -227q-76 -93 -130 -93h-15q-99 19 -99 102v16q0 47 149 181q120 137 177 137zM744 327q-1 20 -41 24q-506 113 -540 144q-103 78 -103 193q0 156 218 296q120 63 237 63q274 0 433 -253l4 -37v-6q0 -85 -102 -100q-68 0 -126 96 q-91 89 -209 89q-154 0 -241 -144l-2 -10q0 -20 86 -27q430 -104 475 -121q123 -81 123 -205v-3q0 -171 -242 -309q-105 -47 -221 -47q-240 0 -405 224q-21 30 -21 58v22q0 81 110 93q53 0 125 -103q88 -82 206 -82q140 0 232 131z" />
<glyph unicode="&#x15c;" horiz-adv-x="885" d="M491 1467q201 0 337 -185l7 -25v-27q0 -74 -101 -91q-46 0 -125 88q-55 35 -106 35h-23q-108 0 -164 -117q-12 -26 -12 -52v-31q0 -124 150 -180q131 0 287 -126q151 -153 151 -336q0 -225 -193 -368q-118 -82 -261 -82q-232 0 -387 204l-11 43q19 103 104 103 q54 0 123 -88q83 -57 152 -57h34q134 0 217 153q13 49 13 73v38q0 133 -154 217l-195 54q-236 136 -236 356v27q0 218 231 340q87 34 162 34zM480 1564q-75 -101 -130 -101h-15q-99 21 -99 102v12q0 50 126 186q45 72 104 72h28q63 0 159 -139q71 -71 71 -119v-15 q-21 -99 -102 -99h-12q-56 0 -130 101z" />
<glyph unicode="&#x15d;" horiz-adv-x="969" d="M518 1149q-74 -100 -130 -100h-15q-99 21 -99 102v12q0 50 126 186q45 72 104 72h28q64 0 159 -139q71 -71 71 -119v-15q-21 -99 -102 -99h-12q-56 0 -130 100zM744 327q-1 20 -41 24q-506 113 -540 144q-103 78 -103 193q0 156 218 296q120 63 237 63q274 0 433 -253 l4 -37v-6q0 -85 -102 -100q-68 0 -126 96q-91 89 -209 89q-154 0 -241 -144l-2 -10q0 -20 86 -27q430 -104 475 -121q123 -81 123 -205v-3q0 -171 -242 -309q-105 -47 -221 -47q-240 0 -405 224q-21 30 -21 58v22q0 81 110 93q53 0 125 -103q88 -82 206 -82q140 0 232 131z " />
<glyph unicode="&#x15e;" horiz-adv-x="903" d="M558 -15q102 -68 102 -184q0 -169 -198 -218l-52 3h-51l-60 -3q-85 28 -85 89v17q17 90 93 90h121q36 0 36 22v3q0 15 -42 23q-62 30 -62 82v66q-171 17 -309 199l-11 43q19 103 104 103q54 0 123 -88q83 -57 152 -57h34q134 0 217 153q13 49 13 73v38q0 133 -154 217 l-195 54q-236 136 -236 356v27q0 218 231 340q87 34 162 34q201 0 337 -185l7 -25v-27q0 -74 -101 -91q-46 0 -125 88q-55 35 -106 35h-23q-108 0 -164 -117q-12 -26 -12 -52v-31q0 -124 150 -180q131 0 287 -126q151 -153 151 -336q0 -225 -193 -368q-77 -53 -141 -67z" />
<glyph unicode="&#x15f;" horiz-adv-x="978" d="M748 327q-1 20 -41 24q-506 113 -540 144q-103 78 -103 193q0 156 218 296q120 63 237 63q274 0 433 -253l4 -37v-6q0 -85 -102 -100q-68 0 -126 96q-91 89 -209 89q-154 0 -241 -144l-2 -10q0 -20 86 -27q430 -104 475 -121q123 -81 123 -205v-3q0 -171 -242 -309 q-63 -28 -105 -35v-4q104 -69 104 -186q0 -169 -197 -218l-53 3h-50l-61 -3q-85 28 -85 89v17q17 90 93 90h121q36 0 36 22v3q0 15 -41 23q-63 30 -63 82v76q-179 20 -325 218q-21 30 -21 58v22q0 81 110 93q53 0 125 -103q88 -82 206 -82q140 0 232 131z" />
<glyph unicode="&#x160;" horiz-adv-x="924" d="M486 1467q201 0 337 -185l7 -25v-27q0 -74 -101 -91q-46 0 -125 88q-55 35 -106 35h-23q-108 0 -164 -117q-12 -26 -12 -52v-31q0 -124 150 -180q131 0 287 -126q151 -153 151 -336q0 -225 -193 -368q-118 -82 -261 -82q-232 0 -387 204l-11 43q19 103 104 103 q54 0 123 -88q83 -57 152 -57h34q134 0 217 153q13 49 13 73v38q0 133 -154 217l-195 54q-236 136 -236 356v27q0 218 231 340q87 34 162 34zM481 1751q75 101 131 101h15q99 -21 99 -102v-12q0 -47 -103 -159q-67 -99 -127 -99h-28q-63 0 -155 135q-75 75 -75 123v15 q20 99 102 99h12q55 0 129 -101z" />
<glyph unicode="&#x161;" horiz-adv-x="977" d="M512 1374q74 100 130 100h15q99 -21 99 -102v-12q0 -47 -102 -159q-68 -99 -128 -99h-28q-63 0 -155 135q-75 75 -75 123v15q21 99 102 99h12q56 0 130 -100zM735 327q-1 20 -41 24q-506 113 -540 144q-103 78 -103 193q0 156 218 296q120 63 237 63q274 0 433 -253 l4 -37v-6q0 -85 -102 -100q-68 0 -126 96q-91 89 -209 89q-154 0 -241 -144l-2 -10q0 -20 86 -27q430 -104 475 -121q123 -81 123 -205v-3q0 -171 -242 -309q-105 -47 -221 -47q-240 0 -405 224q-21 30 -21 58v22q0 81 110 93q53 0 125 -103q88 -82 206 -82q140 0 232 131z " />
<glyph unicode="&#x162;" horiz-adv-x="1219" d="M138 1466h936q95 -18 95 -98v-15q0 -82 -111 -94h-348v-1191q0 -81 -100 -98h-5q-83 0 -102 103v1186h-356q-103 20 -103 108q22 99 94 99zM563 -43h28q108 0 142 -170v-15q0 -97 -162 -178q-36 -12 -59 -12q-31 7 -55 33v28q60 87 60 134v7q0 26 -48 75v29q24 69 94 69z " />
<glyph unicode="&#x163;" horiz-adv-x="730" d="M322 1420h17q93 -20 93 -89v-300h119l33 4q77 0 101 -100q0 -75 -88 -107l-60 4h-105v-509q0 -120 68 -143l79 -7h40q73 0 92 -97v-9q-17 -97 -100 -97h-77q-194 0 -288 210q-17 53 -17 121v531h-42l-64 -4q-88 31 -88 106q17 97 66 97v7l69 -7h59v280q12 109 93 109z M422 -27h28q108 0 142 -170v-15q0 -97 -162 -178q-36 -12 -59 -12q-31 7 -55 33v28q60 87 60 134v7q0 26 -48 75v29q24 69 94 69z" />
<glyph unicode="&#x164;" horiz-adv-x="1224" d="M618 1766q74 100 130 100h15q99 -21 99 -102v-12q0 -47 -102 -159q-68 -99 -128 -99h-28q-63 0 -155 135q-75 75 -75 123v15q21 99 102 99h12q56 0 130 -100zM147 1466h936q95 -18 95 -98v-15q0 -82 -111 -94h-348v-1191q0 -81 -100 -98h-5q-83 0 -102 103v1186h-356 q-103 20 -103 108q22 99 94 99z" />
<glyph unicode="&#x165;" horiz-adv-x="757" d="M367 1730q74 100 130 100h15q99 -21 99 -102v-12q0 -47 -102 -159q-68 -99 -128 -99h-28q-63 0 -155 135q-75 75 -75 123v15q21 99 102 99h12q56 0 130 -100zM349 1420h17q93 -20 93 -89v-300h119l33 4q77 0 101 -100q0 -75 -88 -107l-60 4h-105v-509q0 -120 68 -143 l79 -7h40q73 0 92 -97v-9q-17 -97 -100 -97h-77q-194 0 -288 210q-17 53 -17 121v531h-42l-64 -4q-88 31 -88 106q17 97 66 97v7l69 -7h59v280q12 109 93 109z" />
<glyph unicode="&#x166;" horiz-adv-x="1197" d="M507 611h-254l-69 -4q-94 33 -94 113q18 103 72 103v7l71 -7h274v436h-356q-103 20 -103 108q22 99 94 99h936q95 -18 95 -98v-15q0 -82 -111 -94h-348v-436h236l36 4q85 0 108 -107q0 -75 -89 -113l-74 4h-217v-543q0 -81 -100 -98h-5q-83 0 -102 103v538z" />
<glyph unicode="&#x167;" horiz-adv-x="748" d="M242 648v184h-42l-64 -4q-88 31 -88 106q17 97 66 97v7l69 -7h59v280q12 109 93 109h17q93 -20 93 -89v-300h119l33 4q77 0 101 -100q0 -75 -88 -107l-60 4h-105v-184h116l34 4q78 0 103 -106q0 -79 -89 -114l-62 4h-102v-113q0 -120 68 -143l79 -7h40q73 0 92 -97v-9 q-17 -97 -100 -97h-77q-194 0 -288 210q-17 53 -17 121v135h-35l-65 -4q-90 33 -90 112q16 104 68 104v7l69 -7h53z" />
<glyph unicode="&#x168;" horiz-adv-x="1219" d="M160 1463h18q95 -20 95 -90v-806q0 -243 135 -323q86 -67 191 -67q202 0 305 208q21 65 21 137v843q17 98 98 98h14q95 -18 95 -98v-881q0 -240 -228 -417q-145 -97 -294 -97h-26q-250 0 -434 244q-84 132 -84 323v815q12 111 94 111zM491 1745h19q79 0 174 -65l21 -5h10 l77 23q105 -21 105 -105q0 -100 -168 -122h-28q-78 0 -174 65l-21 5h-11l-70 -18h-14q-93 18 -93 96v11q0 79 102 103q33 12 71 12z" />
<glyph unicode="&#x169;" horiz-adv-x="1131" d="M451 1344h19q79 0 174 -65l21 -5h10l77 23q105 -21 105 -105q0 -100 -168 -122h-28q-78 0 -174 65l-21 5h-11l-70 -18h-14q-93 18 -93 96v11q0 79 102 103q33 12 71 12zM874 77q-138 -107 -303 -107h-25q-242 0 -420 236q-82 128 -82 313v399q11 114 107 114 q96 -25 96 -93v-391q0 -234 129 -311q83 -64 184 -64q195 0 294 200q20 65 20 131v427q19 101 107 101q95 -23 95 -100v-870q0 -73 -96 -92h-10q-96 17 -96 99v8z" />
<glyph unicode="&#x16a;" horiz-adv-x="1135" d="M129 1463h18q95 -20 95 -90v-806q0 -243 135 -323q86 -67 191 -67q202 0 305 208q21 65 21 137v843q17 98 98 98h14q95 -18 95 -98v-881q0 -240 -228 -417q-145 -97 -294 -97h-26q-250 0 -434 244q-84 132 -84 323v815q12 111 94 111zM208 1746l65 -8h602l30 4 q77 0 96 -107q0 -73 -78 -114l-64 5h-570l-60 -4q-82 34 -82 112q15 104 61 104v8z" />
<glyph unicode="&#x16b;" horiz-adv-x="1135" d="M282 1329l524 1q107 -19 107 -101v-14q-13 -98 -106 -98h-538q-92 0 -101 113q18 99 114 99zM865 77q-138 -107 -303 -107h-25q-242 0 -420 236q-82 128 -82 313v399q11 114 107 114q96 -25 96 -93v-391q0 -234 129 -311q83 -64 184 -64q195 0 294 200q20 65 20 131v427 q19 101 107 101q95 -23 95 -100v-870q0 -73 -96 -92h-10q-96 17 -96 99v8z" />
<glyph unicode="&#x16c;" horiz-adv-x="1149" d="M371 1830h12q73 0 110 -98q40 -46 94 -46q82 0 122 98q43 46 86 46h11q103 -18 103 -106v-4q0 -98 -172 -219q-84 -31 -146 -31h-8q-211 0 -314 228v33q21 99 102 99zM129 1463h18q95 -20 95 -90v-806q0 -243 135 -323q86 -67 191 -67q202 0 305 208q21 65 21 137v843 q17 98 98 98h14q95 -18 95 -98v-881q0 -240 -228 -417q-145 -97 -294 -97h-26q-250 0 -434 244q-84 132 -84 323v815q12 111 94 111z" />
<glyph unicode="&#x16d;" horiz-adv-x="1171" d="M358 1426h12q73 0 110 -98q40 -46 94 -46q82 0 122 98q43 46 86 46h11q103 -18 103 -106v-4q0 -98 -172 -219q-84 -31 -146 -31h-8q-211 0 -314 228v33q21 99 102 99zM892 77q-138 -107 -303 -107h-25q-242 0 -420 236q-82 128 -82 313v399q11 114 107 114q96 -25 96 -93 v-391q0 -234 129 -311q83 -64 184 -64q195 0 294 200q20 65 20 131v427q19 101 107 101q95 -23 95 -100v-870q0 -73 -96 -92h-10q-96 17 -96 99v8z" />
<glyph unicode="&#x16e;" horiz-adv-x="1127" d="M125 1463h18q95 -20 95 -90v-806q0 -243 135 -323q86 -67 191 -67q202 0 305 208q21 65 21 137v843q17 98 98 98h14q95 -18 95 -98v-881q0 -240 -228 -417q-145 -97 -294 -97h-26q-250 0 -434 244q-84 132 -84 323v815q12 111 94 111zM570 1862h17q142 0 203 -170l5 -43 v-13q0 -138 -162 -203l-50 -9q-134 0 -204 131q-22 47 -22 92q0 148 171 210zM534 1643q8 -41 40 -41q44 7 44 38v8q-6 37 -34 37h-12q-31 0 -38 -42z" />
<glyph unicode="&#x16f;" horiz-adv-x="1180" d="M575 1435h17q142 0 203 -170l5 -43v-13q0 -138 -162 -203l-50 -9q-134 0 -204 131q-22 47 -22 92q0 148 171 210zM539 1216q8 -41 40 -41q44 7 44 38v8q-6 37 -34 37h-12q-31 0 -38 -42zM892 77q-138 -107 -303 -107h-25q-242 0 -420 236q-82 128 -82 313v399 q11 114 107 114q96 -25 96 -93v-391q0 -234 129 -311q83 -64 184 -64q195 0 294 200q20 65 20 131v427q19 101 107 101q95 -23 95 -100v-870q0 -73 -96 -92h-10q-96 17 -96 99v8z" />
<glyph unicode="&#x170;" horiz-adv-x="1175" d="M585 1864h7q103 -18 103 -102v-20q0 -31 -175 -259q-28 -31 -59 -31h-8q-56 0 -74 70v18q110 275 140 302q37 22 66 22zM836 1852q107 -21 107 -110q0 -42 -114 -185q-75 -117 -120 -117h-12q-56 0 -74 70q0 27 117 293q47 49 96 49zM151 1463h18q95 -20 95 -90v-806 q0 -243 135 -323q86 -67 191 -67q202 0 305 208q21 65 21 137v843q17 98 98 98h14q95 -18 95 -98v-881q0 -240 -228 -417q-145 -97 -294 -97h-26q-250 0 -434 244q-84 132 -84 323v815q12 111 94 111z" />
<glyph unicode="&#x171;" horiz-adv-x="1144" d="M545 1433h7q103 -18 103 -102v-20q0 -31 -175 -259q-28 -31 -59 -31h-8q-56 0 -74 70v18q110 275 140 302q37 22 66 22zM796 1421q107 -21 107 -110q0 -42 -114 -185q-75 -117 -120 -117h-12q-56 0 -74 70q0 27 117 293q47 49 96 49zM874 77q-138 -107 -303 -107h-25 q-242 0 -420 236q-82 128 -82 313v399q11 114 107 114q96 -25 96 -93v-391q0 -234 129 -311q83 -64 184 -64q195 0 294 200q20 65 20 131v427q19 101 107 101q95 -23 95 -100v-870q0 -73 -96 -92h-10q-96 17 -96 99v8z" />
<glyph unicode="&#x172;" horiz-adv-x="1202" d="M493 -23q-186 25 -347 237q-84 132 -84 323v815q12 111 94 111h18q95 -20 95 -90v-806q0 -243 135 -323q86 -67 191 -67q202 0 305 208q21 65 21 137v843q17 98 98 98h14q95 -18 95 -98v-881q0 -240 -228 -417q-114 -76 -204 -89v-69q0 -84 -99 -99q-7 -4 -7 -17 q0 -23 37 -23h98l18 5q101 -23 101 -98v-7q0 -67 -81 -97l-80 4h-34l-56 -4q-86 0 -170 106q-30 57 -30 100v28q0 111 100 170z" />
<glyph unicode="&#x173;" horiz-adv-x="1211" d="M883 77q-138 -107 -303 -107h-25q-242 0 -420 236q-82 128 -82 313v399q11 114 107 114q96 -25 96 -93v-391q0 -234 129 -311q83 -64 184 -64q195 0 294 200q20 65 20 131v427q19 101 107 101q95 -23 95 -100v-858q1 -4 3 -16v-105q0 -84 -99 -99q-7 -4 -7 -17 q0 -23 37 -23h98l18 5q101 -23 101 -98v-7q0 -67 -81 -97l-80 4h-34l-56 -4q-86 0 -170 106q-30 57 -30 100v28q0 113 105 172l-1 9q-6 13 -6 37v8z" />
<glyph unicode="&#x174;" horiz-adv-x="1778" d="M906 1598q-74 -100 -130 -100h-15q-99 21 -99 102v12q0 50 126 186q45 72 104 72h28q64 0 159 -139q71 -71 71 -119v-15q-21 -99 -102 -99h-12q-56 0 -130 100zM898 993l-280 -973q-41 -50 -88 -50h-15q-88 0 -114 167q-324 1105 -353 1227q23 102 95 102h16 q89 0 112 -137l254 -885q270 949 292 985q36 37 77 37h11q93 0 116 -159q25 -69 250 -861l282 970q39 50 80 50h18q95 -20 95 -90v-23l-387 -1339q-45 -44 -86 -44h-4q-97 0 -121 164z" />
<glyph unicode="&#x175;" horiz-adv-x="1422" d="M712 1127q-74 -100 -130 -100h-15q-99 21 -99 102v12q0 50 126 186q45 72 104 72h28q64 0 159 -139q71 -71 71 -119v-15q-21 -99 -102 -99h-12q-56 0 -130 100zM702 600l-188 -581q-37 -49 -86 -49h-3q-74 0 -103 87l-278 876q21 106 105 106q93 0 124 -171l153 -468 q183 580 201 604q35 30 76 35q93 0 119 -145l160 -494q174 550 194 593q43 46 87 46q101 -20 101 -109l-295 -918q-45 -42 -85 -42h-3q-93 0 -125 166z" />
<glyph unicode="&#x176;" horiz-adv-x="1167" d="M576 897q353 531 372 545q28 21 52 21h23q69 0 94 -98q0 -46 -135 -230l-301 -450v-604q-13 -111 -94 -111h-16q-72 0 -98 86v626q0 5 -154 234l-273 411l-6 35q23 101 95 101h16q69 0 105 -88zM581 1551q-75 -101 -130 -101h-16q-98 21 -98 102v12q0 50 126 186 q45 72 104 72h28q63 0 159 -139q71 -71 71 -119v-15q-21 -99 -102 -99h-12q-56 0 -130 101z" />
<glyph unicode="&#x177;" horiz-adv-x="964" d="M519 1153q-74 -100 -130 -100h-15q-99 21 -99 102v12q0 50 126 186q45 72 104 72h28q64 0 159 -139q71 -71 71 -119v-15q-21 -99 -102 -99h-12q-56 0 -130 100zM499 383q249 607 269 630q35 29 73 29q96 -18 96 -96v-6q-4 -31 -347 -849q-163 -405 -188 -437 q-25 -19 -65 -30q-101 22 -101 91v17q0 19 155 393l-330 805v12q19 96 100 96t129 -158z" />
<glyph unicode="&#x178;" horiz-adv-x="1149" d="M576 897q353 531 372 545q28 21 52 21h23q69 0 94 -98q0 -46 -135 -230l-301 -450v-604q-13 -111 -94 -111h-16q-72 0 -98 86v626q0 5 -154 234l-273 411l-6 35q23 101 95 101h16q69 0 105 -88zM426 1717h18q95 -20 95 -90v-19q0 -80 -103 -99q-104 21 -104 110 q22 98 94 98zM712 1717h18q95 -21 95 -94v-11q0 -86 -106 -102q-101 19 -101 102v11q0 73 94 94z" />
<glyph unicode="&#x179;" horiz-adv-x="1272" d="M734 1837q100 -23 100 -100v-7q0 -43 -87 -139q-68 -104 -137 -104h-4q-71 0 -92 97v10q0 44 120 180q46 63 100 63zM125 1467h1021q80 0 98 -99v-6q0 -40 -90 -145l-804 -1039h794q100 -15 100 -102v-7q-18 -99 -102 -99h-1009q-86 0 -102 108q0 41 188 275l703 907 h-788q-103 20 -103 108q22 99 94 99z" />
<glyph unicode="&#x17a;" horiz-adv-x="973" d="M601 1419q100 -23 100 -100v-7q0 -43 -87 -139q-68 -104 -137 -104h-4q-71 0 -92 97v10q0 44 120 180q46 63 100 63zM110 1045l69 -7h635l39 5q93 -29 93 -94v-22q0 -35 -92 -135l-493 -618h492q93 -18 93 -96v-12q0 -79 -97 -96h-705q-85 0 -100 106q0 42 158 224 l427 538h-432l-64 -4q-89 31 -89 107q17 97 66 97v7z" />
<glyph unicode="&#x17b;" horiz-adv-x="1325" d="M670 1827q114 0 146 -133v-25q0 -83 -99 -128q-18 -9 -47 -9h-3q-121 0 -146 146q0 99 104 140q17 9 45 9zM138 1467h1021q80 0 98 -99v-6q0 -40 -90 -145l-804 -1039h794q100 -15 100 -102v-7q-18 -99 -102 -99h-1009q-86 0 -102 108q0 41 188 275l703 907h-788 q-103 20 -103 108q22 99 94 99z" />
<glyph unicode="&#x17c;" horiz-adv-x="1004" d="M512 1387q114 0 146 -133v-25q0 -83 -99 -128q-18 -9 -47 -9h-3q-121 0 -146 146q0 99 104 140q17 9 45 9zM106 1045l69 -7h635l39 5q93 -29 93 -94v-22q0 -35 -92 -135l-493 -618h492q93 -18 93 -96v-12q0 -79 -97 -96h-705q-85 0 -100 106q0 42 158 224l427 538h-432 l-64 -4q-89 31 -89 107q17 97 66 97v7z" />
<glyph unicode="&#x17d;" horiz-adv-x="1294" d="M666 1766q74 100 130 100h15q99 -21 99 -102v-12q0 -47 -102 -159q-68 -99 -128 -99h-28q-63 0 -155 135q-75 75 -75 123v15q21 99 102 99h12q56 0 130 -100zM142 1467h1021q80 0 98 -99v-6q0 -40 -90 -145l-804 -1039h794q100 -15 100 -102v-7q-18 -99 -102 -99h-1009 q-86 0 -102 108q0 41 188 275l703 907h-788q-103 20 -103 108q22 99 94 99z" />
<glyph unicode="&#x17e;" horiz-adv-x="978" d="M521 1388q74 100 130 100h15q99 -21 99 -102v-12q0 -47 -102 -159q-68 -99 -128 -99h-28q-63 0 -155 135q-75 75 -75 123v15q21 99 102 99h12q56 0 130 -100zM106 1045l69 -7h635l39 5q93 -29 93 -94v-22q0 -35 -92 -135l-493 -618h492q93 -18 93 -96v-12q0 -79 -97 -96 h-705q-85 0 -100 106q0 42 158 224l427 538h-432l-64 -4q-89 31 -89 107q17 97 66 97v7z" />
<glyph unicode="&#x17f;" horiz-adv-x="616" d="M413 1467h93q78 0 94 -108q0 -77 -102 -100h-61q-115 0 -152 -127l-3 -75v-946l3 -42q0 -76 -101 -99q-76 0 -110 90l4 51v749l-4 145v68q0 274 245 377z" />
<glyph unicode="&#x192;" horiz-adv-x="973" d="M732 1454h98q82 0 98 -112q0 -80 -106 -104h-64q-123 0 -162 -135l-4 -80v-25h141l64 4q76 0 99 -103v-15q0 -73 -98 -98h-206v-729l4 -98q-16 -117 -87 -210q-128 -135 -279 -135h-84q-84 0 -102 106q17 110 106 110h52q117 0 165 102q13 35 13 124v730h-178 q-82 0 -98 112q0 61 88 104l87 -4h97v42q0 289 258 397z" />
<glyph unicode="&#x1fa;" horiz-adv-x="1266" d="M756 716l-120 303l-118 -303h238zM585 1474q9 -46 46 -46q52 9 52 40v12q-6 39 -38 39h-16q-36 0 -44 -45zM745 1309q5 -8 19 -63q457 -1136 462 -1169v-12q0 -80 -100 -95h-6q-90 0 -123 143l-161 401h-402l-203 -511q-45 -33 -78 -33h-9q-100 17 -100 99v10l130 336 q319 791 354 893q-30 16 -65 81q-19 43 -19 81q0 103 54 136h1q2 0 2 4q0 11 -8 45v9q0 41 109 164q42 58 92 58q93 -21 93 -93v-6q0 -40 -79 -127q-8 -12 -8 -15h1q2 0 15 14q56 0 111 -149l3 -39v-10q0 -110 -85 -152z" />
<glyph unicode="&#x1fb;" horiz-adv-x="1171" d="M586 1477q124 0 193 -127q21 -45 21 -90q0 -144 -166 -204l-42 -5h-16q-139 0 -198 166l-5 41v13q0 146 175 203zM547 1268v-11q9 -32 29 -32h14q30 0 36 39q-7 40 -36 40q-43 -7 -43 -36zM671 1828q100 -23 100 -100v-7q0 -43 -87 -139q-68 -104 -137 -104h-4 q-71 0 -92 97v10q0 44 120 180q46 63 100 63zM243 509v-11q0 -200 202 -301q62 -24 112 -24h30q166 0 274 168q40 78 40 150v15q0 192 -192 295q-66 30 -137 30h-4q-202 0 -305 -212q-20 -65 -20 -110zM902 81q-120 -111 -315 -111h-30q-271 0 -451 271q-66 132 -66 265 q0 297 291 470q124 58 241 58q302 0 478 -294q54 -122 54 -249v-425q0 -79 -97 -96h-6q-68 0 -100 79v11z" />
<glyph unicode="&#x1fc;" horiz-adv-x="1615" d="M1062 1860q100 -23 100 -100v-7q0 -43 -87 -139q-68 -104 -137 -104h-4q-71 0 -92 97v10q0 44 120 180q46 63 100 63zM867 1465h595q69 0 95 -101q-21 -106 -107 -106h-470v-508h363q96 -21 96 -91v-19q0 -81 -100 -98h-359v-364h474q83 0 102 -103q0 -83 -103 -105h-578 q-83 0 -102 103v469h-233q-9 -11 -154 -281l-147 -257q-39 -34 -76 -34h-4q-86 0 -102 108q0 32 246 463l496 891q40 33 68 33zM657 750h116v207z" />
<glyph unicode="&#x1fd;" horiz-adv-x="2042" d="M1115 1393q100 -23 100 -100v-7q0 -43 -87 -139q-68 -104 -137 -104h-4q-71 0 -92 97v10q0 44 120 180q46 63 100 63zM246 511v-11q0 -199 201 -300q63 -24 113 -24h29q165 0 273 168q40 77 40 149v14q0 192 -191 295q-66 30 -137 30h-3q-202 0 -305 -211 q-20 -65 -20 -110zM1115 574h638v-26q0 84 -107 197q-102 79 -214 79q-171 0 -277 -160q-40 -75 -40 -90zM903 84q-118 -110 -314 -110h-29q-271 0 -450 270q-66 131 -66 263q0 297 290 469q124 58 240 58q266 0 432 -223q88 133 271 196q89 23 159 23q296 0 468 -286 q58 -120 58 -226v-50q-17 -96 -99 -96h-726q36 -85 115 -139q87 -57 180 -57q81 0 188 54l29 5q102 -24 102 -104q0 -119 -268 -157l-54 -4q-205 0 -325 111v-12q0 -89 -105 -99h-5q-58 0 -92 83z" />
<glyph unicode="&#x1fe;" horiz-adv-x="1655" d="M909 1855q100 -23 100 -100v-7q0 -43 -87 -139q-68 -104 -137 -104h-4q-71 0 -92 97v10q0 44 120 180q46 63 100 63zM1277 971l-762 -713q117 -82 283 -82h18q252 0 427 225q99 142 99 312q0 135 -65 258zM1145 1131q-155 119 -340 119q-266 0 -441 -232 q-96 -138 -96 -312q0 -184 101 -305zM363 116q-147 -142 -174 -142l-19 -4h-7q-85 0 -101 107q0 52 129 159q4 12 23 25q-152 194 -152 456q0 355 312 598q205 141 431 141q278 0 490 -187q138 142 182 142h12q97 -25 97 -101v-7q0 -57 -115 -147l-42 -41q119 -182 119 -406 q0 -371 -335 -618q-192 -121 -400 -121h-15q-236 0 -435 146z" />
<glyph unicode="&#x1ff;" horiz-adv-x="1188" d="M683 1442q100 -23 100 -100v-7q0 -43 -87 -139q-68 -104 -137 -104h-4q-71 0 -92 97v10q0 44 120 180q46 63 100 63zM283 357l426 440q-35 24 -136 24q-207 0 -303 -217q-16 -52 -16 -95v-18q0 -71 29 -134zM858 660l-435 -450q56 -34 143 -34h21q189 0 289 196 q23 61 23 119v18q0 98 -41 151zM991 1042h4q84 0 99 -105q0 -44 -91 -131q102 -125 102 -307q0 -298 -281 -467q-122 -62 -237 -62h-29q-146 0 -278 92q-73 -88 -126 -88h-14q-77 0 -92 104q0 45 88 130q-88 121 -88 291q0 257 228 431q145 97 301 97q155 0 277 -81 q78 96 137 96z" />
<glyph unicode="&#x2c6;" horiz-adv-x="1024" d="M557 1189q-74 -100 -130 -100h-15q-99 21 -99 102v12q0 50 126 186q45 72 104 72h28q64 0 159 -139q71 -71 71 -119v-15q-21 -99 -102 -99h-12q-56 0 -130 100z" />
<glyph unicode="&#x2c7;" horiz-adv-x="1024" d="M530 1360q74 100 130 100h15q99 -21 99 -102v-12q0 -47 -102 -159q-68 -99 -128 -99h-28q-63 0 -155 135q-75 75 -75 123v15q21 99 102 99h12q56 0 130 -100z" />
<glyph unicode="&#x2c9;" horiz-adv-x="1059" d="M309 1355l71 -7h397l36 4q81 0 108 -106q0 -80 -94 -114l-65 4h-362l-69 -4q-94 33 -94 113q18 103 72 103v7z" />
<glyph unicode="&#x2d8;" horiz-adv-x="1024" d="M331 1395h12q73 0 110 -98q40 -46 94 -46q82 0 122 98q43 46 86 46h11q103 -18 103 -106v-4q0 -98 -172 -219q-84 -31 -146 -31h-8q-211 0 -314 228v33q21 99 102 99z" />
<glyph unicode="&#x2d9;" horiz-adv-x="1024" d="M569 1392q114 0 146 -133v-25q0 -83 -99 -128q-18 -9 -47 -9h-3q-121 0 -146 146q0 99 104 140q17 9 45 9z" />
<glyph unicode="&#x2da;" horiz-adv-x="1024" d="M546 1477q124 0 193 -127q21 -45 21 -90q0 -144 -166 -204l-42 -5h-16q-139 0 -198 166l-5 41v13q0 146 175 203zM507 1268v-11q9 -32 29 -32h14q30 0 36 39q-7 40 -36 40q-43 -7 -43 -36z" />
<glyph unicode="&#x2db;" horiz-adv-x="1024" d="M436 -56l-3 47q30 86 97 86h7q79 0 97 -97v-106q0 -84 -99 -99q-7 -4 -7 -17q0 -23 37 -23h98l18 5q101 -23 101 -98v-7q0 -67 -81 -97l-80 4h-34l-56 -4q-86 0 -170 106q-30 57 -30 100v28q0 113 105 172z" />
<glyph unicode="&#x2dc;" horiz-adv-x="1024" d="M479 1725q91 0 202 -72l20 -2l75 22h13q100 -17 100 -102v-4q0 -96 -150 -120l-40 -4q-91 0 -194 73l-17 2l-84 -23q-106 20 -106 102v8q0 99 164 117z" />
<glyph unicode="&#x2dd;" horiz-adv-x="1024" d="M470 1459h7q103 -18 103 -102v-20q0 -31 -175 -259q-28 -31 -59 -31h-8q-56 0 -74 70v18q110 275 140 302q37 22 66 22zM721 1447q107 -21 107 -110q0 -42 -114 -185q-75 -117 -120 -117h-12q-56 0 -74 70q0 27 117 293q47 49 96 49z" />
<glyph unicode="&#x384;" horiz-adv-x="392" d="M314 1455q100 -23 100 -100v-7q0 -43 -87 -139q-68 -104 -137 -104h-4q-71 0 -92 97v10q0 44 120 180q46 63 100 63z" />
<glyph unicode="&#x385;" horiz-adv-x="797" d="M507 1420q100 -23 100 -100v-7q0 -43 -87 -139q-68 -104 -137 -104h-4q-71 0 -92 97v10q0 44 120 180q46 63 100 63zM186 1339q106 -25 106 -113q-21 -107 -113 -107q-107 21 -107 114q25 106 114 106zM698 1339q106 -25 106 -113q-21 -107 -113 -107q-107 21 -107 114 q25 106 114 106z" />
<glyph unicode="&#x386;" horiz-adv-x="1254" d="M402 1551q100 -23 100 -100v-7q0 -43 -87 -139q-68 -104 -137 -104h-4q-71 0 -92 97v10q0 44 120 180q46 63 100 63zM744 744l-121 317l-117 -317h238zM621 1458q93 0 131 -160q454 -1183 459 -1217v-13q0 -81 -98 -98h-7q-90 0 -123 149l-161 418h-398l-202 -533 q-45 -34 -78 -34h-11q-98 18 -98 101v9l130 352q335 872 365 973q48 53 91 53z" />
<glyph unicode="&#x387;" horiz-adv-x="405" d="M234 1032q114 0 146 -133v-25q0 -83 -99 -128q-18 -9 -47 -9h-3q-121 0 -146 146q0 99 104 140q17 9 45 9z" />
<glyph unicode="&#x388;" horiz-adv-x="1347" d="M393 1473l52 -11h733l15 4q95 0 110 -114q-21 -97 -113 -97h-662v-450h423l53 3q76 0 99 -102q0 -72 -85 -109l-82 4h-408v-424h681q78 0 95 -111q-29 -96 -99 -96h-785q-99 18 -99 102v1290q15 100 72 100v11zM222 1490q100 -23 100 -100v-7q0 -43 -87 -139 q-68 -104 -137 -104h-4q-71 0 -92 97v10q0 44 120 180q46 63 100 63z" />
<glyph unicode="&#x389;" horiz-adv-x="1466" d="M221 1455q100 -23 100 -100v-7q0 -43 -87 -139q-68 -104 -137 -104h-4q-71 0 -92 97v10q0 44 120 180q46 63 100 63zM420 1467h18q95 -20 95 -90v-568h652v560q17 98 98 98h14q95 -18 95 -98v-1301q0 -73 -99 -94h-10q-98 18 -98 102v530h-652v-534q0 -81 -98 -98h-7 q-83 0 -102 103v1279q12 111 94 111z" />
<glyph unicode="&#x38a;" horiz-adv-x="748" d="M213 1482q100 -23 100 -100v-7q0 -43 -87 -139q-68 -104 -137 -104h-4q-71 0 -92 97v10q0 44 120 180q46 63 100 63zM420 1479l23 -4h137l18 4q106 -23 106 -110q-18 -103 -102 -103h14v-1087h-7q74 0 95 -100v-10q-18 -99 -102 -99h-183q-99 18 -99 102v7q21 100 95 100 h-7v1087h14q-90 0 -102 108v6q0 70 100 99z" />
<glyph unicode="&#x38c;" horiz-adv-x="1734" d="M252 1478q100 -23 100 -100v-7q0 -43 -87 -139q-68 -104 -137 -104h-4q-71 0 -92 97v10q0 44 120 180q46 63 100 63zM942 1465q378 0 632 -350q115 -199 115 -401q0 -374 -338 -622q-192 -122 -402 -122h-15q-386 0 -629 358q-111 182 -111 393q0 358 314 602 q205 142 434 142zM401 710q0 -259 230 -437q142 -96 303 -96h19q253 0 429 226q100 144 100 315q0 293 -269 464q-132 76 -271 76q-268 0 -445 -234q-96 -138 -96 -314z" />
<glyph unicode="&#x38e;" horiz-adv-x="1457" d="M270 1473q100 -23 100 -100v-7q0 -43 -87 -139q-68 -104 -137 -104h-4q-71 0 -92 97v10q0 44 120 180q46 63 100 63zM911 896q352 532 371 546q28 21 52 21h23q69 0 94 -98q0 -46 -134 -230l-302 -450v-604q-12 -111 -94 -111h-16q-71 0 -98 86v626q0 5 -154 234 l-272 411l-7 35q23 101 95 101h16q69 0 106 -88z" />
<glyph unicode="&#x38f;" horiz-adv-x="1646" d="M279 179q-58 56 -111 137q-111 194 -111 408q0 351 321 603q208 140 433 140q382 0 638 -354q116 -206 116 -389q0 -314 -223 -542h93q100 -19 100 -94v-19q-21 -95 -99 -95h-492q-86 0 -103 112q27 96 100 96q95 0 268 148q151 177 151 386q0 258 -232 445 q-153 97 -302 97h-30q-258 0 -436 -235q-98 -151 -98 -307q0 -314 291 -488q48 -30 168 -58q67 -28 67 -105q-27 -95 -103 -95h-487q-103 20 -103 109q23 100 103 100h81zM237 1469q100 -23 100 -100v-7q0 -43 -87 -139q-68 -104 -137 -104h-4q-71 0 -92 97v10q0 44 120 180 q46 63 100 63z" />
<glyph unicode="&#x390;" horiz-adv-x="740" d="M450 1827q100 -23 100 -100v-7q0 -43 -87 -139q-68 -104 -137 -104h-4q-71 0 -92 97v10q0 44 120 180q46 63 100 63zM129 1746q106 -25 106 -113q-21 -107 -113 -107q-107 21 -107 114q25 106 114 106zM641 1746q106 -25 106 -113q-21 -107 -113 -107q-107 21 -107 114 q25 106 114 106zM297 1479l23 -4h137l18 4q106 -23 106 -110q-18 -103 -102 -103h14v-1087h-7q74 0 95 -100v-10q-18 -99 -102 -99h-183q-99 18 -99 102v7q21 100 95 100h-7v1087h14q-90 0 -102 108v6q0 70 100 99z" />
<glyph unicode="&#x391;" horiz-adv-x="1246" d="M744 744l-121 317l-117 -317h238zM621 1458q93 0 131 -160q454 -1183 459 -1217v-13q0 -81 -98 -98h-7q-90 0 -123 149l-161 418h-398l-202 -533q-45 -34 -78 -34h-11q-98 18 -98 101v9l130 352q335 872 365 973q48 53 91 53z" />
<glyph unicode="&#x392;" horiz-adv-x="991" d="M125 1467l50 -8h225l15 3q190 0 321 -175q67 -98 67 -213v-11q0 -140 -85 -237q228 -125 228 -400q0 -276 -286 -424q-93 -32 -166 -32h-342q-99 18 -99 102v1287q15 100 72 100v8zM260 1252v-363h109q165 0 210 113q13 33 13 65v11q0 124 -145 170l-75 4h-112zM260 682 v-505h166q199 0 265 110q44 63 44 139v7q0 181 -198 242l-101 7h-176z" />
<glyph unicode="&#x393;" horiz-adv-x="1030" d="M151 1463h733q95 -20 95 -90v-19q0 -81 -100 -98h-615v-1188q0 -81 -98 -98h-7q-83 0 -102 103v1279q12 111 94 111z" />
<glyph unicode="&#x394;" horiz-adv-x="1242" d="M645 1104l-351 -923h674q-319 847 -323 923zM625 1462h12q83 0 116 -138q460 -1201 469 -1245v-7q0 -67 -81 -102l-90 4h-840l-86 -4q-85 31 -85 114l503 1334q41 44 82 44z" />
<glyph unicode="&#x395;" horiz-adv-x="1109" d="M129 1473l52 -11h733l15 4q95 0 110 -114q-21 -97 -113 -97h-662v-450h423l53 3q76 0 99 -102q0 -72 -85 -109l-82 4h-408v-424h681q78 0 95 -111q-29 -96 -99 -96h-785q-99 18 -99 102v1290q15 100 72 100v11z" />
<glyph unicode="&#x396;" horiz-adv-x="1342" d="M177 1467h1021q80 0 98 -99v-6q0 -40 -90 -145l-804 -1039h794q100 -15 100 -102v-7q-18 -99 -102 -99h-1009q-86 0 -102 108q0 41 188 275l703 907h-788q-103 20 -103 108q22 99 94 99z" />
<glyph unicode="&#x397;" horiz-adv-x="1223" d="M169 1467h18q95 -20 95 -90v-568h652v560q17 98 98 98h14q95 -18 95 -98v-1301q0 -73 -99 -94h-10q-98 18 -98 102v530h-652v-534q0 -81 -98 -98h-7q-83 0 -102 103v1279q12 111 94 111z" />
<glyph unicode="&#x398;" horiz-adv-x="1611" d="M816 1461q377 0 631 -349q114 -198 114 -400q0 -373 -337 -620q-192 -122 -401 -122h-15q-384 0 -628 357q-110 182 -110 392q0 357 313 600q205 142 433 142zM277 708q0 -259 229 -435q141 -96 302 -96h19q252 0 428 225q99 143 99 314q0 292 -268 463q-131 75 -270 75 q-268 0 -443 -233q-96 -138 -96 -313zM455 817h721q99 -18 99 -101v-7q-18 -99 -102 -99h-722q-95 21 -95 98v15q0 73 99 94z" />
<glyph unicode="&#x399;" horiz-adv-x="581" d="M209 1479l23 -4h137l18 4q106 -23 106 -110q-18 -103 -102 -103h14v-1087h-7q74 0 95 -100v-10q-18 -99 -102 -99h-183q-99 18 -99 102v7q21 100 95 100h-7v1087h14q-90 0 -102 108v6q0 70 100 99z" />
<glyph unicode="&#x39a;" horiz-adv-x="1118" d="M148 1464h5q100 -17 100 -98v-581q658 657 674 657l27 4h12q95 -18 95 -98v-12q0 -51 -89 -124l-445 -448l522 -646l4 -33v-13q0 -81 -98 -98h-7q-61 0 -149 129l-423 513l-123 -126v-422q0 -81 -100 -98h-5q-83 0 -102 102v1290q19 102 102 102z" />
<glyph unicode="&#x39b;" horiz-adv-x="1232" d="M646 1116l-417 -1103q-45 -43 -87 -43h-4q-86 0 -103 113l506 1341q41 44 83 44h11q84 0 116 -138q463 -1206 472 -1251v-10q-18 -99 -102 -99h-4q-73 0 -104 88q-365 975 -367 1058z" />
<glyph unicode="&#x39c;" horiz-adv-x="1479" d="M267 874v-806q0 -81 -98 -98h-7q-83 0 -102 103v1278q12 111 94 111h15q83 0 111 -118l459 -1026q9 35 302 703l188 405q34 36 74 36h15q82 0 94 -111v-1278q-19 -103 -102 -103h-7q-98 17 -98 98v807q-372 -842 -389 -869q-41 -36 -80 -36q-88 0 -145 178z" />
<glyph unicode="&#x39d;" horiz-adv-x="1329" d="M1064 374v992q18 95 98 95h11q81 0 98 -98v-1288q0 -87 -107 -105q-61 0 -158 144l-733 936v-978q0 -81 -100 -98h-5q-83 0 -102 102v1274q12 111 94 111h15q67 0 108 -88q53 -60 781 -999z" />
<glyph unicode="&#x39e;" horiz-adv-x="1158" d="M139 1462h879q95 -18 95 -98v-15q0 -82 -112 -94h-853q-103 20 -103 108q22 99 94 99zM261 833h638q100 -17 100 -102v-6q-18 -99 -102 -99h-636q-83 0 -103 106q25 101 103 101zM147 178h866q100 -18 100 -98v-15q-19 -95 -98 -95h-868q-83 0 -103 107q25 101 103 101z " />
<glyph unicode="&#x39f;" horiz-adv-x="1620" d="M823 1465q378 0 632 -350q115 -199 115 -401q0 -374 -338 -622q-192 -122 -402 -122h-15q-386 0 -629 358q-111 182 -111 393q0 358 314 602q205 142 434 142zM282 710q0 -259 230 -437q142 -96 303 -96h19q253 0 429 226q100 144 100 315q0 293 -269 464 q-132 76 -271 76q-268 0 -445 -234q-96 -138 -96 -314z" />
<glyph unicode="&#x3a0;" horiz-adv-x="1184" d="M160 1461h875q95 -18 95 -98v-1299q0 -73 -99 -94h-9q-99 18 -99 102v1181h-650v-1185q0 -81 -100 -98h-5q-83 0 -102 102v1277q12 112 94 112z" />
<glyph unicode="&#x3a1;" horiz-adv-x="946" d="M151 1468h346q218 0 371 -224q57 -115 57 -208v-27q0 -203 -183 -350q-125 -86 -245 -86h-232v-505q0 -80 -99 -98h-7q-83 0 -102 103v1283q12 112 94 112zM265 1260v-479h205q170 0 234 163q13 33 13 80q0 148 -154 220q-35 16 -85 16h-213z" />
<glyph unicode="&#x3a3;" horiz-adv-x="1124" d="M395 166h569q93 -17 93 -93v-13q-17 -90 -92 -90h-797q-78 0 -96 97q0 46 86 121l401 466l-472 543q-15 27 -15 55q21 93 89 93h807q89 -17 89 -93v-14q0 -77 -104 -89h-566q369 -422 395 -460l4 -29v-13q0 -46 -85 -125z" />
<glyph unicode="&#x3a4;" horiz-adv-x="1262" d="M159 1466h936q95 -18 95 -98v-15q0 -82 -111 -94h-348v-1191q0 -81 -100 -98h-5q-83 0 -102 103v1186h-356q-103 20 -103 108q22 99 94 99z" />
<glyph unicode="&#x3a5;" horiz-adv-x="1237" d="M614 897q353 531 372 545q28 21 52 21h23q69 0 94 -98q0 -46 -135 -230l-301 -450v-604q-13 -111 -94 -111h-16q-72 0 -98 86v626q0 5 -154 234l-273 411l-6 35q23 101 95 101h16q69 0 105 -88z" />
<glyph unicode="&#x3a6;" horiz-adv-x="1629" d="M913 301q128 11 292 125q145 134 145 277v34q0 192 -233 334q-81 49 -204 67v-837zM267 722q0 -243 296 -383q117 -39 142 -39v839q-145 -16 -286 -122q-152 -136 -152 -295zM803 1469h14q96 -18 96 -98v-48q163 -13 362 -125q287 -201 287 -480q0 -262 -263 -457 q-119 -91 -352 -139h-6q-28 0 -28 19v-76q0 -74 -99 -95h-10q-99 18 -99 102v46h26q-146 0 -361 110q-311 199 -311 494q0 280 290 476q121 89 356 123v48q17 100 98 100z" />
<glyph unicode="&#x3a7;" horiz-adv-x="1338" d="M162 1467h16q62 0 97 -70l400 -510l438 562q32 18 58 18h12q80 0 98 -99v-6q0 -44 -109 -171l-368 -474l466 -597l11 -40v-11q-18 -99 -102 -99h-4q-68 0 -109 86l-391 498l-438 -561q-31 -23 -63 -23h-7q-99 18 -99 102v11q0 36 169 243l308 398q-458 580 -472 610 l-6 32q23 101 95 101z" />
<glyph unicode="&#x3a8;" horiz-adv-x="1342" d="M767 652q84 18 195 120q102 121 102 312v288q18 95 98 95h11q81 0 99 -99v-337q0 -342 -340 -542q-145 -56 -165 -56v-365q0 -80 -99 -98h-6q-83 0 -103 103v362q-66 6 -217 85q-283 197 -283 534v302q12 111 94 111h19q95 -20 95 -91v-313q10 -128 39 -193 q80 -155 224 -204l29 -8v698q13 111 95 111h18q95 -20 95 -91v-724z" />
<glyph unicode="&#x3a9;" horiz-adv-x="1658" d="M279 179q-58 56 -111 137q-111 194 -111 408q0 351 321 603q208 140 433 140q382 0 638 -354q116 -206 116 -389q0 -314 -223 -542h93q100 -19 100 -94v-19q-21 -95 -99 -95h-492q-86 0 -103 112q27 96 100 96q95 0 268 148q151 177 151 386q0 258 -232 445 q-153 97 -302 97h-30q-258 0 -436 -235q-98 -151 -98 -307q0 -314 291 -488q48 -30 168 -58q67 -28 67 -105q-27 -95 -103 -95h-487q-103 20 -103 109q23 100 103 100h81z" />
<glyph unicode="&#x3aa;" horiz-adv-x="648" d="M174 1713h18q95 -20 95 -90v-19q0 -80 -102 -99q-105 21 -105 110q22 98 94 98zM461 1713h17q95 -21 95 -94v-11q0 -86 -106 -102q-101 19 -101 102v11q0 73 95 94zM241 1462l23 -5h132l18 5q106 -23 106 -110q-18 -102 -101 -102h15v-1073h-8q75 0 94 -99v-8 q-17 -100 -101 -100h-180q-99 18 -99 102v6q21 99 94 99h-7v1073h15q-90 0 -102 107v6q0 68 101 99z" />
<glyph unicode="&#x3ab;" horiz-adv-x="1216" d="M593 897q353 531 372 545q28 21 52 21h23q69 0 94 -98q0 -46 -135 -230l-301 -450v-604q-13 -111 -94 -111h-16q-72 0 -98 86v626q0 5 -154 234l-273 411l-6 35q23 101 95 101h16q69 0 105 -88zM443 1717h18q95 -20 95 -90v-19q0 -80 -103 -99q-104 21 -104 110 q22 98 94 98zM729 1717h18q95 -21 95 -94v-11q0 -86 -106 -102q-101 19 -101 102v11q0 73 94 94z" />
<glyph unicode="&#x3ac;" horiz-adv-x="1414" d="M268 508q0 -201 200 -307q71 -26 140 -26q191 0 299 200l47 134q-58 201 -159 266q-88 62 -183 62h-19q-179 0 -285 -173q-40 -83 -40 -156zM1061 228q-48 -86 -150 -156q-133 -102 -314 -102h-15q-218 0 -405 204q-114 161 -114 334q0 290 278 470q138 67 263 67 q272 0 452 -255l6 -12q7 29 75 214q39 53 93 53q101 -19 101 -107q-5 -28 -157 -430q157 -409 157 -437q-23 -101 -104 -101q-91 0 -137 180zM706 1450q100 -23 100 -100v-7q0 -43 -87 -139q-68 -104 -137 -104h-4q-71 0 -92 97v10q0 44 120 180q46 63 100 63z" />
<glyph unicode="&#x3ad;" horiz-adv-x="900" d="M400 1047h40q174 0 339 -173q34 -36 34 -75v-8q0 -85 -114 -102q-64 0 -134 92q-84 57 -138 57h-21q-73 0 -112 -87v-44q0 -51 90 -87q11 -5 35 -5h70q110 -17 110 -103v-7q0 -99 -142 -99q-107 0 -143 -72l-10 -44q21 -111 128 -111h4q94 0 204 128q41 21 70 21 q100 0 116 -108v-11q-34 -103 -196 -190q-97 -49 -194 -49h-17q-202 0 -319 202q-24 69 -24 122q0 128 88 210q-101 86 -101 226q0 211 263 308zM546 1446q100 -23 100 -100v-7q0 -43 -87 -139q-68 -104 -137 -104h-4q-71 0 -92 97v10q0 44 120 180q46 63 100 63z" />
<glyph unicode="&#x3ae;" horiz-adv-x="1191" d="M166 1030q96 -25 96 -92v-14q119 106 319 106q219 0 390 -182q124 -154 124 -325v-881q0 -77 -109 -93q-94 27 -94 101v825q0 255 -218 335q-52 13 -93 13h-11q-182 0 -282 -188q-26 -57 -26 -189v-385q0 -79 -97 -96h-6q-81 0 -100 100v852q11 113 107 113zM660 1429 q100 -23 100 -100v-7q0 -43 -87 -139q-68 -104 -137 -104h-4q-71 0 -92 97v10q0 44 120 180q46 63 100 63z" />
<glyph unicode="&#x3af;" horiz-adv-x="467" d="M237 1038q96 -25 96 -93v-879q0 -79 -97 -96h-7q-81 0 -100 101v854q12 113 108 113zM310 1421q100 -23 100 -100v-7q0 -43 -87 -139q-68 -104 -137 -104h-4q-71 0 -92 97v10q0 44 120 180q46 63 100 63z" />
<glyph unicode="&#x3b0;" horiz-adv-x="1203" d="M191 1034q96 -25 96 -92v-392q0 -235 130 -312q83 -65 184 -65q195 0 295 201q20 65 20 132v428q19 100 106 100q97 -22 97 -100v-465q0 -233 -221 -405q-141 -94 -286 -94h-25q-242 0 -421 237q-82 128 -82 313v401q11 113 107 113zM671 1420q100 -23 100 -100v-7 q0 -43 -87 -139q-68 -104 -137 -104h-4q-71 0 -92 97v10q0 44 120 180q46 63 100 63zM350 1339q106 -25 106 -113q-21 -107 -113 -107q-107 21 -107 114q25 106 114 106zM862 1339q106 -25 106 -113q-21 -107 -113 -107q-107 21 -107 114q25 106 114 106z" />
<glyph unicode="&#x3b1;" horiz-adv-x="1414" d="M281 508q0 -201 200 -307q71 -26 140 -26q191 0 299 200l47 134q-58 201 -159 266q-88 62 -183 62h-19q-179 0 -285 -173q-40 -83 -40 -156zM1074 228q-48 -86 -150 -156q-133 -102 -314 -102h-15q-218 0 -405 204q-114 161 -114 334q0 290 278 470q138 67 263 67 q272 0 452 -255l6 -12q7 29 75 214q39 53 93 53q101 -19 101 -107q-5 -28 -157 -430q157 -409 157 -437q-23 -101 -104 -101q-91 0 -137 180z" />
<glyph unicode="&#x3b2;" horiz-adv-x="999" d="M278 998v-597q0 -103 99 -177q56 -39 131 -39q166 0 224 170l7 48v13q0 161 -179 220l-49 3h-131q-101 17 -101 102v16q0 71 95 94h69q177 0 229 124q13 42 13 69v19q0 133 -160 186l-45 4q-143 0 -195 -154zM776 759q176 -125 176 -351q0 -247 -254 -394 q-106 -41 -194 -41q-137 0 -226 63v-383q-3 -104 -98 -107q-4 -1 -7 -1q-90 0 -105 93v1433q0 209 223 348q97 45 190 45h4q254 0 384 -256q30 -74 30 -149v-15q0 -160 -123 -285z" />
<glyph unicode="&#x3b3;" horiz-adv-x="1057" d="M549 337q259 650 279 672q44 28 75 29q101 -20 101 -105q0 -25 -348 -879l-6 -24v-396q0 -85 -105 -101q-101 19 -101 101v411q0 16 -346 854l-5 35q21 104 105 104q87 0 133 -162z" />
<glyph unicode="&#x3b4;" horiz-adv-x="1233" d="M173 1468l68 -6h709q102 -20 102 -102v-11q-18 -95 -68 -95v-7l-58 7h-398l441 -324q189 -181 189 -412q0 -308 -291 -484q-127 -64 -245 -64h-30q-222 0 -412 207q-117 165 -117 341q0 295 279 475q106 51 106 61q0 3 -7 3l-310 233q-26 38 -26 72q17 100 68 100v6z M274 529v-19q0 -190 184 -295q66 -34 141 -34h23q197 0 301 205q24 64 24 124v19q0 157 -146 267q-85 58 -194 58q-216 0 -316 -227q-17 -54 -17 -98z" />
<glyph unicode="&#x3b5;" horiz-adv-x="896" d="M400 1047h40q174 0 339 -173q34 -36 34 -75v-8q0 -85 -114 -102q-64 0 -134 92q-84 57 -138 57h-21q-73 0 -112 -87v-44q0 -51 90 -87q11 -5 35 -5h70q110 -17 110 -103v-7q0 -99 -142 -99q-107 0 -143 -72l-10 -44q21 -111 128 -111h4q94 0 204 128q41 21 70 21 q100 0 116 -108v-11q-34 -103 -196 -190q-97 -49 -194 -49h-17q-202 0 -319 202q-24 69 -24 122q0 128 88 210q-101 86 -101 226q0 211 263 308z" />
<glyph unicode="&#x3b6;" horiz-adv-x="1052" d="M304 1465h588q96 -19 96 -90v-19q0 -63 -85 -105q-437 -387 -485 -439q-84 -111 -84 -247q0 -218 206 -342q83 -50 232 -50q140 -34 202 -118q67 -90 67 -193v-4q0 -223 -249 -307h-16q-99 21 -99 95v15q0 78 109 108q51 33 51 93q0 67 -68 98l-30 8l-26 -3 q-251 0 -455 224q-132 179 -132 357v42q0 279 285 502l187 167h-289q-103 19 -103 102v6q17 100 98 100z" />
<glyph unicode="&#x3b7;" horiz-adv-x="1178" d="M166 1030q96 -25 96 -92v-14q119 106 319 106q219 0 390 -182q124 -154 124 -325v-881q0 -77 -109 -93q-94 27 -94 101v825q0 255 -218 335q-52 13 -93 13h-11q-182 0 -282 -188q-26 -57 -26 -189v-385q0 -79 -97 -96h-6q-81 0 -100 100v852q11 113 107 113z" />
<glyph unicode="&#x3b8;" horiz-adv-x="1158" d="M588 1460q265 0 404 -282q74 -226 74 -418v-86q0 -236 -97 -477q-148 -227 -373 -227h-12q-245 0 -384 258q-86 219 -86 483v12q0 280 102 510q150 227 372 227zM314 820h557q0 127 -77 318q-84 119 -202 119q-138 0 -214 -140q-59 -163 -61 -272zM310 614 q3 -112 68 -307q81 -134 203 -134h11q214 0 260 318q19 104 19 123h-561z" />
<glyph unicode="&#x3b9;" horiz-adv-x="442" d="M225 1038q96 -25 96 -93v-879q0 -79 -97 -96h-7q-81 0 -100 101v854q12 113 108 113z" />
<glyph unicode="&#x3ba;" horiz-adv-x="1086" d="M406 518l-125 -80v-370q0 -81 -100 -98h-6q-77 0 -102 94v934q16 87 93 105l28 1q82 -20 87 -110v-310q489 324 586 379h27q86 0 102 -107q0 -66 -136 -138l-276 -189l406 -514l6 -33v-9q-18 -99 -102 -99h-7q-60 0 -157 140z" />
<glyph unicode="&#x3bb;" horiz-adv-x="1120" d="M568 679q-293 -626 -327 -671q-35 -44 -82 -44q-28 0 -59 15q-52 23 -52 81q0 39 25 95l236 499l134 282l-164 354q-12 38 -12 68q0 75 75 94q21 5 40 5q71 0 98 -79l602 -1262q3 -23 3 -42q0 -96 -76 -101h-13q-81 0 -121 68z" />
<glyph unicode="&#x3bc;" horiz-adv-x="1199" d="M904 76q-138 -107 -304 -107h-26q-184 0 -300 105v-428q0 -70 -100 -92q-83 0 -103 104v1263q11 113 107 113q96 -25 96 -92v-393q0 -235 130 -313q83 -64 185 -64q195 0 295 201q20 65 20 132v429q19 100 106 100q97 -22 97 -100v-873q0 -73 -97 -92h-9q-97 17 -97 99v8 z" />
<glyph unicode="&#x3bd;" horiz-adv-x="1220" d="M186 1059h7q80 0 130 -142l294 -604q325 690 352 719q36 27 72 27q102 -19 102 -101v-4q0 -26 -168 -374l-281 -577q-44 -33 -77 -33h-3q-85 0 -141 162q-363 741 -385 806v26q18 95 98 95z" />
<glyph unicode="&#x3be;" horiz-adv-x="951" d="M437 1463h185q100 -18 100 -102v-7q-18 -100 -103 -100h-167q-120 0 -154 -106l-7 -36q22 -144 146 -144l96 20q101 -26 101 -96v-23q0 -82 -135 -105q-189 -96 -189 -271v-27q0 -171 183 -267q29 -19 206 -34q232 -92 232 -304v-4q0 -222 -250 -308h-15q-100 21 -100 95 v15q0 79 109 108q51 34 51 91q-18 110 -102 110l-11 -4q-260 0 -437 246q-78 142 -78 267q0 206 134 347q-149 88 -149 293q0 202 211 316q65 30 143 30z" />
<glyph unicode="&#x3bf;" horiz-adv-x="1245" d="M616 1034q206 0 373 -156q159 -166 159 -376q0 -299 -282 -469q-124 -63 -239 -63h-29q-216 0 -401 202q-113 159 -113 330q0 259 229 434q147 98 303 98zM291 513v-18q0 -184 178 -286q63 -32 136 -32h22q190 0 291 198q23 61 23 120v18q0 152 -140 258q-83 56 -189 56 q-208 0 -305 -219q-16 -52 -16 -95z" />
<glyph unicode="&#x3c0;" horiz-adv-x="1165" d="M207 835l-51 -3q-89 31 -89 107q17 97 66 97v6l68 -6h768l46 3q92 -30 92 -96v-11q0 -71 -89 -100l-51 3v-769q0 -79 -97 -96h-7q-81 0 -100 101v765h-352v-773q0 -74 -97 -93h-10q-97 17 -97 100v765z" />
<glyph unicode="&#x3c1;" horiz-adv-x="1187" d="M595 1050q209 0 377 -157q161 -169 161 -380q0 -302 -285 -474q-125 -63 -241 -63h-30q-188 0 -314 114v-443q0 -71 -101 -93q-80 0 -103 101v825q0 405 383 546q49 16 153 24zM267 524v-19q0 -185 180 -288q64 -33 138 -33h22q193 0 295 200q23 62 23 121v19 q0 154 -142 261q-84 57 -191 57q-210 0 -308 -222q-17 -53 -17 -96z" />
<glyph unicode="&#x3c2;" horiz-adv-x="997" d="M614 1048q202 0 202 -114v-24q-25 -90 -102 -90h-14l-84 12q-205 0 -303 -210q-14 -34 -21 -117q0 -203 216 -303q54 -13 197 -27q243 -95 243 -317v-4q0 -234 -261 -322h-16q-103 20 -103 98v16q0 82 114 112q54 36 54 100q0 79 -90 111l-14 2l-9 -3q-308 0 -483 291 q-60 119 -60 223v44q0 272 275 454q141 68 259 68z" />
<glyph unicode="&#x3c3;" horiz-adv-x="1355" d="M571 1036l80 -4h515l38 5q93 -29 93 -94v-22q0 -60 -84 -92l-68 4h-139q115 -122 115 -330q0 -269 -244 -447q-142 -86 -278 -86h-29q-228 0 -406 209q-109 152 -109 309v33q0 244 242 429q156 86 274 86zM258 503q0 -202 205 -306q66 -20 107 -20h33q162 0 267 162 q44 76 44 171q0 176 -176 283q-71 36 -157 36q-176 0 -283 -172q-40 -81 -40 -154z" />
<glyph unicode="&#x3c4;" horiz-adv-x="1187" d="M146 1045l69 -7h776l37 5q94 -27 94 -101v-8q0 -68 -84 -100l-68 4h-265v-767q-19 -101 -100 -101h-7q-97 17 -97 96v772h-268l-64 -4q-89 32 -89 107q17 97 66 97v7z" />
<glyph unicode="&#x3c5;" horiz-adv-x="1216" d="M191 1034q96 -25 96 -92v-392q0 -235 130 -312q83 -65 184 -65q195 0 295 201q20 65 20 132v428q19 100 106 100q97 -22 97 -100v-465q0 -233 -221 -405q-141 -94 -286 -94h-25q-242 0 -421 237q-82 128 -82 313v401q11 113 107 113z" />
<glyph unicode="&#x3c6;" horiz-adv-x="1213" d="M685 198q73 18 167 102q85 110 85 214v42q0 155 -160 269l-29 6q-43 0 -60 -47l-3 -28v-558zM729 1041h33q162 0 315 -235q74 -134 74 -269q0 -324 -310 -505q-129 -53 -156 -53v-332q0 -90 -113 -108q-98 27 -98 100v347q-84 10 -227 107q-212 186 -212 448t240 448 q31 21 60 21h14q97 -18 97 -99v-16q0 -50 -88 -107q-109 -116 -109 -232v-42q0 -176 183 -289l42 -15v570q0 161 187 248z" />
<glyph unicode="&#x3c7;" horiz-adv-x="1237" d="M629 98q-318 -506 -348 -535q-27 -21 -66 -26q-83 0 -103 105v11q13 49 286 460q25 51 109 172l-395 625v27q20 101 104 101q72 0 138 -134l274 -428q292 466 347 535q30 23 67 27q103 -20 103 -104q0 -43 -187 -317l-209 -334q-1 2 313 -481q83 -126 83 -164 q-22 -101 -101 -101q-77 0 -141 134q-47 64 -274 427z" />
<glyph unicode="&#x3c8;" horiz-adv-x="1376" d="M800 194q82 17 186 111q110 112 110 308v336q18 100 103 100h4q106 0 106 -141v-326q0 -370 -366 -565q-126 -44 -143 -44v-288q0 -81 -100 -99h-7q-84 0 -103 104v285q-75 6 -235 95q-271 202 -271 531v336q17 112 107 112h6q100 -15 100 -103v-303q0 -245 122 -346 q61 -69 171 -99v735q12 112 95 112h19q96 -19 96 -91v-760z" />
<glyph unicode="&#x3c9;" horiz-adv-x="1321" d="M332 1046h10q95 -17 95 -99v-4q0 -20 -85 -196q-84 -219 -84 -404v-29q0 -95 108 -133l34 -6q107 0 141 119l4 83v316l-4 44q30 92 95 92h11q87 0 98 -112v-372l5 -37l-5 -13q0 -68 99 -118l47 -6q100 0 138 113l3 31v28q0 260 -169 574v29q17 96 98 96h4q77 0 133 -141 q139 -290 139 -587q0 -212 -217 -319q-61 -25 -120 -25h-22q-142 0 -237 101q-83 -97 -233 -97h-14q-215 0 -321 228q-20 66 -20 112q0 359 194 694q35 38 75 38z" />
<glyph unicode="&#x3ca;" horiz-adv-x="589" d="M330 1038q96 -25 96 -93v-879q0 -79 -97 -96h-7q-81 0 -100 101v854q12 113 108 113zM168 1266h18q95 -20 95 -90v-19q0 -80 -102 -99q-105 21 -105 110q22 98 94 98zM455 1266h17q95 -21 95 -94v-11q0 -86 -106 -102q-101 19 -101 102v11q0 73 95 94z" />
<glyph unicode="&#x3cb;" horiz-adv-x="1208" d="M191 1034q96 -25 96 -92v-392q0 -235 130 -312q83 -65 184 -65q195 0 295 201q20 65 20 132v428q19 100 106 100q97 -22 97 -100v-465q0 -233 -221 -405q-141 -94 -286 -94h-25q-242 0 -421 237q-82 128 -82 313v401q11 113 107 113zM437 1301h18q95 -20 95 -90v-19 q0 -80 -102 -99q-105 21 -105 110q22 98 94 98zM724 1301h17q95 -21 95 -94v-11q0 -86 -106 -102q-101 19 -101 102v11q0 73 95 94z" />
<glyph unicode="&#x3cc;" horiz-adv-x="1229" d="M616 1034q206 0 373 -156q159 -166 159 -376q0 -299 -282 -469q-124 -63 -239 -63h-29q-216 0 -401 202q-113 159 -113 330q0 259 229 434q147 98 303 98zM291 513v-18q0 -184 178 -286q63 -32 136 -32h22q190 0 291 198q23 61 23 120v18q0 152 -140 258q-83 56 -189 56 q-208 0 -305 -219q-16 -52 -16 -95zM654 1417q100 -23 100 -100v-7q0 -43 -87 -139q-68 -104 -137 -104h-4q-71 0 -92 97v10q0 44 120 180q46 63 100 63z" />
<glyph unicode="&#x3cd;" horiz-adv-x="1178" d="M191 1034q96 -25 96 -92v-392q0 -235 130 -312q83 -65 184 -65q195 0 295 201q20 65 20 132v428q19 100 106 100q97 -22 97 -100v-465q0 -233 -221 -405q-141 -94 -286 -94h-25q-242 0 -421 237q-82 128 -82 313v401q11 113 107 113zM659 1443q100 -23 100 -100v-7 q0 -43 -87 -139q-68 -104 -137 -104h-4q-71 0 -92 97v10q0 44 120 180q46 63 100 63z" />
<glyph unicode="&#x3ce;" horiz-adv-x="1309" d="M332 1046h10q95 -17 95 -99v-4q0 -20 -85 -196q-84 -219 -84 -404v-29q0 -95 108 -133l34 -6q107 0 141 119l4 83v316l-4 44q30 92 95 92h11q87 0 98 -112v-372l5 -37l-5 -13q0 -68 99 -118l47 -6q100 0 138 113l3 31v28q0 260 -169 574v29q17 96 98 96h4q77 0 133 -141 q139 -290 139 -587q0 -212 -217 -319q-61 -25 -120 -25h-22q-142 0 -237 101q-83 -97 -233 -97h-14q-215 0 -321 228q-20 66 -20 112q0 359 194 694q35 38 75 38zM739 1430q100 -23 100 -100v-7q0 -43 -87 -139q-68 -104 -137 -104h-4q-71 0 -92 97v10q0 44 120 180 q46 63 100 63z" />
<glyph unicode="&#x2000;" horiz-adv-x="946" />
<glyph unicode="&#x2001;" horiz-adv-x="1893" />
<glyph unicode="&#x2002;" horiz-adv-x="946" />
<glyph unicode="&#x2003;" horiz-adv-x="1893" />
<glyph unicode="&#x2004;" horiz-adv-x="631" />
<glyph unicode="&#x2005;" horiz-adv-x="473" />
<glyph unicode="&#x2006;" horiz-adv-x="315" />
<glyph unicode="&#x2007;" horiz-adv-x="315" />
<glyph unicode="&#x2008;" horiz-adv-x="236" />
<glyph unicode="&#x2009;" horiz-adv-x="378" />
<glyph unicode="&#x200a;" horiz-adv-x="105" />
<glyph unicode="&#x2010;" horiz-adv-x="670" d="M175 698h400q83 0 106 -110q-25 -106 -106 -106h-400q-92 0 -107 116q28 100 107 100z" />
<glyph unicode="&#x2011;" horiz-adv-x="670" d="M175 698h400q83 0 106 -110q-25 -106 -106 -106h-400q-92 0 -107 116q28 100 107 100z" />
<glyph unicode="&#x2013;" horiz-adv-x="1108" d="M156 545l71 -7h717l36 4q85 0 108 -107q0 -75 -89 -113l-74 4h-678l-69 -4q-94 33 -94 113q18 103 72 103v7z" />
<glyph unicode="&#x2014;" horiz-adv-x="2048" d="M72 613l71 -7h1821l36 4q85 0 108 -107q0 -75 -89 -113l-74 4h-1782l-69 -4q-94 33 -94 113q18 103 72 103v7z" />
<glyph unicode="&#x2015;" horiz-adv-x="2007" d="M165 652l71 -7h1597l40 4q100 -27 100 -106v-8q0 -71 -89 -106l-74 4h-1554l-69 -4q-94 33 -94 113q18 103 72 103v7z" />
<glyph unicode="&#x2017;" horiz-adv-x="951" d="M102 1h887q102 -18 102 -100v-15q-20 -97 -100 -97h-889q-90 0 -105 114q28 98 105 98z" />
<glyph unicode="&#x2018;" horiz-adv-x="557" d="M393 1599q59 -17 59 -64v-14q-59 -141 -60 -238q0 -52 46 -129l6 -28q0 -92 -111 -113q-126 0 -157 280q0 150 159 284z" />
<glyph unicode="&#x2019;" horiz-adv-x="557" d="M291 1588h28q110 0 142 -264v-22q0 -143 -157 -273q-38 -21 -67 -21q-33 13 -52 46v26q60 144 60 230v12q0 54 -48 136v31q21 99 94 99z" />
<glyph unicode="&#x201a;" horiz-adv-x="557" d="M286 250h28q110 0 142 -264v-22q0 -143 -157 -273q-38 -21 -67 -21q-33 13 -52 46v26q60 144 60 230v12q0 54 -48 136v31q21 99 94 99z" />
<glyph unicode="&#x201b;" horiz-adv-x="450" d="M373 1479v-31q-49 -82 -49 -136v-12q0 -86 61 -230v-26q-19 -33 -52 -46q-28 0 -68 21q-158 130 -158 273v22q32 264 143 264h28q74 0 95 -99z" />
<glyph unicode="&#x201c;" horiz-adv-x="910" d="M441 1620q59 -17 59 -64v-14q-59 -141 -60 -238q0 -52 46 -129l6 -28q0 -92 -111 -113q-126 0 -157 280q0 150 159 284zM736 1610q52 -22 52 -72q-64 -142 -64 -238q0 -53 52 -144v-23q-19 -103 -102 -103h-16q-107 0 -146 232v70q0 120 147 251q37 27 77 27z" />
<glyph unicode="&#x201d;" horiz-adv-x="910" d="M326 1611h28q110 0 142 -264v-22q0 -143 -157 -273q-38 -21 -67 -21q-33 13 -52 46v26q60 144 60 230v12q0 54 -48 136v31q21 99 94 99zM630 1615h12q121 0 150 -272v-10q0 -146 -158 -278l-50 -20q-68 0 -68 62v10q60 141 60 242q0 54 -48 132v44q25 90 102 90z" />
<glyph unicode="&#x201e;" horiz-adv-x="910" d="M308 265h28q110 0 142 -264v-22q0 -143 -157 -273q-38 -21 -67 -21q-33 13 -52 46v26q60 144 60 230v12q0 54 -48 136v31q21 99 94 99zM612 269h12q121 0 150 -272v-10q0 -146 -158 -278l-50 -20q-68 0 -68 62v10q60 141 60 242q0 54 -48 132v44q25 90 102 90z" />
<glyph unicode="&#x2020;" d="M539 1471h12q84 0 102 -103v-261h160l36 4q81 0 108 -106q0 -80 -94 -114l-65 4h-145v-1194q0 -93 -116 -111q-100 27 -100 103v1202h-141l-69 -4q-94 33 -94 113q18 103 72 103v7l71 -7h161v265q19 99 102 99z" />
<glyph unicode="&#x2021;" d="M542 1471h12q84 0 102 -103v-261h160l36 4q81 0 108 -106q0 -80 -94 -114l-65 4h-145v-724h206q72 0 99 -105q-22 -111 -111 -111h-194v-254q0 -93 -116 -111q-100 27 -100 103v262h-197q-107 21 -107 113q23 103 98 103h206v724h-141l-69 -4q-94 33 -94 113 q18 103 72 103v7l71 -7h161v265q19 99 102 99z" />
<glyph unicode="&#x2022;" horiz-adv-x="1024" d="M216 718q0 123 87 209t210 86q122 0 208.5 -86.5t86.5 -208.5t-87.5 -209.5t-209.5 -87.5q-123 0 -209 87t-86 210z" />
<glyph unicode="&#x2026;" horiz-adv-x="2048" d="M1663 304q129 0 165 -151v-28q0 -94 -113 -145q-20 -10 -52 -10h-4q-137 0 -165 167q0 110 118 157q19 10 51 10zM972 300q129 0 165 -151v-28q0 -94 -113 -145q-20 -10 -52 -10h-4q-137 0 -165 167q0 110 118 157q19 10 51 10zM299 304q129 0 165 -151v-28 q0 -94 -113 -145q-20 -10 -52 -10h-4q-137 0 -165 167q0 110 118 157q19 10 51 10z" />
<glyph unicode="&#x202f;" horiz-adv-x="378" />
<glyph unicode="&#x2030;" horiz-adv-x="2494" d="M509 1476h19q182 0 308 -164q74 -109 74 -223q0 -252 -262 -372q-75 -21 -124 -21h-7q-228 0 -349 220q-41 84 -41 170q0 256 270 372q56 18 112 18zM1363 1466h14q95 -20 95 -99v-15q0 -32 -146 -219l-864 -1142q-42 -21 -65 -21h-7q-99 21 -99 94v16q0 42 112 178 l897 1184q35 24 63 24zM335 1087v-5q0 -128 142 -175l33 -3h18q125 0 171 146l4 37q0 131 -140 178l-44 7q-129 0 -178 -136zM1246 743q229 0 361 -237q29 -87 29 -152v-12q0 -229 -241 -352q-75 -30 -149 -30h-7q-200 0 -328 192q-55 94 -55 186v23q0 207 205 333 q99 49 185 49zM1060 352q0 -127 133 -178l48 -6h13q122 0 171 140l3 29v24q0 127 -150 171l-34 4q-135 0 -181 -154zM2039 748q229 0 361 -237q29 -87 29 -152v-12q0 -229 -241 -352q-75 -30 -149 -30h-7q-200 0 -328 192q-55 94 -55 186v23q0 207 205 333q99 49 185 49z M1853 357q0 -127 133 -178l48 -6h13q122 0 171 140l3 29v24q0 127 -150 171l-34 4q-135 0 -181 -154z" />
<glyph unicode="&#x2032;" horiz-adv-x="455" d="M306 1459h7q103 -18 103 -102v-20q0 -31 -175 -259q-28 -31 -59 -31h-8q-56 0 -74 70v18q110 275 140 302q37 22 66 22z" />
<glyph unicode="&#x2033;" horiz-adv-x="673" d="M314 1459h7q103 -18 103 -102v-20q0 -31 -175 -259q-28 -31 -59 -31h-8q-56 0 -74 70v18q110 275 140 302q37 22 66 22zM565 1447q107 -21 107 -110q0 -42 -114 -185q-75 -117 -120 -117h-12q-56 0 -74 70q0 27 117 293q47 49 96 49z" />
<glyph unicode="&#x2039;" horiz-adv-x="631" d="M439 470q101 -74 101 -135v-7q-18 -103 -102 -103h-20q-42 0 -238 177l-12 41v48q0 53 158 167q51 55 100 55h10q104 -16 104 -106v-4q0 -61 -101 -133z" />
<glyph unicode="&#x203a;" horiz-adv-x="631" d="M193 460q-101 73 -101 135v7q21 107 110 107q50 0 186 -126q76 -46 76 -100v-36q0 -62 -123 -147q-87 -83 -139 -83h-7q-103 19 -103 106v4q0 62 101 133z" />
<glyph unicode="&#x203c;" horiz-adv-x="850" d="M649 1472h12q84 0 103 -96v-961q-24 -99 -110 -99q-108 16 -108 99v965q19 92 103 92zM640 236h10q131 -19 131 -122v-22q0 -95 -122 -122h-15q-104 0 -130 133q27 133 126 133zM245 1472h12q84 0 103 -96v-961q-24 -99 -110 -99q-108 16 -108 99v965q19 92 103 92z M236 236h10q131 -19 131 -122v-22q0 -95 -122 -122h-15q-104 0 -130 133q27 133 126 133z" />
<glyph unicode="&#x203e;" horiz-adv-x="837" d="M186 1395l71 -7h397l36 4q81 0 108 -106q0 -80 -94 -114l-65 4h-362l-69 -4q-94 33 -94 113q18 103 72 103v7z" />
<glyph unicode="&#x2044;" horiz-adv-x="462" d="M665 1483h12q84 0 102 -103v-7q0 -44 -123 -191q-974 -1264 -994 -1276l-40 -15h-21q-74 0 -102 89v25q0 45 123 191l978 1262q32 25 65 25z" />
<glyph unicode="&#x2215;" horiz-adv-x="462" d="M665 1483h12q84 0 102 -103v-7q0 -44 -123 -191q-974 -1264 -994 -1276l-40 -15h-21q-74 0 -102 89v25q0 45 123 191l978 1262q32 25 65 25z" />
<glyph unicode="&#x205f;" horiz-adv-x="473" />
<glyph unicode="&#x207f;" horiz-adv-x="787" d="M156 1095q68 -18 68 -68v19q54 49 180 49q137 0 244 -114q77 -96 77 -203v-281q0 -54 -69 -67h-8q-69 13 -69 72v247q0 145 -122 190q-30 8 -53 8h-7q-102 0 -159 -107q-14 -31 -14 -109v-231q0 -58 -70 -70h-4q-59 0 -72 71v514q8 80 78 80z" />
<glyph unicode="&#x20a3;" horiz-adv-x="1127" d="M250 1474l51 -11h712l15 4q92 0 107 -114q-21 -97 -111 -97h-641v-451h409l51 4q75 0 97 -103q0 -71 -82 -108l-81 4h-394v-198h89l33 4q80 0 102 -102q0 -73 -84 -109l-68 4h-72v-103l5 -27q-23 -101 -101 -101h-10q-97 18 -97 102v129h-68l-64 -4q-88 28 -88 102v7 q0 73 89 103l42 -5h89v959q15 100 70 100v11z" />
<glyph unicode="&#x20a4;" horiz-adv-x="946" d="M244 411h-109q-95 18 -95 98v11q0 80 100 86l121 -2l-5 16h-117q-99 13 -99 99q20 102 105 102h16q-68 119 -68 238q0 243 256 374q80 25 120 25h38q192 0 330 -184l6 -39q-24 -105 -106 -105q-49 0 -119 80q-53 41 -111 41h-23q-128 0 -181 -153l-3 -44q0 -51 72 -186 l22 -47h240q103 -20 103 -108q-22 -99 -94 -93l-174 -1v-11h167q97 -8 97 -92v-7q-18 -98 -102 -98h-173q-5 0 -5 -19q0 -12 -4 -32l-81 -183h335q-4 0 -4 7q0 14 20 59q44 43 89 43q102 -20 102 -105q0 -35 -78 -177q-39 -34 -76 -34h-554q-83 0 -102 104q3 29 144 337z " />
<glyph unicode="&#x20a7;" horiz-adv-x="2028" d="M1172 832h-71v-509q0 -120 68 -143h-2q9 -9 10 -9q0 3 -17 27q-20 30 -20 58v22q0 81 110 93q53 0 125 -103q88 -82 206 -82q140 0 232 131l4 14q-1 20 -41 24q-506 113 -540 144q-103 78 -103 193q0 96 39 140zM208 1260v-479h205q170 0 234 163q13 33 13 80 q0 148 -154 220q-35 16 -85 16h-213zM1341 984q-6 -4 -6 -5h1q1 0 15 9q120 63 237 63q274 0 433 -253l4 -37v-6q0 -85 -102 -100q-68 0 -126 96q-91 89 -209 89q-154 0 -241 -144l-2 -10q0 -20 86 -27q430 -104 475 -121q123 -81 123 -205v-3q0 -171 -242 -309 q-105 -47 -221 -47q-126 0 -197 41q-10 -45 -89 -45h-77q-194 0 -288 210q-17 53 -17 121v531h-69q-36 -87 -144 -173q-125 -86 -245 -86h-232v-505q0 -80 -99 -98h-7q-83 0 -102 103v1283q12 112 94 112h346q218 0 371 -224q57 -115 57 -208v-5h30v280q12 109 93 109h17 q93 -20 93 -89v-300h119l33 4q75 0 88 -51z" />
<glyph unicode="&#x20ac;" horiz-adv-x="1193" d="M755 1487q236 0 445 -148q22 -42 22 -66v-7q0 -92 -110 -103h-11l-139 71q-127 40 -207 40q-250 0 -436 -222q-40 -61 -52 -90h701q101 -17 101 -103v-7q-18 -100 -103 -100h-751l-2 -23l2 -28h753q101 -15 101 -103v-7q-18 -99 -103 -99h-700q68 -168 267 -262 q111 -47 214 -47h12q159 0 332 108h35q96 -21 96 -99v-12q0 -103 -279 -186q-84 -24 -177 -24h-19q-375 0 -627 347q-120 202 -120 412q0 394 359 642q193 116 396 116z" />
<glyph unicode="&#x2105;" horiz-adv-x="1768" d="M1374 1460h12q80 0 98 -99v-6q0 -45 -131 -197q-95 -132 -898 -1166q-37 -22 -73 -22q-94 26 -94 94v23q0 34 149 219q808 1052 875 1131q31 23 62 23zM441 1460q150 0 275 -115q14 -25 14 -46v-5q-14 -77 -80 -77h-3q-29 0 -100 54q-49 25 -99 25h-15q-134 0 -203 -141 q-16 -48 -16 -86q0 -137 142 -208q41 -16 90 -16q79 0 164 71l31 7h12q63 0 77 -76v-5q0 -75 -190 -148q-62 -11 -92 -11h-21q-157 0 -292 147q-83 118 -83 242q0 189 167 317q107 71 222 71zM1346 739q147 0 267 -112q114 -119 114 -269q0 -215 -202 -337q-89 -45 -172 -45 h-21q-154 0 -286 145q-82 114 -82 237q0 186 164 311q105 70 218 70zM1127 365v-13q0 -123 120 -192q42 -21 91 -21h15q128 0 196 133q15 41 15 80v13q0 102 -94 174q-56 37 -127 37q-140 0 -206 -147q-10 -34 -10 -64z" />
<glyph unicode="&#x2113;" horiz-adv-x="846" d="M562 1462q196 0 272 -206l9 -59v-21q0 -102 -130 -263l-213 -319v-353q0 -60 34 -60h13q62 26 85 26q75 0 99 -105q-30 -132 -197 -132q-157 0 -232 180l-9 78v48q-26 -42 -87 -42h-7q-86 0 -102 107q0 37 192 308l4 7v512q0 218 215 286zM500 964q132 185 132 204v34 q0 36 -67 50h-1q-52 0 -64 -78v-210z" />
<glyph unicode="&#x2116;" horiz-adv-x="2271" d="M998 374v992q18 95 98 95h11q81 0 98 -98v-1288q0 -87 -107 -105q-61 0 -158 144l-733 936v-978q0 -81 -100 -98h-5q-83 0 -102 102v1274q12 111 94 111h15q67 0 108 -88q53 -60 781 -999zM1287 452l71 -7h717l36 4q85 0 108 -107q0 -75 -89 -113l-74 4h-678l-69 -4 q-94 33 -94 113q18 103 72 103v7zM1712 1306q165 0 299 -125q127 -133 127 -301q0 -240 -226 -376q-99 -50 -191 -50h-24q-172 0 -320 161q-91 128 -91 265q0 208 183 348q117 78 243 78zM1462 889v-14q0 -142 137 -220q48 -25 104 -25h18q146 0 223 152q18 47 18 93v14 q0 117 -108 198q-63 43 -145 43q-160 0 -235 -167q-12 -40 -12 -74z" />
<glyph unicode="&#x2122;" horiz-adv-x="1497" d="M214 1471h438q59 -11 59 -62v-7q0 -51 -67 -60h-147v-539q0 -51 -61 -62h-4q-52 0 -64 62v539h-152q-62 12 -62 70q14 59 60 59zM891 1102v-308q0 -51 -61 -62h-5q-52 0 -64 63v608q7 67 60 67h8q50 0 67 -66l204 -456q12 43 127 304l90 194q24 24 48 24h8q53 0 60 -67 v-608q-12 -63 -64 -63h-5q-61 11 -61 62v307q-147 -333 -156 -346q-25 -23 -50 -23q-53 0 -83 94z" />
<glyph unicode="&#x2126;" horiz-adv-x="1709" d="M317 179q-58 56 -111 137q-111 194 -111 408q0 351 321 603q208 140 433 140q382 0 638 -354q116 -206 116 -389q0 -314 -223 -542h93q100 -19 100 -94v-19q-21 -95 -99 -95h-492q-86 0 -103 112q27 96 100 96q95 0 268 148q151 177 151 386q0 258 -232 445 q-153 97 -302 97h-30q-258 0 -436 -235q-98 -151 -98 -307q0 -314 291 -488q48 -30 168 -58q67 -28 67 -105q-27 -95 -103 -95h-487q-103 20 -103 109q23 100 103 100h81z" />
<glyph unicode="&#x212e;" horiz-adv-x="1174" d="M596 1034q307 0 477 -291q59 -115 59 -248v-22q-18 -100 -100 -100h-733q29 -95 160 -166q77 -30 145 -30q77 0 187 55h32q93 -18 93 -96v-11q0 -117 -292 -155h-28q-286 0 -458 268q-70 127 -70 264q0 293 275 466q135 66 253 66zM282 576h640q0 35 -81 144 q-110 104 -215 104h-41q-160 0 -263 -158q-37 -63 -40 -90z" />
<glyph unicode="&#x215b;" horiz-adv-x="1498" d="M1223 1472h12q81 0 98 -100v-6q0 -45 -131 -198q-96 -133 -906 -1176q-37 -22 -74 -22q-94 26 -94 95v23q0 34 151 220q814 1061 881 1141q31 23 63 23zM353 1464q45 0 78 -57l-3 -65v-652l3 -39q-21 -68 -75 -68q-44 0 -72 53v654l-32 -7h-29q-53 28 -53 71q0 74 110 91 q0 3 73 19zM1191 836q111 0 187 -98q45 -60 45 -132v-11q0 -98 -59 -151q93 -68 93 -205q0 -136 -124 -227q-70 -46 -147 -46h-11q-131 0 -225 129q-41 74 -41 144q0 141 99 212q-25 19 -43 92q-7 20 -7 52v11q0 123 117 198q59 32 116 32zM1101 595q0 -57 72 -81l19 -2 q61 0 84 66l4 25q0 64 -70 85l-23 2q-59 0 -83 -64zM1052 239q0 -90 97 -126q11 -4 37 -4q86 0 123 94l3 27v20q0 71 -86 112q-23 7 -42 7q-93 0 -127 -95z" />
<glyph unicode="&#x215c;" horiz-adv-x="1523" d="M1265 1472h12q81 0 98 -100v-6q0 -45 -131 -198q-96 -133 -906 -1176q-37 -22 -74 -22q-94 26 -94 95v23q0 34 151 220q814 1061 881 1141q31 23 63 23zM1233 836q111 0 187 -98q45 -60 45 -132v-11q0 -98 -59 -151q93 -68 93 -205q0 -136 -124 -227q-70 -46 -147 -46 h-11q-131 0 -225 129q-41 74 -41 144q0 141 99 212q-25 19 -43 92q-7 20 -7 52v11q0 123 117 198q59 32 116 32zM1143 595q0 -57 72 -81l19 -2q61 0 84 66l4 25q0 64 -70 85l-23 2q-59 0 -83 -64zM1094 239q0 -90 97 -126q11 -4 37 -4q86 0 123 94l3 27v20q0 71 -86 112 q-23 7 -42 7q-93 0 -127 -95zM356 1548q144 0 216 -146q18 -42 18 -77v-22q0 -96 -58 -151q92 -64 92 -208q0 -198 -220 -271l-58 -4h-8q-187 0 -264 220l-4 58q0 38 52 69h27q67 0 75 -107q35 -93 117 -93h12q90 0 122 108l3 26q0 86 -104 123q-93 0 -93 83q16 67 91 67 q52 0 72 80v22q0 50 -74 76h-17q-63 0 -87 -73v-36q-28 -53 -68 -53h-14q-65 12 -65 67v8q0 164 186 230z" />
<glyph unicode="&#x215d;" horiz-adv-x="1569" d="M1324 1472h12q81 0 98 -100v-6q0 -45 -131 -198q-96 -133 -906 -1176q-37 -22 -74 -22q-94 26 -94 95v23q0 34 151 220q814 1061 881 1141q31 23 63 23zM1292 836q111 0 187 -98q45 -60 45 -132v-11q0 -98 -59 -151q93 -68 93 -205q0 -136 -124 -227q-70 -46 -147 -46 h-11q-131 0 -225 129q-41 74 -41 144q0 141 99 212q-25 19 -43 92q-7 20 -7 52v11q0 123 117 198q59 32 116 32zM1202 595q0 -57 72 -81l19 -2q61 0 84 66l4 25q0 64 -70 85l-23 2q-59 0 -83 -64zM1153 239q0 -90 97 -126q11 -4 37 -4q86 0 123 94l3 27v20q0 71 -86 112 q-23 7 -42 7q-93 0 -127 -95zM168 1468l26 -3h321q57 0 72 -71q0 -59 -72 -75h-265v-151h90q159 0 247 -162q28 -67 28 -118q0 -145 -137 -240q-71 -39 -140 -39h-7q-164 0 -255 169q-22 64 -22 114q24 63 74 63q76 0 76 -99q21 -64 67 -87q39 -15 62 -15q90 0 127 92 q7 18 7 42q0 97 -102 130l-46 4h-145q-51 0 -70 60v318q0 44 64 68z" />
<glyph unicode="&#x215e;" horiz-adv-x="1494" d="M1215 1472h12q81 0 98 -100v-6q0 -45 -131 -198q-96 -133 -906 -1176q-37 -22 -74 -22q-94 26 -94 95v23q0 34 151 220q814 1061 881 1141q31 23 63 23zM1183 836q111 0 187 -98q45 -60 45 -132v-11q0 -98 -59 -151q93 -68 93 -205q0 -136 -124 -227q-70 -46 -147 -46 h-11q-131 0 -225 129q-41 74 -41 144q0 141 99 212q-25 19 -43 92q-7 20 -7 52v11q0 123 117 198q59 32 116 32zM1093 595q0 -57 72 -81l19 -2q61 0 84 66l4 25q0 64 -70 85l-23 2q-59 0 -83 -64zM1044 239q0 -90 97 -126q11 -4 37 -4q86 0 123 94l3 27v20q0 71 -86 112 q-23 7 -42 7q-93 0 -127 -95zM461 1315h-284q-71 15 -71 76q15 68 67 68h417q66 -14 66 -64v-11q0 -20 -27 -59l-405 -720q-30 -20 -51 -20h-5q-68 13 -68 71v11q8 27 361 648z" />
<glyph unicode="&#x2190;" horiz-adv-x="1923" d="M532 778h1284q94 -20 94 -100q-19 -97 -97 -97h-1280l150 -97q21 -41 21 -64v-10q-17 -90 -93 -90h-22q-42 11 -428 260q-77 25 -77 98q0 72 135 135q345 226 381 226h10q94 -17 94 -97v-7q0 -66 -159 -149z" />
<glyph unicode="&#x2191;" horiz-adv-x="833" d="M348 1019q-100 -166 -136 -166l-17 -3h-25q-82 25 -82 86v17q0 32 100 185l180 294q28 28 73 36q74 0 138 -135q225 -346 225 -380v-13q-19 -90 -93 -90h-18q-56 0 -120 123l-29 44v-1274q0 -76 -93 -93h-10q-93 17 -93 97v1272z" />
<glyph unicode="&#x2192;" horiz-adv-x="1910" d="M1443 778q-128 77 -161 110l-9 44v17q0 70 93 90q45 0 319 -180q154 -89 194 -131l11 -36v-25q0 -58 -90 -97q-392 -250 -419 -250h-17q-91 17 -91 93v15q0 60 174 153h-1282q-82 0 -98 106q25 91 94 91h1282z" />
<glyph unicode="&#x2193;" horiz-adv-x="808" d="M426 1474q72 0 104 -84l-3 -66v-1215l98 151q37 22 63 22h7q93 -17 93 -97v-7q0 -31 -99 -183l-183 -297q-37 -31 -72 -31h-4q-69 0 -130 130q-220 339 -224 372v20q0 76 93 93h7q69 0 120 -114l38 -57v1213l-3 56q0 69 95 94z" />
<glyph unicode="&#x2194;" horiz-adv-x="1961" d="M543 772h933q-111 70 -150 104l-14 40v22q0 76 93 93h7q39 0 289 -166q182 -108 214 -138l13 -51q0 -73 -86 -108q-371 -236 -415 -251h-34q-81 26 -81 86v17q0 67 137 135q3 4 30 21h-951q124 -76 160 -109q16 -29 16 -54v-7q0 -79 -97 -96q-37 0 -337 193 q-166 96 -178 135l-4 29v5q0 68 89 104q363 233 415 251h14q98 -15 98 -96v-7q0 -67 -120 -124q-23 -15 -41 -28z" />
<glyph unicode="&#x2195;" horiz-adv-x="825" d="M338 1028q-75 -123 -108 -160l-51 -15q-91 0 -103 101v10q17 52 258 427q29 71 93 71h7q69 0 103 -88q240 -377 248 -412v-13q-19 -96 -99 -96q-74 0 -126 119l-27 40v-916l81 128q39 34 78 34q96 -19 96 -99q0 -38 -146 -261q-129 -213 -160 -240l-42 -8h-13 q-66 0 -110 105q-238 365 -238 401v6q19 96 99 96q70 0 130 -122l30 -48v940z" />
<glyph unicode="&#x21a8;" horiz-adv-x="879" d="M367 1028q-75 -123 -108 -160l-51 -15q-91 0 -103 101v10q17 52 258 427q29 71 93 71h7q69 0 103 -88q240 -377 248 -412v-13q-19 -96 -99 -96q-74 0 -126 119l-27 40v-916l81 128q39 34 78 34q96 -19 96 -99q0 -38 -146 -261q-129 -213 -160 -240l-42 -8h-13 q-66 0 -110 105q-238 365 -238 401v6q19 96 99 96q70 0 130 -122l30 -48v940z" />
<glyph unicode="&#x2202;" horiz-adv-x="1131" d="M243 499q0 -198 196 -298q65 -28 130 -28q194 0 295 192q28 64 28 138q0 191 -199 294q-75 25 -124 25q-191 0 -294 -188q-32 -74 -32 -135zM728 1003q-119 146 -342 222q-111 30 -195 30l-46 -4q-75 0 -97 97v18q18 96 99 96q565 0 839 -483q109 -176 109 -514 q0 -174 -164 -351q-166 -144 -354 -144h-23q-254 0 -435 250q-79 140 -79 279q0 281 267 456q127 70 262 70q91 0 159 -22z" />
<glyph unicode="&#x2206;" horiz-adv-x="1144" d="M601 1068l-339 -888h677zM595 1473h12q85 0 113 -137q477 -1229 477 -1255v-12q0 -81 -101 -99h-992q-87 0 -104 114l512 1344q40 45 83 45z" />
<glyph unicode="&#x220f;" horiz-adv-x="1378" d="M178 1473h1007q103 -19 103 -102v-7q-21 -99 -94 -99h-50v-1510h41q103 -20 103 -109q-18 -99 -68 -99l-323 -4q-85 0 -105 107v6q0 76 103 99h41v1510h-509v-1510h41q103 -20 103 -108q-17 -100 -68 -100h-300l-23 -4q-85 0 -105 107v6q0 76 103 99h41v1510h-50 q-78 0 -94 108q0 77 103 100z" />
<glyph unicode="&#x2211;" horiz-adv-x="1206" d="M744 497l-665 811l-9 41v14q0 73 94 94h859q95 -20 95 -90v-19q0 -80 -98 -97h-625l582 -709l6 -38v-13q0 -39 -168 -228l-409 -501h621q102 -19 102 -94v-22q0 -64 -94 -95l-32 5h-791l-27 -5q-100 27 -100 95v22q0 39 168 229z" />
<glyph unicode="&#x2212;" horiz-adv-x="1092" d="M162 804l71 -7h717l36 4q85 0 108 -107q0 -75 -89 -113l-74 4h-678l-69 -4q-94 33 -94 113q18 103 72 103v7z" />
<glyph unicode="&#x221a;" horiz-adv-x="1127" d="M254 300q621 1254 647 1284l55 25l44 -4h89l38 3q95 -26 95 -102v-7q0 -74 -90 -102l-66 4h-44q0 -22 -666 -1365q-31 -66 -95 -66h-4q-80 0 -133 142q-124 206 -124 248v7q0 78 106 98q74 0 125 -123z" />
<glyph unicode="&#x221e;" horiz-adv-x="1313" d="M436 1013q150 0 253 -100q107 100 259 100q231 0 352 -259l14 -109v-6q0 -262 -287 -361l-81 -9q-154 0 -257 99q-100 -99 -255 -99q-245 0 -356 268l-14 104q0 247 268 358zM798 626q0 -93 126 -141h63q77 0 127 109l9 55q0 107 -126 155h-62q-93 0 -137 -136v-42z M254 622q0 -93 126 -141h63q77 0 127 109l9 55q0 107 -126 155h-62q-93 0 -137 -136v-42z" />
<glyph unicode="&#x221f;" horiz-adv-x="1431" d="M191 1280q96 -25 96 -92v-1015h1008q85 0 100 -109q-27 -94 -100 -94h-1112q-80 0 -99 100v1097q11 113 107 113z" />
<glyph unicode="&#x2229;" horiz-adv-x="1221" d="M609 1467q306 0 481 -300q52 -122 52 -222v-881q0 -73 -99 -94h-10q-98 21 -98 94v798q0 218 -93 292q-95 102 -233 102q-209 0 -302 -211q-24 -40 -24 -183v-794q0 -81 -98 -98h-10q-99 18 -99 102v873q0 263 256 446q142 76 277 76z" />
<glyph unicode="&#x222b;" horiz-adv-x="920" d="M724 1687h15q155 0 228 -172v-15q-15 -99 -97 -99h-7q-62 0 -102 77q-7 6 -32 11q-49 0 -49 -99l-182 -1495q-84 -166 -227 -166h-18q-163 0 -235 195v12q21 94 90 94h18q68 0 99 -90q17 -13 32 -13h11q48 0 48 110l178 1480q80 170 230 170z" />
<glyph unicode="&#x2248;" d="M353 1056h6q55 0 356 -84h24q35 0 97 61l47 12q98 -23 98 -91v-16q0 -78 -161 -149l-83 -13h-10q-53 0 -356 84h-20q-36 0 -84 -49q-32 -23 -67 -23q-95 18 -95 98v12q0 77 182 149zM375 756q45 0 356 -84h28q28 0 103 66l38 7q97 -21 97 -99v-8q0 -81 -174 -153l-66 -9 h-30q-34 0 -344 84h-4q-49 0 -96 -48q-31 -24 -67 -24q-95 20 -95 90v16q0 61 90 110q76 52 164 52z" />
<glyph unicode="&#x2260;" horiz-adv-x="1028" d="M445 647h-202q-92 0 -107 116q28 100 107 100h202v89q0 78 94 91h8q94 -13 94 -95v-85h214q83 0 106 -110q-25 -106 -106 -106h-214v-116h213q107 -21 107 -113q-22 -103 -106 -103h-214v-90q-14 -97 -96 -97h-10q-90 14 -90 97v90h-210q-82 0 -98 112q0 80 106 104h202 v116z" />
<glyph unicode="&#x2261;" horiz-adv-x="1161" d="M151 314l71 -7h717l36 4q85 0 108 -107q0 -75 -89 -113l-74 4h-678l-69 -4q-94 33 -94 113q18 103 72 103v7zM156 1093l71 -7h717l36 4q85 0 108 -107q0 -75 -89 -113l-74 4h-678l-69 -4q-94 33 -94 113q18 103 72 103v7zM156 705l71 -7h717l36 4q85 0 108 -107 q0 -75 -89 -113l-74 4h-678l-69 -4q-94 33 -94 113q18 103 72 103v7z" />
<glyph unicode="&#x2264;" d="M846 1196q103 -22 103 -106v-8q0 -74 -111 -126l-422 -262l503 -321q30 -33 30 -71v-12q0 -87 -108 -102q-43 0 -162 81l-553 347q-29 40 -29 74q0 79 164 158q543 348 570 348h15zM187 186h668q79 0 94 -100v-17q-18 -99 -90 -99h-664q-86 0 -98 111q18 105 90 105z" />
<glyph unicode="&#x2265;" d="M200 191h668q78 0 94 -95v-22q-18 -99 -90 -99h-672q-73 0 -90 110q17 106 90 106zM646 697q-468 286 -507 321q-29 33 -29 81q0 77 107 102q46 0 335 -193q353 -210 392 -251q18 -30 18 -58v-16q0 -63 -135 -130q-562 -356 -581 -356l-30 -4q-106 16 -106 106v4 q0 80 152 150z" />
<glyph unicode="&#xf001;" horiz-adv-x="1021" d="M619 1466q204 0 327 -207l17 -61q0 -84 -102 -106q-78 0 -123 108q-54 55 -122 55q-95 0 -141 -107l-11 -80v-37h132l60 4q73 0 96 -99v-14q0 -70 -94 -94h-194v-717l4 -42q0 -76 -102 -99q-76 0 -109 90l4 51v717h-167q-78 0 -94 107q0 59 84 100l83 -4h90v42 q0 266 229 364q42 21 133 29zM864 1069q103 -20 103 -105v-891q-18 -99 -102 -99h-7q-98 19 -98 94v902q21 99 104 99z" />
<glyph unicode="&#xfb01;" horiz-adv-x="1021" d="M619 1466q204 0 327 -207l17 -61q0 -84 -102 -106q-78 0 -123 108q-54 55 -122 55q-95 0 -141 -107l-11 -80v-37h132l60 4q73 0 96 -99v-14q0 -70 -94 -94h-194v-717l4 -42q0 -76 -102 -99q-76 0 -109 90l4 51v717h-167q-78 0 -94 107q0 59 84 100l83 -4h90v42 q0 266 229 364q42 21 133 29zM864 1069q103 -20 103 -105v-891q-18 -99 -102 -99h-7q-98 19 -98 94v902q21 99 104 99z" />
<glyph unicode="&#xf002;" horiz-adv-x="1081" d="M621 1473q206 0 328 -207l19 -51l-4 -50v-983h49q74 0 95 -99v-10q-18 -99 -102 -99h-148q-83 0 -102 103v1099q-26 75 -138 85q-94 0 -141 -107l-11 -81v-37h133l60 4q74 0 96 -99v-15q0 -70 -94 -94h-195v-721l4 -42q0 -76 -103 -99q-76 0 -109 91l4 50v721h-167 q-79 0 -95 108q0 59 85 100l83 -4h90v42q0 268 230 365q43 21 133 30z" />
<glyph unicode="&#xfb02;" horiz-adv-x="1081" d="M621 1473q206 0 328 -207l19 -51l-4 -50v-983h49q74 0 95 -99v-10q-18 -99 -102 -99h-148q-83 0 -102 103v1099q-26 75 -138 85q-94 0 -141 -107l-11 -81v-37h133l60 4q74 0 96 -99v-15q0 -70 -94 -94h-195v-721l4 -42q0 -76 -103 -99q-76 0 -109 91l4 50v721h-167 q-79 0 -95 108q0 59 85 100l83 -4h90v42q0 268 230 365q43 21 133 30z" />
<glyph horiz-adv-x="0" />
</font>
</defs>
</svg>
